osu file format v9

[General]
AudioFilename: EMPRESS.mp3
AudioLeadIn: 0
PreviewTime: 314771
Countdown: 0
SampleSet: Soft
StackLeniency: 0.7
Mode: 0
LetterboxInBreaks: 1

[Editor]
DistanceSpacing: 0.5
BeatDivisor: 4
GridSize: 8

[Metadata]
Title:EMPRESS Dani Nintei Kaiden
Artist:Kinjishi, Humanoido, etc..
Creator:Sharp
Version:Kaiden
Source:BeatmaniaIIDX 16 EMPRESS
Tags:Nageki no ki mendes himiko mei Suzaku vs Genbu Amuro vs Killer Dj taka yoshitaka tatsh wac

[Difficulty]
HPDrainRate:6
CircleSize:4
OverallDifficulty:7
ApproachRate:8
SliderMultiplier:1.6
SliderTickRate:1

[Events]
//Background and Video events
0,0,"main.jpg"
//Break Periods
2,122195,130232
2,177253,180589
2,215110,216303
2,239752,247697
2,254322,254507
2,294376,303805
2,349673,349859
2,376725,381890
2,391239,391490
2,440440,449090
//Storyboard Layer 0 (Background)
//Storyboard Layer 1 (Fail)
//Storyboard Layer 2 (Pass)
//Storyboard Layer 3 (Foreground)
Sprite,Foreground,Centre,"black.png",320,240 M,0,-1380,,320,240 F,0,-1380,511454,1 F,0,511454,,1
Sprite,Foreground,Centre,"white2.png",320,240 M,0,243806,,320,240 F,0,243806,244520,0,0.1560001 F,0,244520,246306,0.1560001,1 F,0,246306,247020,1,0
Sprite,Foreground,Centre,"wallpaper-13931.jpg",320,240 F,0,381487,382620,0,1 F,0,382620,507798,1 F,0,507798,509616,1,0
Sprite,Foreground,Centre,"wallpaper-50123.jpg",320,240 F,0,13620,15120,0,1 M,0,15120,,320,240 F,0,15120,123120,1 F,0,123120,124620,1,0
Sprite,Foreground,Centre,"wallpaper-3042.jpg",320,240 F,0,130950,179521,1 F,0,179521,,1 F,0,179521,216664,1,0 F,0,216664,217021,0,1 F,0,217021,239520,1 F,0,239520,242378,1,0
Sprite,Foreground,Centre,"wallpaper-2751.jpg",320,240 F,0,180592,181307,0,1 F,0,181307,216307,1 F,0,216307,216664,1,0
Sprite,Foreground,Centre,"wallpaper-287082.jpg",320,240 F,0,248415,249063,0,1 F,0,249063,256198,1,0.9784568 F,0,256198,376427,0.9784568,1 F,0,376427,377872,1,0
Sprite,Foreground,Centre,"WORDSB\1ST.png",320,240 M,0,120,,318,72 F,0,120,495,0,1 F,0,495,1995,1 F,0,1995,2370,1,0
Sprite,Foreground,Centre,"WORDSB\kino.png",320,240 M,0,120,,321,277 F,0,120,495,0,1 F,0,495,870,1 F,0,870,1620,1 F,0,1620,1995,1 F,0,1995,2370,1,0
Sprite,Foreground,Centre,"WORDSB\CONTEMPORARY.png",320,240 M,0,120,,320,124 F,0,120,495,0,1 F,0,495,1995,1 F,0,1995,2370,1,0
Sprite,Foreground,Centre,"WORDSB\kinjishi.png",320,240 M,0,120,,322,356 F,0,120,495,0,1 F,0,495,1995,1 F,0,1995,2370,1,0
Sprite,Foreground,Centre,"WORDSB\nage.png",320,240 M,0,120,,235,251 F,0,120,495,0,1 F,0,495,870,1 F,0,870,1620,1 F,0,1620,1995,1 F,0,1995,2370,1,0
Sprite,Foreground,Centre,"WORDSB\ki.png",320,240 M,0,120,,405,249 F,0,120,495,0,1 F,0,495,870,1 F,0,870,1620,1 F,0,1620,1995,1 F,0,1995,2370,1,0
Sprite,Foreground,Centre,"WORDSB\Humanoid.png",320,240 M,0,126870,,318,363 F,0,126870,127245,0,1 F,0,127245,128745,1 F,0,128745,129120,1,0
Sprite,Foreground,Centre,"WORDSB\MENDES.png",320,240 M,0,126870,,331,241 F,0,126870,127245,0,1 F,0,127245,128745,1 F,0,128745,129120,1,0
Sprite,Foreground,Centre,"WORDSB\IRREGULAR HI-BREAK.png",320,240 M,0,126870,,324,122 F,0,126870,127245,0,1 F,0,127245,128745,1 F,0,128745,129120,1,0
Sprite,Foreground,Centre,"WORDSB\2ND.png",320,240 M,0,126870,,317,72 F,0,126870,127245,0,1 F,0,127245,128745,1 F,0,128745,129120,1,0
Sprite,Foreground,Centre,"WORDSB\SuzaGen.png",320,240 M,0,244520,,319,351 F,0,244520,244878,0,1 F,0,244878,246306,1 F,0,246306,246663,1,0
Sprite,Foreground,Centre,"WORDSB\himiko.png",320,240 M,0,244520,,320,240 F,0,244520,244878,0,1 F,0,244878,246306,1 F,0,246306,246663,1,0
Sprite,Foreground,Centre,"WORDSB\ESOTERIC SPEEDCORE.png",320,240 M,0,244520,,320,125 F,0,244520,244878,0,1 F,0,244878,246306,1 F,0,246306,246663,1,0
Sprite,Foreground,Centre,"WORDSB\3RD.png",320,240 M,0,244520,,319,73 F,0,244520,244878,0,1 F,0,244878,246306,1 F,0,246306,246663,1,0
Sprite,Foreground,Centre,"WORDSB\Amuro vs Killer.png",320,240 F,0,378957,379318,0,1 M,0,379318,,320,347 F,0,379318,,1 F,0,379318,380403,1 F,0,380403,380764,1,0
Sprite,Foreground,Centre,"WORDSB\HUMAN SEQUENCER.png",320,240 F,0,378957,379318,0,1 M,0,379318,,317,125 F,0,379318,,1 F,0,379318,380403,1 F,0,380403,380764,1,0
Sprite,Foreground,Centre,"WORDSB\4FINAL.png",320,240 F,0,378957,379318,0,1 M,0,379318,,326,73 F,0,379318,380403,1 F,0,380403,380764,1,0
Sprite,Foreground,Centre,"WORDSB\mei.png",320,240 F,0,378957,379318,0,1 M,0,379318,,318,240 F,0,379318,,1 F,0,379318,380403,1 F,0,380403,380764,1,0
Sprite,Foreground,Centre,"BPMSB\BPM.png",320,240 M,0,120,,277,384 F,0,120,3120,0 F,0,3120,9120,0,1 F,0,9120,123120,1 F,0,123120,124620,1,0 F,0,124620,129120,0 F,0,129120,130620,0,1 F,0,130620,240235,1 F,0,240235,242378,1,0 F,0,242378,246663,0 F,0,246663,248092,0,1 F,0,248092,376427,1 F,0,376427,377872,1,0 F,0,377872,380764,0 F,0,380764,382210,0,1 F,0,382210,507798,1 F,0,507798,509616,1,0
Sprite,Foreground,Centre,"BPMSB\bpm160.png",320,240 F,0,120,3120,0 M,0,870,,416,370 F,0,3120,9120,0,1 F,0,9120,123120,1 F,0,123120,124620,1,0 F,0,459161,460661,1
Sprite,Foreground,Centre,"BPMSB\bpm168.png",320,240 M,0,129120,,416,370 F,0,129120,130620,0,1 F,0,130620,240235,1 F,0,240235,242378,1,0
Sprite,Foreground,Centre,"BPMSB\bpm185.png",320,240 M,0,246663,,416,370 F,0,246663,248092,0,1 F,0,294176,,0 F,0,314933,,1 F,0,314933,360955,1
Sprite,Foreground,Centre,"BPMSB\bpm93.png",320,240 M,0,294176,,441,370 F,0,294176,314933,1
Sprite,Foreground,Centre,"BPMSB\bpm88.png",320,240 M,0,360955,,441,370 F,0,360955,366409,1
Sprite,Foreground,Centre,"BPMSB\bpm85.png",320,240 M,0,366409,,441,370 F,0,366409,370644,1
Sprite,Foreground,Centre,"BPMSB\bpm83.png",320,240 M,0,370644,,441,370 F,0,370644,376427,1 F,0,376427,377872,1,0
Sprite,Foreground,Centre,"BPMSB\bpm200.png",320,240 M,0,380764,,416,370 F,0,380764,382210,0,1 F,0,440220,,0 F,0,440220,,0 F,0,440220,440295,0 F,0,464668,500068,1
Sprite,Foreground,Centre,"BPMSB\bpm100.png",320,240 M,0,440220,,416,370 F,0,440220,,1 F,0,449820,,0 F,0,503260,503860,1
Sprite,Foreground,Centre,"BPMSB\bpm110.png",320,240 M,0,449820,,416,370 F,0,449820,,1 F,0,452001,,0 F,0,503860,504405,1
Sprite,Foreground,Centre,"BPMSB\bpm120.png",320,240 M,0,452001,,416,370 F,0,452001,454001,1
Sprite,Foreground,Centre,"BPMSB\bpm130.png",320,240 M,0,454001,,416,370 F,0,454001,455847,1
Sprite,Foreground,Centre,"BPMSB\bpm140.png",320,240 M,0,455847,,416,370 F,0,455847,,1 F,0,457561,,0 F,0,502832,503260,1
Sprite,Foreground,Centre,"BPMSB\bpm150.png",320,240 M,0,457561,,416,370 F,0,457561,459161,1
Sprite,Foreground,Centre,"BPMSB\bpm170.png",320,240 M,0,460661,,416,370 F,0,460661,462072,1
Sprite,Foreground,Centre,"BPMSB\bpm180.png",320,240 M,0,462072,,416,370 F,0,462072,,1 F,0,463405,,0 F,0,500068,500734,1
Sprite,Foreground,Centre,"BPMSB\bpm190.png",320,240 M,0,463405,,416,370 F,0,463405,464668,1
Sprite,Foreground,Centre,"BPMSB\bpm175.png",320,240 M,0,500734,,416,370 F,0,500734,502105,1
Sprite,Foreground,Centre,"BPMSB\bpm165.png",320,240 M,0,502105,,416,370 F,0,502105,502832,1
Sprite,Foreground,Centre,"BPMSB\bpm90.png",320,240 M,0,504405,,441,370 F,0,504405,505071,1
Sprite,Foreground,Centre,"BPMSB\bpm66.png",320,240 M,0,505071,,441,370 F,0,505071,506889,1 F,0,506889,507798,1 F,0,507798,509616,1,0
//Storyboard Sound Samples
//Background Colour Transformations
3,100,163,162,255

[TimingPoints]
15120,375,4,2,1,70,1,0
62745,-100,4,2,0,0,0,1
62791,-100,4,2,0,100,0,0
72120,-100,4,2,1,70,0,0
75120,-100,4,2,0,100,0,0
84120,-100,4,2,1,70,0,0
99120,-100,4,2,1,70,0,0
118245,-100,4,2,0,0,0,1
118291,-100,4,2,0,100,0,0
121901,-100,4,2,0,0,0,0
130982,357.142857142857,4,2,0,100,1,0
145235,-100,4,1,0,70,0,0
145950,-100,4,2,0,100,0,0
147378,-100,4,1,0,70,0,0
148807,-100,4,2,0,100,0,0
150950,-100,4,1,0,70,0,0
151664,-100,4,2,0,100,0,0
156664,-100,4,1,0,70,0,0
157378,-100,4,2,0,100,0,0
158807,-100,4,1,0,70,0,0
160235,-100,4,2,0,100,0,0
162378,-100,4,1,0,70,0,0
163092,-100,4,2,0,100,0,0
165950,-100,4,1,0,70,0,0
169164,-100,4,2,0,100,0,0
169878,-100,4,1,0,70,0,0
173092,-100,4,2,0,100,0,0
181307,-100,4,2,1,40,0,0
181815,-100,4,2,1,55,0,0
182291,-100,4,2,1,70,0,0
183481,-100,4,2,1,40,0,0
184672,-100,4,2,1,55,0,0
185148,-100,4,2,1,70,0,0
186339,-100,4,2,1,40,0,0
187529,-100,4,2,1,55,0,0
188005,-100,4,2,1,70,0,0
189196,-100,4,2,1,40,0,0
190386,-100,4,2,1,55,0,0
190862,-100,4,2,1,70,0,0
192053,-100,4,2,1,40,0,0
192767,-100,4,2,1,70,0,0
225592,-100,4,2,1,90,0,1
225624,-100,4,2,1,90,0,0
239374,-100,4,2,0,100,0,0
248447,324.324324324324,4,2,1,70,1,0
266609,-100,4,2,0,100,0,0
268555,-100,4,1,0,70,0,0
269203,-100,4,2,0,100,0,0
271149,-100,4,1,0,70,0,0
271798,-100,4,2,0,100,0,0
273744,-100,4,1,0,70,0,0
274230,-100,4,2,0,100,0,0
275690,-100,4,1,0,70,0,0
276014,-100,4,2,0,100,0,0
293852,-100,4,1,0,70,0,0
294469,-100,4,2,0,100,0,0
304230,-100,4,2,0,70,0,0
314203,-100,4,2,1,68,0,0
314892,-100,4,2,0,100,0,1
314933,-100,4,2,0,100,0,0
329203,-83.3333333333333,4,2,1,70,0,0
339095,-100,4,1,0,70,0,0
339257,-100,4,1,0,70,0,1
339582,-100,4,2,1,70,0,0
349311,-83.3333333333333,4,1,0,70,0,0
349474,-83.3333333333333,4,1,0,70,0,1
349636,-100,4,2,1,70,0,0
360987,685.714285714286,4,2,0,100,1,0
366472,705.882352941176,4,2,0,100,1,0
370707,727.272727272727,4,2,0,100,1,0
376246,-100,4,2,0,0,0,0
382640,300,4,2,0,100,1,0
440240,600,4,2,0,70,1,0
449840,545.454545454545,4,2,0,70,1,0
452021,500,4,2,0,70,1,0
454021,461.538461538462,4,2,0,70,1,0
455867,428.571428571429,4,2,0,70,1,0
457581,400,4,2,0,70,1,0
459181,375,4,2,0,70,1,0
460681,352.941176470588,4,2,0,70,1,0
462092,333.333333333333,4,2,0,70,1,0
463425,315.789473684211,4,2,0,70,1,0
464688,300,4,1,0,30,1,0
467088,-100,4,2,0,100,0,1
487788,-100,4,2,0,70,0,1
488688,-100,4,2,0,100,0,1
495888,-100,4,2,0,70,0,0
500088,333.333333333333,4,2,0,70,1,0
500754,342.857142857143,4,2,0,70,1,0
502125,363.636363636364,4,2,0,70,1,0
502852,428.571428571429,4,2,0,70,1,0
503280,600,4,2,0,60,1,0
503880,545.454545454545,4,2,0,70,1,0
504425,666.666666666667,4,2,0,70,1,0
505091,909.090909090909,4,2,0,75,1,0
505545,-200,4,2,0,50,0,0
506000,-200,4,2,0,70,0,0

[Colours]
Combo1 : 0,128,128
Combo2 : 206,206,206
Combo3 : 0,128,192
Combo4 : 128,128,255

[HitObjects]
96,96,15120,5,8
99,115,15213,1,0
105,133,15307,1,0
112,151,15401,1,0
123,167,15495,2,0,B|152:201,3,40,8|0|0|0
164,209,15870,1,8
179,221,15963,1,0
195,232,16057,1,0
213,240,16151,1,0
232,244,16245,2,0,B|277:249,3,40,8|0|0|0
291,247,16620,5,8
310,241,16713,1,0
326,229,16807,1,0
338,213,16901,1,0
345,194,16995,2,0,B|360:142,3,40,8|0|0|0
354,135,17370,1,8
343,118,17463,1,0
325,107,17557,1,0
305,101,17651,1,0
285,103,17745,2,0,B|232:103,3,40,8|0|0|0
224,104,18120,5,8
204,106,18213,1,0
184,108,18307,1,0
164,110,18401,1,0
144,113,18495,2,0,B|181:161,3,40,8|0|0|0
178,161,18870,1,8
190,176,18963,1,0
202,191,19057,1,0
214,206,19151,1,0
225,222,19245,2,0,B|268:184,3,40,8|0|0|0
270,182,19620,5,8
285,169,19713,1,0
301,157,19807,1,0
317,145,19901,1,0
333,133,19995,2,0,B|376:105,3,40,8|0|0|0
385,105,20370,1,8
404,104,20463,1,0
422,111,20557,1,0
437,124,20651,1,0
446,141,20745,2,0,B|461:180,3,40,8|0|8|0
461,198,21120,5,8
454,216,21213,1,0
442,232,21307,1,0
426,244,21401,1,0
408,253,21495,1,8
389,260,21588,1,0
369,265,21682,1,0
349,269,21776,1,0
329,273,21870,1,8
309,276,21963,1,0
289,279,22057,1,0
269,282,22151,1,0
248,282,22245,2,0,B|192:283,3,40,8|0|0|0
187,281,22620,5,8
170,270,22713,1,0
157,254,22807,1,0
151,234,22901,1,0
153,214,22995,1,8
160,195,23088,1,0
172,179,23182,1,0
187,166,23276,1,0
205,158,23370,1,8
224,156,23463,1,0
243,159,23557,1,0
262,164,23651,1,0
277,176,23745,2,0,B|323:217,3,40,8|0|0|0
319,218,24120,5,8
337,225,24213,1,0
357,224,24307,1,0
375,217,24401,1,0
389,203,24495,2,0,B|416:156,3,40,8|0|0|0
416,144,24870,5,8
352,80,25057,1,8
288,144,25245,1,8
224,80,25432,1,8
160,144,25620,1,8
160,144,26370,1,8
64,320,27120,6,8,B|160:272,1,80
256,224,27495,1,0
256,224,27588,1,0
256,224,27682,1,8
64,224,27870,6,8,B|160:176,1,80
256,128,28245,1,0
256,128,28338,1,0
256,128,28432,1,8
400,64,28620,6,8,B|416:128|384:176,1,80
336,256,28995,1,0
336,256,29088,1,0
336,256,29182,1,8
192,320,29370,6,8,B|176:256|208:208,1,80
256,128,29745,1,0
256,128,29838,1,0
256,128,29932,1,8
288,288,30120,6,8,B|224:304|176:272,1,80
80,192,30495,1,0
80,192,30588,1,0
80,192,30682,1,8
224,96,30870,6,8,B|288:80|336:112,1,80
432,192,31245,1,0
432,192,31338,1,0
432,192,31432,1,8
288,192,31620,6,8,B|208:192,1,80
64,192,31995,1,0
64,192,32088,1,0
64,192,32182,1,8
224,192,32370,6,8,B|304:192,1,80
448,192,32745,1,0
448,192,32838,1,0
448,192,32932,1,8
288,128,33120,6,8,B|208:128,1,80
64,128,33495,1,0
64,128,33588,1,0
64,128,33682,1,8
224,256,33870,6,8,B|304:256,1,80
448,256,34245,1,0
448,256,34338,1,0
448,256,34432,1,8
288,64,34620,6,8,B|237:64|208:80,1,80
64,128,34995,1,0
64,128,35088,1,0
64,128,35182,1,8
224,320,35370,6,8,B|274:319|304:304,1,80
448,256,35745,1,0
448,256,35838,1,0
448,256,35932,1,8
288,32,36120,6,8,B|237:32|192:64,1,80
64,128,36495,1,0
64,128,36588,1,0
64,128,36682,1,8
224,352,36870,6,8,B|274:351|320:320,1,80
448,256,37245,1,0
448,256,37338,1,0
448,256,37432,1,8
336,64,37620,5,0
320,96,37713,1,0
304,128,37807,1,0
288,160,37901,1,0
272,128,37995,5,0
256,160,38088,1,0
240,192,38182,1,0
224,224,38276,1,0
208,192,38370,5,0
192,224,38463,1,0
176,256,38557,1,0
160,288,38651,1,0
144,256,38745,2,0,B|112:192,3,40
112,192,39120,5,0
96,160,39213,1,0
80,128,39307,1,0
64,96,39401,1,0
48,64,39495,2,0,B|112:96,3,40
112,96,39870,5,0
144,112,39963,1,0
176,128,40057,1,0
208,144,40151,1,0
240,160,40245,2,0,B|176:192,3,40
176,192,40620,5,0
144,208,40713,1,0
112,224,40807,1,0
80,240,40901,1,0
48,256,40995,2,0,B|80:192,3,40
80,192,41370,5,0
96,160,41463,1,0
112,128,41557,1,0
128,96,41651,1,0
144,64,41745,2,0,B|208:96,3,40
208,96,42120,5,0
240,112,42213,1,0
272,128,42307,1,0
304,144,42401,1,0
336,160,42495,2,0,B|272:192,3,40
272,192,42870,5,0
240,208,42963,1,0
208,224,43057,1,0
176,240,43151,1,0
144,256,43245,2,0,B|80:288,3,40
80,288,43620,5,0
176,224,43807,1,0
272,288,43995,1,0
176,224,44182,1,0
80,160,44370,5,0
176,96,44557,1,0
272,160,44745,1,0
368,96,44932,1,0
464,160,45120,5,0
432,176,45213,1,0
400,192,45307,1,0
368,208,45401,1,0
336,224,45495,2,0,B|272:256,3,40
272,256,45870,5,0
240,272,45963,1,0
208,288,46057,1,0
176,272,46151,1,0
144,256,46245,2,0,B|80:224,3,40
80,224,46620,5,0
64,192,46713,1,0
80,160,46807,1,0
112,144,46901,1,0
144,160,46995,2,0,B|208:192,3,40
208,192,47370,5,0
240,208,47463,1,0
272,224,47557,1,0
304,208,47651,1,0
336,192,47745,2,0,B|400:160,3,40
400,160,48120,5,0
432,144,48213,1,0
448,112,48307,1,0
432,80,48401,1,0
400,64,48495,2,0,B|336:96,3,40
336,96,48870,5,0
304,80,48963,1,0
272,96,49057,1,0
240,80,49151,1,0
208,96,49245,2,0,B|144:128,3,40
144,128,49620,6,0,B|112:192|144:240,1,80
192,304,49995,2,0,B|256:336|304:304,1,80
368,256,50370,2,0,B|400:192|368:144,1,80
320,80,50745,2,0,B|256:48|208:80,1,80
96,80,51120,5,8
224,80,51307,1,8
160,192,51495,1,0
160,192,51588,1,0
160,192,51682,1,8
96,304,51870,5,8
224,304,52057,1,8
288,192,52245,1,0
288,192,52338,1,0
288,192,52432,1,8
352,80,52620,5,8
480,80,52807,1,8
416,192,52995,1,0
416,192,53088,1,0
416,192,53182,1,8
352,304,53370,5,8
224,304,53557,1,8
160,192,53745,1,0
160,192,53838,1,0
160,192,53932,1,8
224,80,54120,5,8
352,80,54307,1,8
288,192,54495,1,0
288,192,54588,1,0
288,192,54682,1,8
224,304,54870,5,8
96,304,55057,1,8
32,192,55245,1,0
32,192,55338,1,0
32,192,55432,1,8
160,80,55620,5,8
352,80,55807,1,8
176,144,55995,1,0
176,144,56088,1,0
176,144,56182,1,8
352,208,56370,5,8
160,208,56557,1,8
336,272,56745,1,0
336,272,56838,1,0
336,272,56932,1,8
160,336,57120,5,8
352,336,57307,1,8
256,176,57495,1,0
256,176,57588,1,0
256,176,57682,1,8
160,48,57870,5,8
352,48,58057,1,8
256,208,58245,1,0
256,208,58338,1,0
256,208,58432,1,8
128,192,58620,5,8
224,64,58901,1,8
320,192,59182,1,8
224,192,59370,5,8
320,320,59651,1,8
416,192,59932,1,8
320,64,60213,1,8
192,160,60495,1,8
320,272,60776,1,8
304,96,61057,5,8
160,144,61245,1,8
208,288,61432,1,8
352,240,61620,1,8
256,192,61807,12,0,62745
400,112,63120,5,0
304,144,63307,1,0
208,176,63495,1,0
112,208,63682,1,0
160,224,63776,1,0
208,240,63870,2,0,B|320:272|400:224,1,160
448,192,64432,1,0
416,288,64620,5,0
320,256,64807,1,0
224,224,64995,1,0
176,208,65088,1,0
128,192,65182,1,0
80,176,65276,1,0
32,160,65370,1,0
128,128,65557,1,0
224,96,65745,2,0,B|392:40,1,160
464,96,66307,5,0
432,192,66495,1,0
400,96,66682,1,0
384,144,66776,1,0
368,192,66870,1,0
336,288,67057,1,0
304,192,67245,1,0
272,96,67432,1,0
176,96,67620,5,0
80,128,67807,1,0
176,160,67995,1,0
224,176,68088,1,0
272,192,68182,1,0
320,208,68276,1,0
368,224,68370,1,0
272,256,68557,1,0
176,288,68745,1,0
80,128,69120,6,0,B|416:128,1,320
336,200,70057,1,0
256,264,70245,1,0
168,320,70432,1,0
96,256,70620,2,0,B|336:16,1,320
224,48,71557,1,0
128,64,71745,1,0
32,80,71932,1,0
48,192,72120,5,8
64,192,72213,1,8
80,192,72307,1,8
96,192,72401,1,8
112,192,72495,1,8
272,192,72870,5,8
256,192,72963,1,8
240,192,73057,1,8
224,192,73151,1,8
208,192,73245,1,8
320,304,73620,5,8
304,304,73713,1,0
288,304,73807,1,0
272,304,73901,1,0
256,304,73995,1,8
240,304,74088,1,0
224,304,74182,1,8
208,304,74276,1,0
192,304,74370,1,0
176,304,74463,1,0
160,304,74557,2,0,B|96:304|64:240|96:192,1,160,8|0
160,64,75120,6,0,B|224:64|272:96,1,80
336,160,75495,2,0,B|336:224|304:272,1,80
256,352,75870,1,0
256,352,75963,1,0
256,352,76057,1,0
256,352,76245,5,0
192,192,76432,1,0
256,32,76620,6,0,B|320:32|368:64,1,80
432,128,76995,1,0
432,128,77088,1,0
432,128,77182,1,0
432,128,77276,1,0
432,128,77370,2,0,B|432:192|400:240,1,80
352,320,77745,1,0
352,320,77838,1,0
352,320,77932,1,0
352,320,78120,6,0,B|288:320|240:288,1,80
176,224,78495,2,0,B|176:160|208:112,1,80
256,32,78870,1,0
256,32,78963,1,0
256,32,79057,1,0
256,32,79245,5,0
320,192,79432,1,0
256,352,79620,6,0,B|192:352|144:320,1,80
80,256,79995,1,0
80,256,80088,1,0
80,256,80182,1,0
80,256,80276,1,0
80,256,80370,2,0,B|80:192|112:144,1,80
160,64,80745,1,0
400,112,81120,6,0,B|304:144,1,80
112,176,81495,2,0,B|208:208,1,80
400,240,81870,1,0
400,240,82057,1,0
400,240,82245,1,0
400,240,82432,1,0
400,240,82620,6,0,B|304:208,1,80
112,176,82995,2,0,B|208:144,1,80
400,112,83370,1,0
400,112,83557,1,0
400,112,83745,1,0
400,112,83932,1,0
288,112,84120,5,8
272,112,84213,1,8
256,112,84307,1,8
240,112,84401,1,8
224,112,84495,1,8
224,272,84870,5,8
240,272,84963,1,8
256,272,85057,1,8
272,272,85151,1,8
288,272,85245,1,8
400,192,85620,5,8
384,192,85713,1,0
368,192,85807,1,0
352,192,85901,1,0
336,192,85995,1,8
320,192,86088,1,8
304,192,86182,1,8
288,192,86276,1,8
272,192,86370,2,0,B|208:192,6,40,8|0|8|0|0|0|0
256,96,87120,5,8
160,96,87307,1,8
64,96,87495,1,8
256,192,87682,5,8
352,192,87870,1,8
448,192,88057,1,8
256,288,88245,5,8
256,96,88432,1,8
64,192,88620,5,8
160,192,88807,1,8
256,192,88995,1,8
448,288,89182,5,8
352,288,89370,1,8
256,288,89557,1,8
256,96,89745,5,8
448,96,89932,1,8
456,192,90120,5,8
376,192,90307,1,8
296,192,90495,1,8
216,192,90682,1,8
136,192,90870,1,8
56,192,91057,1,8
176,112,91245,5,8
176,272,91432,1,8
56,352,91620,5,8
136,352,91807,1,8
216,352,91995,1,8
296,352,92182,1,8
376,352,92370,1,8
456,352,92557,1,8
336,272,92745,5,8
336,112,92932,1,8
192,96,93120,6,8,B|144:112,1,40,8|0
160,144,93307,2,8,B|112:176,1,40,8|0
152,192,93495,1,8
320,96,93682,6,8,B|368:112,1,40,8|0
352,144,93869,2,8,B|400:176,1,40,8|0
360,192,94057,1,8
256,288,94245,5,8
256,96,94432,1,8
192,288,94620,6,8,B|144:272,1,40,8|0
160,240,94807,2,8,B|112:208,1,40,8|0
152,192,94995,1,8
320,288,95182,6,8,B|368:272,1,40,8|0
352,240,95369,2,8,B|400:208,1,40,8|0
360,192,95557,1,8
224,160,95745,5,8
96,144,95932,1,8
56,32,96120,5,8
136,32,96307,1,8
216,32,96495,1,8
296,32,96682,1,8
376,32,96870,1,8
456,32,97057,1,8
336,112,97245,5,8
336,272,97432,1,8
456,352,97620,5,8
376,352,97807,1,8
296,352,97995,1,8
216,352,98182,1,8
136,352,98370,1,8
56,352,98557,1,8
56,272,98745,1,8
56,272,98932,1,8
48,192,99120,6,0,B|80:160,5,26.6666666666667
80,160,99495,2,0,B|112:192,5,26.6666666666667
112,192,99870,2,0,B|144:160,5,26.6666666666667
144,160,100245,2,0,B|176:192,5,26.6666666666667
176,192,100620,2,0,B|208:160,5,26.6666666666667
208,160,100995,2,0,B|240:192,5,26.6666666666667
240,192,101370,6,0,B|272:160,5,26.6666666666667
272,160,101745,2,0,B|304:192,5,26.6666666666667
304,192,102120,2,0,B|336:160,5,26.6666666666667
336,160,102495,2,0,B|368:192,5,26.6666666666667
368,192,102870,2,0,B|400:160,5,26.6666666666667
400,160,103245,2,0,B|432:192,5,26.6666666666667
432,192,103620,6,0,B|400:224,5,26.6666666666667
400,224,103995,2,0,B|368:192,5,26.6666666666667
368,192,104370,2,0,B|336:224,5,26.6666666666667
336,224,104745,2,0,B|304:192,5,26.6666666666667
304,192,105120,2,0,B|272:224,5,26.6666666666667
272,224,105495,2,0,B|240:192,5,26.6666666666667
240,192,105870,2,0,B|208:224,5,26.6666666666667
208,224,106245,2,0,B|176:192,5,26.6666666666667
176,192,106620,6,0,B|176:160,2,26.6666666666667,8|0|0
128,192,106807,2,0,B|128:160,5,26.6666666666667,8|0|0|0|0|0
128,128,107182,6,0,B|160:128,2,26.6666666666667,8|0|0
128,80,107370,2,0,B|168:80,2,26.6666666666667,8|0|0
128,32,107557,2,0,B|160:32,5,26.6666666666667,8|0|0|0|0|0
192,32,107932,6,0,B|224:32,2,26.6666666666667,8|0|0
192,80,108120,2,0,B|224:80,2,26.6666666666667,8|0|0
192,128,108307,2,0,B|224:128,5,26.6666666666667,8|0|0|0|0|0
256,128,108682,6,0,B|288:128,2,26.6666666666667,8|0|0
256,80,108870,2,0,B|296:80,2,26.6666666666667,8|0|0
256,32,109057,2,0,B|288:32,5,26.6666666666667,8|0|0|0|0|0
320,32,109432,6,0,B|352:32,2,26.6666666666667,8|0|0
320,80,109620,2,0,B|352:80,2,26.6666666666667,8|0|0
320,128,109807,2,0,B|352:128,5,26.6666666666667,8|0|0|0|0|0
384,128,110182,6,0,B|416:128,2,26.6666666666667,8|0|0
384,80,110370,2,0,B|424:80,2,26.6666666666667,8|0|0
384,32,110557,2,0,B|416:32,5,26.6666666666667,8|0|0|0|0|0
448,32,110932,6,0,B|480:32,2,26.6666666666667,8|0|0
448,80,111120,2,0,B|480:80,2,26.6666666666667,8|0|0
448,128,111307,2,0,B|448:160,5,26.6666666666667,8|0|0|0|0|0
448,192,111682,6,0,B|416:192,2,26.6666666666667,8|0|0
448,240,111870,2,0,B|416:240,2,26.6666666666667,8|0|0
448,288,112057,2,0,B|416:288,5,26.6666666666667,8|0|0|0|0|0
384,288,112432,6,0,B|352:288,2,26.6666666666667,8|0|0
384,240,112620,2,0,B|352:240,2,26.6666666666667,8|0|0
384,192,112807,2,0,B|352:192,5,26.6666666666667,8|0|0|0|0|0
320,192,113182,6,0,B|280:192,2,26.6666666666667,8|0|0
320,240,113370,2,0,B|288:240,2,26.6666666666667,8|0|0
320,288,113557,2,0,B|288:288,5,26.6666666666667,8|0|0|0|0|0
256,288,113932,6,0,B|224:288,2,26.6666666666667,8|0|0
256,240,114120,5,8
256,112,114401,1,8
168,192,114682,1,8
96,192,114870,5,8
256,288,115151,1,8
416,192,115432,1,8
256,112,115713,1,8
160,272,115995,1,8
352,272,116276,1,8
304,96,116557,5,8
160,144,116745,1,8
208,288,116932,1,8
352,240,117120,1,8
256,192,117307,12,0,118245
96,192,118620,5,2
192,96,118807,1,2
288,192,118995,1,2
416,192,119182,5,2
320,96,119369,1,2
224,192,119557,1,2
352,192,119745,5,2
160,192,119932,1,2
256,32,120120,1,2
256,192,120495,12,0,121995
224,48,130982,5,0
240,64,131071,1,0
256,80,131160,1,0
336,80,131339,1,0
352,96,131428,1,0
368,112,131517,1,0
288,160,131696,5,0
272,176,131785,1,0
256,192,131874,1,0
176,192,132053,1,0
160,208,132142,1,0
144,224,132231,1,0
224,272,132410,5,0
240,288,132499,1,0
256,304,132588,1,0
336,304,132767,1,0
352,320,132856,1,0
368,336,132945,1,0
432,272,133124,5,0
430,251,133214,1,0
427,231,133303,1,0
423,211,133392,1,0
418,191,133482,1,0
410,172,133571,1,0
400,154,133660,1,0
389,136,133749,1,0
368,128,133839,5,0
352,112,133928,1,0
336,96,134017,1,0
240,160,134196,1,0
256,144,134285,1,0
272,128,134374,1,0
336,224,134553,5,0
320,208,134642,1,0
304,192,134731,1,0
208,256,134910,1,0
224,240,134999,1,0
240,224,135088,1,0
304,320,135267,5,0
284,315,135357,1,0
266,306,135446,1,0
249,295,135535,1,0
233,282,135624,1,0
217,268,135714,1,0
203,253,135803,1,0
190,237,135892,1,0
176,224,135982,6,0,B|144:176,2,40
80,80,136339,2,0,B|48:32,2,40
208,48,136696,5,0
227,51,136785,1,0
246,56,136874,1,0
264,63,136964,1,0
282,70,137053,1,0
299,79,137142,1,0
315,90,137232,1,0
329,104,137321,1,0
341,119,137410,5,0
351,135,137499,1,0
360,152,137589,1,0
369,169,137678,1,0
371,188,137767,1,0
366,207,137857,1,0
357,225,137946,1,0
346,242,138035,1,0
331,255,138124,5,0
313,264,138214,1,0
294,271,138303,1,0
274,276,138392,1,0
254,280,138482,1,0
234,283,138571,1,0
214,280,138660,1,0
194,273,138749,1,0
175,265,138839,2,0,B|134:247,3,40
120,240,139196,2,0,B|89:212,3,40
80,192,139553,5,0
96,176,139642,1,0
112,160,139732,1,0
176,192,139910,1,0
192,176,139999,1,0
208,160,140089,1,0
272,192,140267,5,0
288,176,140356,1,0
304,160,140446,1,0
368,192,140624,1,0
384,176,140713,1,0
400,160,140803,1,0
336,80,140982,6,0,B|288:80,3,40
256,80,141339,2,0,B|208:80,3,40
176,80,141696,6,0,B|128:80,2,40
336,80,142053,2,0,B|384:80,2,40
256,128,142410,5,0
256,144,142499,1,0
256,160,142589,1,0
256,176,142678,1,0
256,192,142767,2,0,B|256:240,3,40
256,256,143124,5,0
261,266,143214,1,0
268,275,143303,1,0
277,281,143392,1,0
288,285,143482,1,0
299,287,143571,1,0
310,288,143660,1,0
321,287,143749,1,0
333,285,143839,1,0
344,282,143928,1,0
354,277,144017,1,0
363,269,144107,1,0
370,259,144196,1,0
374,248,144285,1,0
376,236,144374,1,0
377,224,144464,1,0
377,212,144553,5,0
375,200,144642,1,0
369,189,144732,1,0
361,179,144821,1,0
353,170,144910,1,0
344,161,144999,1,0
334,154,145089,1,0
322,149,145178,1,0
310,144,145267,5,0
310,144,145357,2,0,B|208:112|176:160,1,120
80,208,145803,1,0
192,240,145982,5,0
203,242,146072,1,0
214,243,146161,1,0
225,243,146250,1,0
236,240,146339,1,0
247,237,146429,1,0
258,232,146518,1,0
267,224,146607,1,0
274,214,146697,1,0
278,203,146785,1,0
277,191,146874,1,0
275,179,146964,1,0
270,168,147053,1,0
263,157,147142,1,0
254,148,147232,1,0
243,141,147321,1,0
233,134,147410,6,0,B|177:109|149:172,1,80
106,259,147767,1,0
349,284,148124,1,0
349,284,148214,1,0
349,284,148303,2,0,B|398:252|397:187,1,80
416,96,148660,1,0
288,64,148839,5,0
276,65,148928,1,0
265,70,149017,1,0
257,79,149107,1,0
252,90,149196,1,0
249,101,149285,1,0
247,112,149374,1,0
249,123,149464,1,0
254,133,149553,1,0
261,141,149642,1,0
269,149,149732,1,0
278,156,149821,1,0
288,161,149910,2,0,B|335:169,3,40
339,171,150267,5,0
350,173,150357,1,0
359,180,150446,1,0
366,188,150535,1,0
372,197,150624,1,0
377,207,150714,1,0
379,218,150803,1,0
377,229,150892,1,0
375,240,150982,5,0
375,240,151071,2,0,B|383:319|298:322,1,120
192,288,151517,1,0
112,192,151696,5,0
120,184,151785,1,0
128,176,151874,1,0
136,168,151964,1,0
144,176,152053,1,0
152,168,152142,1,0
160,160,152232,1,0
168,152,152321,1,0
176,160,152410,1,0
184,152,152499,1,0
192,144,152589,1,0
200,136,152678,1,0
208,128,152767,2,0,B|240:96,2,40
400,192,153124,5,0
392,200,153213,1,0
384,208,153302,1,0
376,216,153392,1,0
368,208,153481,1,0
360,216,153570,1,0
352,224,153660,1,0
344,232,153749,1,0
336,224,153838,1,0
328,232,153927,1,0
320,240,154017,1,0
312,248,154106,1,0
304,256,154195,2,0,B|272:288,2,40
144,264,154553,5,0
146,252,154642,1,0
149,240,154732,1,0
152,228,154821,1,0
157,217,154910,1,0
162,206,154999,1,0
167,195,155089,1,0
173,184,155178,1,0
180,174,155267,1,0
187,164,155357,1,0
195,155,155446,1,0
204,147,155535,1,0
213,140,155624,1,0
223,133,155714,1,0
233,127,155803,1,0
244,122,155892,1,0
255,118,155982,5,0
266,114,156071,1,0
277,111,156160,1,0
288,109,156249,1,0
300,107,156339,1,0
311,106,156428,1,0
322,106,156517,1,0
334,107,156607,1,0
345,110,156696,5,0
345,110,156785,2,0,B|404:128|439:200,1,120
427,309,157232,1,0
304,344,157410,5,0
292,343,157499,1,0
280,339,157589,1,0
268,334,157678,1,0
258,327,157767,1,0
249,318,157857,1,0
242,308,157946,1,0
236,297,158035,1,0
232,285,158124,1,0
230,272,158214,1,0
230,260,158303,1,0
231,248,158392,1,0
233,236,158482,1,0
235,224,158571,1,0
238,212,158660,1,0
243,201,158749,1,0
248,190,158839,6,0,B|273:122|219:101,1,80
171,42,159196,1,0
56,192,159553,1,0
56,192,159642,1,0
56,192,159732,2,0,B|56:264|96:288,1,80
168,320,160089,1,0
272,304,160267,5,0
283,300,160357,1,0
293,294,160446,1,0
302,286,160535,1,0
311,278,160624,1,0
319,269,160714,1,0
326,259,160803,1,0
332,249,160892,1,0
337,238,160982,1,0
341,227,161071,1,0
343,215,161160,1,0
343,203,161249,1,0
342,190,161339,2,0,B|335:134,3,40
331,139,161696,5,0
324,129,161785,1,0
315,120,161874,1,0
304,113,161964,1,0
293,107,162053,2,0,B|271:98|248:101,3,40
242,103,162410,5,0
242,103,162499,2,0,B|160:103|127:176,1,120
162,266,162946,1,0
256,328,163124,5,0
264,320,163213,1,0
272,312,163302,1,0
280,304,163392,1,0
288,312,163481,1,0
296,304,163570,1,0
304,296,163660,1,0
312,288,163749,1,0
320,296,163838,1,0
328,288,163927,1,0
336,280,164017,1,0
344,272,164106,1,0
352,264,164195,2,0,B|384:232,2,40
256,56,164553,5,0
248,64,164642,1,0
240,72,164731,1,0
232,80,164821,1,0
224,72,164910,1,0
216,80,164999,1,0
208,88,165089,1,0
200,96,165178,1,0
192,88,165267,1,0
184,96,165356,1,0
176,104,165446,1,0
168,112,165535,1,0
160,120,165624,2,0,B|128:152,2,40
64,192,165982,5,0
128,192,166160,1,0
192,192,166339,1,0
320,192,166696,5,0
448,192,167053,5,0
384,192,167232,1,0
256,192,167589,5,0
128,192,167946,5,0
192,192,168124,1,0
256,192,168303,1,0
384,192,168660,5,0
320,192,168839,1,0
256,192,169017,1,0
256,80,169196,5,0
256,88,169285,1,0
256,96,169374,1,0
256,104,169464,1,0
256,112,169553,1,0
256,120,169642,1,0
256,128,169732,1,0
256,192,169910,5,0
192,192,170089,1,0
128,192,170267,1,0
256,192,170624,5,0
384,192,170982,5,0
320,192,171160,1,0
192,192,171517,5,0
64,192,171874,5,0
128,192,172053,1,0
192,192,172232,1,0
320,192,172589,5,0
256,192,172767,1,0
192,192,172946,1,0
192,80,173124,6,0,B|220:75|250:78,7,40
243,78,173839,1,0
254,81,173928,1,0
265,85,174017,1,0
275,90,174107,1,0
285,96,174196,1,0
295,102,174285,1,0
304,108,174374,1,0
313,115,174464,1,0
321,123,174553,1,0
328,132,174642,1,0
334,142,174732,1,0
339,152,174821,1,0
342,163,174910,1,0
343,174,174999,1,0
343,186,175089,1,0
341,197,175178,1,0
339,208,175267,5,0
336,219,175357,1,0
330,229,175446,1,0
323,239,175535,1,0
315,248,175624,1,0
305,255,175714,1,0
294,261,175803,1,0
282,265,175892,1,0
270,266,175981,1,0
257,265,176071,1,0
245,263,176160,1,0
233,260,176249,1,0
221,255,176339,1,0
211,248,176428,1,0
201,240,176517,1,0
192,231,176606,1,0
183,222,176696,1,0
176,212,176785,1,0
170,201,176874,1,0
165,189,176964,1,0
163,177,177053,1,0
432,144,181339,5,2
400,128,181458,1,2
368,144,181577,1,2
352,176,181696,1,2
368,208,181815,1,2
400,224,181934,1,2
432,208,182053,1,2
448,176,182172,1,2
432,144,182291,1,2
400,128,182410,1,2
368,144,182529,1,2
352,176,182648,1,2
368,208,182767,1,2
400,176,183481,5,4
224,48,184196,5,2
208,80,184315,1,2
224,112,184434,1,2
256,128,184553,1,2
288,112,184672,1,2
304,80,184791,1,2
288,48,184910,1,2
256,32,185029,1,2
224,48,185148,1,2
208,80,185267,1,2
224,112,185386,1,2
256,128,185505,1,2
288,112,185624,1,2
256,80,186338,5,4
80,240,187053,5,2
112,256,187172,1,2
144,240,187291,1,2
160,208,187410,1,2
144,176,187529,1,2
112,160,187648,1,2
80,176,187767,1,2
64,208,187886,1,2
80,240,188005,1,2
112,256,188124,1,2
144,240,188243,1,2
160,208,188362,1,2
144,176,188481,1,2
112,208,189195,5,4
288,336,189910,5,2
304,304,190029,1,2
288,272,190148,1,2
256,256,190267,1,2
224,272,190386,1,2
208,304,190505,1,2
224,336,190624,1,2
256,352,190743,1,2
288,336,190862,1,2
304,304,190981,1,2
288,272,191100,1,2
256,256,191219,1,2
224,272,191338,1,2
256,304,192052,5,4
144,160,192767,5,2
144,160,192856,1,2
144,160,192946,1,2
256,96,193124,2,2,B|320:80|368:112,1,80,2|2
336,224,193481,2,2,B|272:240|224:208,1,80,2|2
144,160,193839,2,2,B|208:144|256:176,1,80,2|2
336,224,194196,5,2
336,224,194285,1,2
336,224,194375,1,2
224,288,194553,2,2,B|160:304|112:272,1,80
144,160,194910,2,2,B|208:144|256:176,1,80
336,224,195268,2,2,B|272:240|224:208,1,80
144,160,195624,5,2
144,160,195713,1,2
144,160,195803,1,2
256,96,195981,2,2,B|320:80|368:112,1,80
448,160,196338,2,2,B|384:144|336:176,1,80
256,224,196696,2,2,B|320:208|368:240,1,80
448,288,197053,1,8
448,288,197231,1,8
256,192,197410,12,2,198481
256,192,198660,5,0
256,192,198839,1,2
256,192,199017,1,2
96,160,200089,5,2
128,144,200268,1,2
160,128,200445,1,0
176,96,200624,1,2
208,112,200803,1,0
240,128,200982,1,2
272,144,201160,1,0
304,160,201339,1,2
304,160,201874,1,2
320,288,202767,6,0,B|256:304|208:272,1,80,2|0
224,160,203124,2,0,B|288:144|336:176,1,80,2|0
416,224,203481,2,0,B|352:240|304:208,1,80,2|0
320,96,203839,2,0,B|384:80|432:112,1,80,2|0
480,192,204196,1,2
480,192,204731,1,2
368,48,205624,5,0
329,59,205803,1,2
292,75,205981,1,2
257,95,206160,1,0
225,119,206339,1,2
195,145,206517,1,0
166,173,206696,1,2
139,202,206874,1,0
112,231,207053,1,2
112,231,207589,1,2
288,320,208481,5,2
288,320,209196,1,2
288,320,209910,5,2
288,160,210624,1,2
272,96,210892,1,2
224,48,211160,1,0
184,32,211339,1,2
56,192,212053,5,2
56,192,212767,1,2
216,192,213481,1,2
280,192,213749,1,2
344,192,214017,1,0
384,192,214196,1,2
384,192,214910,1,2
384,128,217053,5,8
304,144,217231,1,8
224,128,217410,1,8
144,144,217589,1,8
144,144,217678,1,0
144,144,217767,1,8
144,144,217856,1,0
144,144,217946,1,8
128,256,218124,5,8
208,240,218302,1,8
288,256,218481,1,8
368,240,218660,1,8
368,240,218749,1,0
368,240,218838,1,8
368,240,218927,1,0
368,240,219017,1,8
352,144,219196,5,8
304,80,219374,1,8
240,32,219553,1,8
160,48,219731,1,8
144,88,219821,1,0
112,104,219910,1,8
96,136,219999,1,0
104,176,220089,1,8
160,240,220267,5,8
208,304,220445,1,8
272,352,220624,1,8
352,336,220802,1,8
368,296,220892,1,0
400,280,220981,1,8
416,248,221070,1,0
408,208,221160,1,8
384,96,221339,5,8
320,128,221517,1,8
256,160,221696,1,8
192,192,221874,1,8
160,176,221964,1,0
128,160,222053,1,8
96,176,222142,1,0
64,192,222231,1,8
128,288,222410,5,8
192,320,222588,1,8
256,288,222767,1,8
320,256,222945,1,8
352,272,223035,1,0
384,288,223124,1,8
416,272,223213,1,0
448,256,223302,1,8
448,128,223481,5,8
448,128,223660,1,8
448,128,223839,1,8
320,128,224017,1,8
288,144,224106,1,0
256,128,224196,1,8
224,144,224285,1,0
192,160,224374,1,8
96,208,224553,5,8
96,208,224732,1,8
96,208,224911,1,8
192,256,225089,1,8
224,240,225178,1,0
256,256,225268,1,8
288,272,225357,1,0
320,256,225446,1,8
416,208,225624,5,8
336,176,225803,1,8
256,144,225981,1,8
336,112,226160,1,8
256,80,226339,1,8
176,48,226517,1,8
96,80,226696,5,8
128,144,226874,1,8
184,192,227053,1,8
256,200,227231,1,8
328,192,227410,1,8
384,144,227589,1,8
416,80,227767,5,8
304,96,227946,1,8
192,112,228124,1,8
288,176,228303,1,8
176,192,228481,1,8
64,208,228660,1,8
48,320,228839,5,8
112,304,229017,1,8
176,288,229196,1,8
192,224,229374,1,8
176,160,229553,1,8
160,96,229731,1,8
64,64,229910,5,8
192,64,230089,1,8
320,64,230267,1,8
224,144,230446,1,8
352,144,230624,1,8
480,144,230803,1,8
416,224,230981,5,8
360,256,231160,1,8
296,240,231339,1,8
240,272,231517,1,8
176,256,231696,1,8
120,288,231874,1,8
56,192,232053,5,8
120,64,232231,1,8
184,192,232410,1,8
328,192,232589,1,8
392,320,232767,1,8
456,192,232946,1,8
352,128,233124,5,8
288,144,233303,1,8
224,160,233481,1,8
256,216,233660,1,8
192,232,233839,1,8
128,248,234017,1,8
72,216,234196,5,0
75,200,234285,1,0
81,185,234374,1,0
89,171,234464,1,0
98,158,234553,1,0
108,145,234642,1,0
120,134,234731,1,0
133,125,234821,1,0
147,118,234910,1,0
162,113,234999,1,0
177,110,235089,1,0
192,108,235178,1,0
207,108,235267,1,0
222,109,235356,1,0
237,113,235446,1,0
252,117,235535,1,0
266,123,235624,5,0
280,130,235714,1,0
293,138,235803,1,0
304,148,235892,1,0
313,160,235981,1,0
320,174,236071,1,0
322,189,236160,1,0
320,204,236249,1,0
312,218,236339,1,0
303,231,236428,1,0
290,241,236517,1,0
274,245,236606,1,0
257,243,236696,1,0
241,238,236785,1,0
228,228,236874,1,0
219,214,236964,1,0
212,199,237053,1,0
209,183,237142,1,0
210,167,237231,1,0
215,151,237321,1,0
223,139,237410,1,0
256,192,237499,12,0,239552
256,192,248447,12,0,249095
320,112,249744,6,0,B|224:160,1,80
192,176,250068,1,0
134,208,250230,2,0,B|98:230|89:300,1,80
256,192,250555,12,0,252338
320,128,252825,5,0
192,128,253311,1,0
368,272,254122,1,0
476,191,255257,5,0
474,210,255338,1,0
463,227,255419,1,0
448,240,255501,1,0
431,250,255582,1,0
413,259,255663,1,0
393,263,255744,2,0,B|351:265,5,40
333,265,256230,5,8
313,264,256311,1,0
293,263,256392,1,0
272,262,256474,1,0
252,261,256555,1,8
232,260,256636,1,0
212,260,256717,1,0
192,260,256798,1,0
172,257,256879,2,0,B|131:255|118:231,3,40,8|0|0|0
116,236,257203,2,0,B|92:219|96:191,3,40,8|0|0|0
90,183,257528,5,8
92,163,257609,1,0
101,145,257690,1,0
116,132,257771,1,0
135,127,257852,1,8
154,127,257933,1,0
173,131,258014,1,0
192,129,258095,1,0
211,124,258176,2,0,B|251:122|263:97,3,40,8|0|0|0
262,98,258501,2,0,B|286:72|326:85,3,40,8|0|0|0
316,82,258825,5,8
335,87,258906,1,0
351,97,258987,1,0
365,111,259068,1,0
374,128,259149,1,8
377,147,259230,1,0
373,166,259311,1,0
366,184,259392,1,0
354,200,259474,2,0,B|338:235|301:232,3,40,8|0|0|0
308,235,259798,2,0,B|279:252|243:241,3,40,8|0|0|0
250,242,260122,5,8
231,233,260203,1,0
216,219,260284,1,0
204,202,260365,1,0
199,182,260447,1,8
200,162,260528,1,0
196,142,260609,1,0
184,125,260690,1,0
166,115,260771,2,0,B|138:96|109:102,4,40,8|0|0|0|8
288,96,261419,5,8
304,112,261501,1,0
288,128,261582,1,0
272,144,261663,1,0
288,160,261744,1,8
304,176,261825,1,0
288,192,261906,1,0
272,208,261987,1,0
288,224,262068,2,0,B|288:256|272:288,3,40,8|0|0|0
268,282,262392,2,0,B|236:314|204:298,3,40,8|0|0|0
214,304,262717,6,0,B|169:293|162:260,5,40,8|0|0|0|8|0
167,270,263203,1,0
157,252,263284,1,0
153,232,263365,1,8
159,212,263447,1,0
169,194,263528,1,0
185,182,263609,1,0
204,178,263690,1,8
223,178,263771,1,0
242,183,263852,1,0
260,191,263933,1,0
274,204,264014,6,0,B|298:235|321:224,5,40,8|0|0|0|8|0
325,230,264501,1,0
344,228,264582,1,0
362,219,264663,1,8
377,206,264744,1,0
389,190,264825,1,0
396,171,264906,1,0
397,151,264987,1,8
391,131,265068,1,0
381,113,265149,1,0
365,99,265230,1,0
352,96,265311,6,4,B|304:80|256:112,1,80
160,160,265636,2,0,B|208:144|256:176,1,80
352,208,265960,2,0,B|352:256|304:288,1,80
208,352,266284,2,0,B|192:304|224:256,1,80
256,192,266609,5,0
256,192,266771,1,0
256,192,266933,1,0
256,192,267095,1,0
256,192,267257,2,0,B|192:160|152:176,1,80,2|0
256,192,267582,2,0,B|320:224|360:208,1,80,2|0
448,160,267906,6,0,B|448:96|384:96,1,80
448,224,268230,2,0,B|448:288|384:288,1,80
304,192,268555,1,0
304,192,268636,1,0
304,192,268717,1,0
176,192,268879,1,0
64,96,269203,5,0
176,80,269365,1,0
288,96,269528,2,0,B|336:96|368:144,1,80
368,240,269852,2,0,B|368:288|320:320,1,80,2|0
224,320,270176,2,0,B|176:320|144:272,1,80,2|0
64,192,270501,6,0,B|160:144,1,80
240,192,270825,2,0,B|336:144,1,80
416,192,271149,1,0
416,192,271230,2,0,B|288:256,1,120
208,296,271636,1,0
160,192,271798,6,0,B|192:128|240:128,1,80
352,192,272122,2,0,B|320:256|272:256,1,80
160,192,272447,1,2
48,160,272609,1,0
80,48,272771,1,2
192,80,272933,1,0
352,192,273095,6,0,B|320:256|272:256,1,80
160,192,273419,2,0,B|192:128|240:128,1,80
352,192,273744,1,0
352,192,273825,1,0
352,192,273906,1,0
352,288,274068,1,0
256,288,274230,1,0
256,192,274392,5,0
256,192,274555,1,0
256,192,274717,2,0,B|208:192|176:144,1,80
256,192,275041,2,0,B|280:150|337:146,1,80,2|0
256,192,275365,2,0,B|280:233|254:285,1,80,2|0
224,352,275690,5,0
224,352,275852,1,0
160,288,276014,1,0
96,224,276176,1,0
160,144,276338,5,0
180,124,276419,1,0
205,111,276501,1,0
231,103,276582,1,0
258,102,276663,2,0,B|322:86|354:150,1,80
448,192,276987,6,0,B|400:240,3,40
400,240,277311,2,0,B|352:192,3,40
352,192,277636,2,0,B|304:240,3,40
304,240,277960,2,0,B|256:192,3,40
256,192,278284,2,0,B|208:240,3,40
208,240,278608,2,0,B|160:192,3,40
160,192,278933,2,0,B|112:240,3,40
112,240,279257,2,0,B|64:192,3,40
64,192,279582,6,0,B|112:144,3,40
112,144,279906,2,0,B|64:96,3,40
64,96,280230,2,0,B|112:48,3,40
112,48,280555,2,0,B|160:96,3,40
160,96,280879,2,0,B|208:48,3,40
208,48,281204,2,0,B|256:96,3,40
256,96,281528,2,0,B|304:48,4,40
448,160,282176,6,0,B|400:208,11,40
400,208,283149,5,0
384,224,283230,1,0
368,240,283311,1,0
352,256,283392,1,0
336,240,283474,1,0
320,256,283555,1,0
304,272,283636,1,0
288,288,283717,1,0
272,272,283798,5,0
256,288,283879,1,0
240,304,283960,1,0
224,288,284041,1,0
208,304,284122,1,0
192,320,284203,1,0
176,336,284284,6,0,B|128:288,1,40
128,288,284447,2,0,B|176:240,1,40
176,240,284609,2,0,B|128:192,1,40
128,192,284771,2,0,B|176:144,1,40
176,144,284933,2,0,B|128:96,1,40
128,96,285095,2,0,B|176:48,1,40
176,48,285257,6,0,B|240:48,9,40
240,48,286068,2,0,B|288:48,7,40
304,48,286717,2,0,B|352:48,5,40
368,48,287203,2,0,B|416:48,6,40
418,203,288014,6,0,B|353:225,11,40
353,225,288987,5,0
332,233,289068,1,0
311,240,289149,1,0
289,247,289230,1,0
282,226,289312,1,0
260,233,289393,1,0
239,241,289474,1,0
218,248,289555,1,0
210,227,289636,5,0
189,234,289717,1,0
168,242,289798,1,0
160,220,289879,1,0
139,227,289960,1,0
117,235,290041,1,0
96,240,290122,6,0,B|64:192,1,40
64,192,290284,2,0,B|96:144,1,40
96,144,290446,2,0,B|144:176,1,40
144,176,290609,2,0,B|192:144,1,40
192,144,290771,2,0,B|240:176,1,40
240,176,290933,2,0,B|288:144,1,40
288,144,291095,6,0,B|320:192,9,40
320,192,291906,2,0,B|352:240,7,40
352,240,292555,2,0,B|384:288,5,40
384,288,293041,2,0,B|416:336,9,40
416,336,293852,6,0,B|432:368,8,20,0|0|0|0|0|0|0|0|4
256,192,304555,6,0,B|208:192|176:144,1,80,2|0
256,192,304879,2,0,B|304:192|336:240,1,80
256,256,305203,2,0,B|208:256|176:208,1,80,2|0
256,128,305528,2,0,B|304:128|336:176,1,80
192,192,305852,6,0,B|128:192|112:128,1,80,2|0
320,192,306176,2,0,B|384:192|400:256,1,80
256,288,306501,2,0,B|208:288|176:240,1,80,2|0
256,96,306825,2,0,B|304:96|336:144,1,80
256,192,307149,6,0,B|304:192|336:144,1,80,2|0
256,192,307473,2,0,B|208:192|176:240,1,80
256,256,307797,2,0,B|304:256|336:208,1,80,2|0
256,128,308122,2,0,B|208:128|176:176,1,80
320,192,308446,6,0,B|384:192|400:128,1,80,2|0
192,192,308770,2,0,B|128:192|112:256,1,80
256,288,309095,2,0,B|304:288|336:240,1,80,2|0
256,96,309419,2,0,B|208:96|176:144,1,80
256,192,309744,6,0,B|208:192|176:144,1,80,2|0
256,192,310068,2,0,B|304:192|336:240,1,80
256,256,310392,2,0,B|208:256|176:208,1,80,2|0
256,128,310717,2,0,B|304:128|336:176,1,80
160,192,311041,6,0,B|96:192|80:128,1,80,2|0
352,192,311365,2,0,B|416:192|432:256,1,80
256,320,311690,2,0,B|208:320|176:272,1,80,2|0
256,64,312014,2,0,B|304:64|336:112,1,80
340,274,312338,1,2
144,288,312987,5,0
256,96,313311,1,0
368,288,313636,1,0
192,144,314284,5,8
256,256,314446,1,8
320,144,314609,1,8
448,288,314933,6,0,B|400:304,3,40
384,304,315257,2,0,B|336:288,3,40
320,288,315582,2,0,B|272:304,3,40
256,304,315906,2,0,B|208:288,3,40
199,283,316230,1,0
183,270,316311,1,0
168,255,316392,1,0
156,238,316474,1,0
148,219,316555,1,0
142,199,316636,1,0
139,179,316717,1,0
138,159,316798,1,0
142,139,316879,6,0,B|167:95,3,40
174,89,317203,2,0,B|225:107,3,40
231,101,317528,2,0,B|283:65,3,40
281,68,317852,2,0,B|332:98,3,40
334,95,318176,1,0
349,107,318257,1,0
363,121,318338,1,0
375,136,318419,1,0
387,152,318501,1,0
395,170,318582,1,0
400,189,318663,1,0
402,208,318744,1,0
401,227,318825,6,0,B|375:288,3,40
372,278,319149,2,0,B|336:306,3,40
320,307,319474,2,0,B|266:309,3,40
260,307,319798,2,0,B|194:282,3,40
204,283,320122,1,0
192,266,320203,1,0
192,246,320284,1,0
202,228,320365,1,0
219,218,320446,1,0
236,208,320528,1,0
254,200,320609,1,0
272,191,320690,1,0
289,181,320771,6,0,B|328:154,3,40
335,143,321095,2,0,B|366:92,3,40
362,89,321419,2,0,B|341:27,3,40
331,41,321744,2,0,B|262:21,3,40
273,34,322068,1,0
253,38,322149,1,0
234,45,322230,1,0
216,54,322311,1,0
200,66,322392,1,0
186,81,322474,1,0
175,98,322555,1,0
167,116,322636,1,0
157,133,322717,6,0,B|196:177,3,40
195,178,323041,2,0,B|144:221,3,40
149,216,323365,2,0,B|198:260,3,40
191,258,323690,2,0,B|254:273,3,40
249,271,324014,1,0
268,272,324095,1,0
287,272,324176,1,0
306,270,324257,1,0
325,265,324338,1,0
343,257,324419,1,0
361,248,324501,1,0
378,238,324582,1,0
385,219,324663,6,0,B|401:189|385:161,3,40
383,162,324987,2,0,B|373:127|340:119,3,40
344,118,325311,2,0,B|315:105|287:112,3,40
285,108,325636,2,0,B|251:104|218:114,3,40
225,109,325960,1,0
205,107,326041,1,0
185,107,326122,1,0
165,109,326203,1,0
145,113,326284,1,0
126,119,326365,1,0
107,125,326446,1,0
89,135,326528,1,0
77,151,326609,6,0,B|50:188|60:212,3,40
55,205,326933,2,0,B|61:241|73:270,3,40
70,262,327257,2,0,B|82:291|99:305,3,40
101,313,327582,2,0,B|118:330|151:336,3,40
155,336,327906,1,0
174,338,327987,1,0
193,341,328068,1,0
212,343,328149,1,0
231,344,328230,1,0
250,343,328311,1,0
269,343,328392,1,0
289,342,328474,1,0
308,340,328555,6,0,B|360:355,3,40
365,346,328879,2,0,B|407:313,3,40
400,288,329203,5,8
368,208,329365,1,8
336,128,329528,1,8
304,48,329690,1,8
384,80,329852,1,8
304,112,330014,1,8
224,144,330176,1,8
144,176,330338,1,8
64,192,330501,6,8,B|144:272,1,96.0000022888184
176,192,330825,2,8,B|256:112,1,96.0000022888184
288,192,331149,2,8,B|368:272,1,96.0000022888184
400,192,331474,2,8,B|480:112,1,96.0000022888184
464,272,331798,6,8,B|384:192,1,96.0000022888184
352,112,332122,2,8,B|272:192,1,96.0000022888184
240,272,332446,2,8,B|160:192,1,96.0000022888184
128,112,332771,2,8,B|48:192,1,96.0000022888184
80,272,333095,5,8
192,304,333257,1,8
224,192,333419,1,8
112,160,333582,1,8
80,272,333744,6,8,B|176:224,1,96.0000022888184
432,96,334068,2,8,B|336:144,1,96.0000022888184
288,192,334392,5,8
320,304,334554,1,8
432,272,334716,1,8
400,160,334879,1,8
320,64,335041,6,8,B|272:64|224:112,1,96.0000022888184
64,144,335365,2,8,B|112:144|160:192,1,96.0000022888184
320,192,335690,2,8,B|272:192|224:240,1,96.0000022888184
64,272,336014,2,8,B|112:272|160:320,1,96.0000022888184
256,352,336338,5,8
368,320,336501,1,8
480,288,336663,2,8,B|496:240|448:160,1,96.0000022888184
400,96,336987,5,8
288,64,337149,1,8
176,32,337311,2,8,B|128:32|80:80,1,96.0000022888184
32,176,337636,1,8
64,288,337798,1,8
176,320,337960,5,8
192,310,338041,1,0
207,298,338122,1,0
221,285,338203,1,0
234,271,338284,1,8
246,256,338365,1,8
258,240,338447,1,8
269,224,338528,1,8
279,208,338609,1,8
289,191,338690,1,8
298,174,338771,1,8
307,157,338852,1,8
315,140,338933,1,8
321,121,339014,1,8
328,103,339095,2,0,B|336:79,4,20
432,256,340230,6,0,B|384:288,3,40,8|0|0|0
385,287,340555,1,8
369,290,340636,1,0
353,291,340717,1,0
337,289,340798,1,0
321,285,340879,2,0,B|281:273,3,40,8|0|0|0
267,268,341203,1,8
252,261,341284,1,0
237,253,341365,1,0
222,246,341447,1,0
207,240,341528,6,0,B|159:219,3,40,8|0|0|0
156,216,341852,2,0,B|94:239,3,40,8|0|0|0
102,233,342176,2,0,B|73:189,3,40,8|0|0|0
73,184,342501,1,8
69,168,342582,1,0
68,152,342663,1,0
70,136,342744,1,0
75,120,342825,5,8
83,106,342906,1,0
93,93,342987,1,0
105,82,343068,1,0
118,74,343149,2,0,B|140:60|174:62,3,40,8|0|0|0
171,63,343474,2,0,B|227:64,3,40,8|0|0|0
226,65,343798,2,0,B|279:67,3,40,8|0|0|0
281,68,344122,5,8
296,72,344203,1,0
310,78,344284,1,0
323,86,344365,1,0
335,96,344447,1,8
347,106,344528,1,0
357,117,344609,1,0
367,129,344690,1,0
376,142,344771,1,8
383,156,344852,1,0
387,171,344933,1,0
387,186,345014,1,0
386,201,345095,2,0,B|373:251|340:247,3,40,8|0|0|0
357,248,345419,5,8
341,253,345501,1,0
325,253,345582,1,0
309,249,345663,1,0
294,242,345744,2,0,B|269:231|265:195,3,40,8|0|0|0
266,196,346068,1,8
259,181,346149,1,0
249,168,346230,1,0
237,157,346311,1,0
222,149,346392,2,0,B|204:139|165:156,3,40,8|0|0|0
169,157,346717,6,0,B|147:172|139:207,3,40,8|0|0|0
138,202,347041,2,0,B|124:237|149:267,3,40,8|0|0|0
139,256,347365,2,0,B|146:292|190:306,3,40,8|0|0|0
171,299,347690,1,8
183,308,347771,1,0
197,314,347852,1,0
212,319,347933,1,0
227,322,348014,5,8
242,321,348095,1,0
257,319,348176,1,0
272,316,348257,1,0
287,311,348338,1,8
301,304,348419,1,0
315,296,348501,1,0
327,286,348582,1,0
339,276,348663,2,0,B|376:247|370:222,3,40,8|0|0|0
368,230,348987,2,0,B|370:191|346:172,3,40,8|0|0|0
352,176,349311,6,0,B|224:176,1,96.0000022888184
64,176,350609,6,0,B|78:216,3,40,8|0|0|0
83,232,350933,1,8
94,248,351014,1,0
108,261,351095,1,0
123,274,351176,1,0
140,283,351257,2,0,B|184:293,3,40,8|0|0|0
198,286,351582,2,0,B|254:262,1,40,8|0
252,261,351744,2,0,B|300:298,1,40
300,296,351906,2,0,B|350:259,1,40,8|0
350,263,352068,2,0,B|405:269,1,40
409,270,352230,6,0,B|431:221,3,40,8|0|0|0
431,214,352555,1,8
434,194,352636,1,0
435,174,352717,1,0
434,154,352798,1,0
429,134,352879,2,0,B|411:89|390:95,3,40,8|0|0|0
390,90,353203,2,0,B|334:109,1,40,8|0
333,108,353365,2,0,B|292:91,1,40
277,84,353528,2,0,B|220:107,1,40,8|0
222,108,353690,2,0,B|170:87,1,40
164,92,353852,6,0,B|131:124,3,40,8|0|0|0
122,135,354176,1,8
116,154,354257,1,0
114,173,354338,1,0
117,192,354419,1,0
124,210,354501,2,0,B|142:241|170:240,3,40,8|0|0|0
171,241,354825,2,0,B|221:254,1,40,8|0
229,254,354987,2,0,B|294:227,1,40
284,231,355149,2,0,B|336:251,1,40,8|0
339,253,355311,2,0,B|392:232,1,40
393,228,355474,6,0,B|411:191|394:176,3,40,8|0|0|0
394,170,355798,1,8
380,155,355879,1,0
362,145,355960,1,0
342,140,356041,1,0
322,143,356122,2,0,B|286:151|284:189,3,40,8|0|0|0
280,182,356446,2,0,B|256:235,1,40,8|0
254,236,356609,2,0,B|251:302,1,40
251,295,356771,2,0,B|198:329,1,40,8|0
199,325,356933,2,0,B|151:305,1,40
143,301,357095,6,0,B|115:284|120:244,3,40,8|0|0|0
116,249,357419,1,8
113,228,357501,1,0
113,208,357582,1,0
115,188,357663,1,0
118,168,357744,2,0,B|125:130|146:119,3,40,8|0|0|0
147,118,358068,2,0,B|186:88,1,40,8|0
197,87,358230,2,0,B|240:75,1,40
255,77,358392,6,0,B|289:80|314:103,3,40,8|0|0|0
310,98,358717,1,8
322,113,358798,1,0
327,132,358879,1,0
329,151,358960,1,0
329,170,359041,2,0,B|328:207|295:236,3,40,8|0|0|0
304,222,359365,2,0,B|276:252|242:239,1,40,8|0
250,243,359528,2,0,B|216:246|197:226,1,40
195,224,359690,6,0,B|161:202|161:166,3,40,8|0|0|0
162,175,360014,1,8
160,155,360095,1,0
162,135,360176,1,0
171,117,360257,1,0
187,105,360338,1,8
205,96,360419,1,0
225,98,360501,1,8
243,104,360582,1,0
257,118,360663,1,8
264,136,360744,1,0
264,155,360825,1,8
255,173,360906,1,0
252,182,360987,6,0,B|236:230,1,40
381,260,361501,2,0,B|372:311,1,40
227,307,362015,2,0,B|179:323,1,40
98,289,362358,6,0,B|119:239,1,40
144,96,362872,2,0,B|162:147,1,40
288,224,363387,2,0,B|336:207,1,40
416,144,363729,6,0,B|369:111,1,40
224,48,364244,2,0,B|256:97,1,40
240,240,364758,2,0,B|192:208,1,40
96,144,365101,6,0,B|128:194,1,40
192,320,365615,2,0,B|225:271,1,40
288,144,366129,2,0,B|225:175,1,40
120,169,366472,6,0,B|186:187,1,40
256,288,367001,2,0,B|322:270,1,40
432,224,367530,1,0
432,224,367707,1,0
368,96,367883,6,0,B|321:127,1,40
208,192,368413,2,0,B|161:162,1,40
64,96,368942,1,0
64,96,369119,1,0
144,144,369295,5,0
144,144,369472,1,0
256,208,369824,1,0
256,208,370001,1,0
192,320,370354,1,0
192,320,370530,1,0
256,352,370707,5,0
256,192,371434,1,0
256,192,372161,12,0,376525
96,96,382640,5,0
160,96,382790,1,0
144,160,382940,1,0
208,160,383090,1,2
192,224,383240,2,0,B|352:224,1,160,0|2
448,160,383840,2,0,B|288:160,1,160,0|2
192,96,384440,2,0,B|352:96,1,160,0|2
400,224,385040,5,0
336,240,385190,1,0
272,256,385340,1,0
208,272,385490,1,0
144,288,385640,2,0,B|112:96,5,160
176,96,387290,1,0
256,96,387440,5,0
304,160,387590,1,0
256,224,387740,1,0
304,288,387890,1,2
256,352,388040,2,0,B|96:352,1,160,0|2
192,224,388640,2,0,B|352:224,1,160,0|2
432,96,389240,2,0,B|272:96,1,160,0|2
128,160,389840,6,0,B|224:208,1,80
128,256,390140,2,0,B|208:304,1,80,0|2
288,320,390440,1,0
368,272,390590,1,0
384,176,390740,2,0,B|384:80|304:32,1,160,2|0
160,256,392240,5,0
208,192,392390,1,0
256,256,392540,1,0
304,192,392690,1,0
352,256,392840,2,0,B|400:256,2,40
400,192,393140,2,0,B|448:192,2,40
352,128,393440,5,0
304,192,393590,1,0
256,128,393740,1,0
208,192,393890,1,0
160,128,394040,2,0,B|112:128,2,40
112,192,394340,2,0,B|64:192,2,40
160,256,394640,5,0
240,272,394790,1,0
320,256,394940,1,0
400,272,395090,1,0
480,256,395240,1,0
480,256,395315,1,0
480,256,395390,1,0
464,176,395540,1,0
464,176,395615,1,0
464,176,395690,1,0
384,144,395840,6,0,B|336:112,3,40
320,144,396140,2,0,B|272:112,3,40
256,144,396440,2,0,B|208:112,3,40
192,144,396740,2,0,B|144:112,3,40
128,144,397040,5,0
134,220,397190,1,0
175,284,397340,1,0
249,305,397490,1,0
328,312,397640,2,0,B|384:216,1,80
399,175,397940,2,0,B|432:112,2,40
320,176,398240,5,0
240,176,398390,1,0
288,112,398540,1,0
208,112,398690,1,0
256,48,398840,2,0,B|208:48,2,40
176,48,399140,2,0,B|128:48,2,40
96,48,399440,5,0
112,128,399590,1,0
96,208,399740,1,0
112,288,399890,1,0
192,272,400040,1,0
272,288,400190,1,0
352,272,400340,1,0
256,192,400640,12,0,401540
384,288,401840,6,0,B|336:288,1,40,2|0
304,288,401990,1,0
224,288,402140,1,2
144,288,402290,1,0
192,224,402440,1,2
240,160,402590,1,0
288,96,402740,2,2,B|320:48|368:56,1,80
440,88,403040,6,0,B|408:120,1,40
384,144,403190,1,0
320,192,403340,1,2
256,240,403490,1,0
208,176,403640,1,2
144,224,403790,1,0
72,192,403940,2,2,B|40:152|56:96,1,80
88,32,404240,6,0,B|152:64,1,40
160,64,404390,1,0
224,96,404540,1,2
288,128,404690,1,0
256,192,404840,1,2
288,256,404990,1,0
272,328,405140,2,2,B|224:360|184:336,1,80
112,320,405440,6,0,B|80:288,1,40
64,256,405590,1,0
112,192,405740,1,2
64,128,405890,1,0
128,80,406040,1,2
192,128,406190,1,0
256,80,406340,2,2,B|296:40|336:40,1,80
400,80,406640,6,0,B|400:144,1,40
400,160,406790,2,0,B|400:208|352:224,1,80,0|2
280,216,407090,2,0,B|280:264|232:280,1,80,0|2
160,272,407390,2,0,B|160:320|112:336,1,80,0|2
64,272,407690,1,2
112,80,407840,6,0,B|112:144,1,40
112,160,407990,2,0,B|112:208|160:224,1,80,0|2
232,216,408290,2,0,B|232:264|280:280,1,80,0|2
352,272,408590,2,0,B|352:320|400:336,1,80,0|2
448,272,408890,1,2
464,112,409040,5,0
384,112,409190,2,0,B|288:112,4,80,0|2|0|2|0
352,192,409940,2,2,B|272:192,1,80
48,192,410240,5,0
128,192,410390,2,0,B|224:192,4,80,0|2|0|2|0
128,272,411140,2,2,B|208:272,1,80
304,272,411440,6,0,B|304:320,2,40
304,176,411740,2,0,B|304:80,1,80,2|0
216,64,412040,2,0,B|312:64,1,80,2|0
392,64,412340,2,2,B|296:64,1,80
208,112,412640,6,0,B|208:48,2,40
208,208,412940,2,0,B|208:304,1,80,2|0
296,320,413240,2,0,B|208:320,1,80,2|0
120,320,413540,2,2,B|216:320,1,80
336,304,413840,6,0,B|336:352,2,40
352,224,414140,1,2
336,144,414290,1,0
352,64,414440,1,2
272,48,414590,1,0
192,64,414740,2,2,B|136:88|112:112,1,80
64,160,415040,5,0
64,160,415115,1,0
64,160,415190,1,0
64,160,415265,1,0
64,160,415340,1,2
112,224,415490,1,0
160,288,415640,1,2
208,224,415790,1,0
256,288,415940,2,2,B|304:272|336:240,1,80
416,192,416240,5,0
416,192,416315,1,0
416,192,416390,1,0
416,192,416465,1,0
416,192,416540,1,2
404,117,416690,1,0
347,66,416840,1,2
274,43,416990,1,0
199,59,417140,1,2
146,114,417290,1,2
128,192,417440,5,0
128,192,417515,1,0
128,192,417590,1,0
128,192,417665,1,0
128,192,417740,1,2
224,192,417890,1,0
176,272,418040,1,2
272,272,418190,1,0
368,272,418340,2,2,B|400:272|448:224,1,80
448,144,418640,5,0
448,144,418715,1,0
448,144,418790,1,0
448,144,418865,1,0
448,144,418940,1,2
352,176,419090,1,0
256,144,419240,1,2
160,176,419390,1,0
192,272,419540,5,2
240,176,419690,1,2
288,80,419840,1,4
432,80,420440,5,0
430,97,420515,1,0
429,114,420590,1,0
428,131,420665,1,0
427,148,420740,1,0
426,165,420815,1,0
425,182,420890,1,0
423,199,420965,1,0
416,224,421040,6,0,B|400:272,4,40,2|0|0|0|0
304,208,421490,2,0,B|288:256,4,40,2|0|0|0|0
192,192,421940,2,0,B|176:240,4,40,2|0|0|0|0
80,176,422390,2,0,B|64:224,4,40,2|0|0|0|0
64,64,422840,5,2
81,66,422915,1,0
98,69,422990,1,0
114,74,423065,1,0
130,80,423140,1,2
145,87,423215,1,0
160,95,423290,1,0
174,104,423365,1,0
187,114,423440,6,0,B|224:156,3,40,2|0|0|0
217,156,423740,2,0,B|244:207,3,40,2|0|0|0
242,201,424040,2,0,B|255:264,3,40,2|0|0|0
252,252,424340,2,0,B|260:308,3,40,2|0|0|0
256,304,424640,2,0,B|256:354,8,40,2|0|0|0|0|0|0|0|2
288,240,425390,5,2
256,176,425540,1,2
224,112,425690,1,2
256,48,425840,5,2
272,41,425915,1,0
289,39,425990,1,0
305,44,426065,1,0
317,55,426140,1,2
325,70,426215,1,0
330,86,426290,1,0
331,103,426365,1,0
329,120,426440,5,2
346,121,426515,1,0
361,129,426590,1,0
372,142,426665,1,0
378,158,426740,1,2
380,175,426815,1,0
378,192,426890,1,0
368,206,426965,1,0
352,224,427040,6,0,B|323:251,1,40,2|0
288,208,427190,2,0,B|256:240,1,40
224,192,427340,2,0,B|192:224,1,40,2|0
160,176,427490,2,0,B|128:208,1,40
208,128,427640,6,0,B|240:96,1,40,2|0
272,64,427790,2,0,B|304:96,1,40
336,128,427940,2,0,B|368:96,1,40,2|0
400,64,428090,2,0,B|432:96,1,40
464,128,428240,1,2
464,224,428390,5,0
450,238,428465,1,0
432,248,428540,1,2
413,256,428615,1,0
394,264,428690,1,0
374,268,428765,1,0
354,272,428840,2,0,B|308:282,3,40,2|0|0|0
295,286,429140,2,0,B|246:285,3,40,2|0|0|0
240,299,429440,6,0,B|203:275,3,40
189,265,429740,1,0
174,250,429815,1,0
162,233,429890,1,0
152,215,429965,1,0
144,196,430040,1,0
139,176,430115,1,0
138,156,430190,1,0
140,136,430265,1,0
144,116,430340,1,0
150,97,430415,1,0
157,78,430490,1,0
167,60,430565,1,0
176,48,430640,5,2
336,48,430940,1,2
176,48,431240,1,2
336,48,431540,1,2
256,192,431840,1,2
176,336,432140,1,2
216,264,432290,1,2
304,128,432590,1,2
256,192,432740,1,2
184,232,432890,1,2
128,192,433040,5,2
136,120,433190,1,2
184,64,433340,1,2
256,56,433490,1,2
384,192,433640,5,2
376,264,433790,1,2
328,320,433940,1,2
256,328,434090,1,2
128,328,434240,5,2
128,312,434315,1,0
128,296,434390,1,0
128,280,434465,1,0
144,280,434540,1,2
144,264,434615,1,0
144,248,434690,1,0
144,232,434765,1,0
160,232,434840,5,2
176,152,434990,1,0
256,168,435140,1,2
272,88,435290,1,2
352,104,435440,1,2
456,88,436040,5,2
440,88,436115,1,0
424,88,436190,1,0
408,88,436265,1,0
400,104,436340,1,2
384,104,436415,1,0
368,104,436490,1,0
352,104,436565,1,0
344,120,436640,1,2
328,120,436715,1,0
312,120,436790,1,0
296,120,436865,1,0
288,136,436940,1,2
272,136,437015,1,0
256,136,437090,1,0
240,136,437165,1,0
224,136,437240,2,0,B|184:136,7,40,2|0|2|0|2|0|2|0
176,136,437840,5,2
144,192,437990,1,0
176,248,438140,1,2
144,304,438290,2,0,B|96:304,6,40,2|0|0|0|2|0|2
288,328,439040,6,0,B|352:328,1,40,2|0
304,272,439190,2,0,B|368:272,1,40,0|0
320,216,439340,2,0,B|384:216,1,40,2|0
336,160,439490,2,0,B|400:160,1,40,0|0
352,104,439640,5,2
256,48,439790,1,2
160,104,439940,1,2
200,208,440090,1,2
312,208,440240,1,4
256,192,449840,5,4
256,192,452021,5,4
256,192,454021,5,4
256,192,455867,5,4
256,192,457581,5,4
256,192,458381,5,4
256,192,459181,5,4
256,192,459931,5,4
256,128,460681,5,4
256,128,460857,1,4
256,128,461210,1,4
256,256,461386,5,4
256,256,461563,1,4
256,256,461916,1,4
304,192,462092,5,4
272,192,462425,5,4
240,192,462758,5,4
208,192,463092,5,4
256,144,463425,5,4
256,160,463582,1,4
256,176,463740,1,4
256,192,463898,1,4
256,208,464056,1,4
256,224,464214,1,4
256,240,464372,1,4
256,256,464530,1,4
256,304,464688,5,0
256,296,464763,1,0
256,288,464838,1,0
256,280,464913,1,0
256,272,464988,1,0
256,264,465063,1,0
256,256,465138,1,0
256,248,465213,1,0
256,240,465288,1,0
256,232,465363,1,0
256,224,465438,1,0
256,216,465513,1,0
256,208,465588,1,0
256,200,465663,1,0
256,192,465738,1,0
256,184,465813,1,0
256,176,465888,1,0
256,192,466038,12,0,467088
304,128,467388,5,0
272,144,467463,1,0
240,160,467538,1,0
208,176,467613,1,0
176,192,467688,1,0
48,256,467988,5,0
80,240,468063,1,0
112,224,468138,1,0
144,208,468213,1,0
176,216,468288,1,0
208,200,468363,1,0
240,184,468438,1,0
272,168,468513,1,0
304,176,468588,1,0
336,160,468663,1,0
368,144,468738,1,0
400,128,468813,1,0
432,112,468888,5,0
344,80,469038,1,0
256,112,469188,1,0
168,80,469338,1,0
80,112,469488,1,0
128,288,469938,5,0
160,304,470013,1,0
192,288,470088,1,0
256,256,470238,1,0
320,288,470388,1,0
384,256,470538,1,0
448,288,470688,1,0
480,224,470838,1,0
448,160,470988,5,0
384,128,471138,1,0
320,160,471288,1,0
256,128,471438,1,0
192,160,471588,1,0
128,192,471738,1,0
48,200,471888,5,0
80,128,472038,1,0
112,56,472188,1,0
144,72,472263,1,0
176,88,472338,1,0
208,104,472413,1,0
240,120,472488,2,0,B|289:144|350:142,3,80
396,144,473088,1,0
432,224,473238,5,0
368,288,473388,1,0
304,224,473538,1,0
240,288,473688,1,0
176,224,473838,1,0
240,160,473988,1,0
416,96,474288,5,0
398,107,474363,1,0
380,118,474438,1,0
362,129,474513,1,0
344,140,474588,1,0
324,148,474663,1,0
303,149,474738,1,0
284,138,474813,1,0
277,118,474888,1,0
286,99,474963,1,0
306,93,475038,1,0
324,103,475113,1,0
332,122,475188,1,0
329,142,475263,1,0
311,153,475338,1,0
293,164,475413,1,0
275,175,475488,5,0
259,189,475563,1,0
247,206,475638,1,0
243,226,475713,1,0
250,245,475788,1,0
263,261,475863,1,0
282,269,475938,1,0
302,263,476013,1,0
317,248,476088,1,0
319,227,476163,1,0
309,208,476238,1,0
291,197,476313,1,0
270,198,476388,1,0
250,204,476463,1,0
234,218,476538,1,0
218,232,476613,1,0
202,246,476688,1,0
72,96,477138,6,2,B|8:96,2,40,2|0|2
144,96,477438,1,2
176,112,477513,1,0
192,144,477588,1,2
176,176,477663,1,0
144,192,477738,1,2
440,288,478338,6,2,B|488:288,2,40,2|0|2
368,288,478638,1,2
336,272,478713,1,0
320,240,478788,1,2
336,208,478863,1,0
368,192,478938,1,2
80,96,479538,6,2,B|40:96,2,40,2|0|2
144,96,479838,1,2
176,96,479913,1,0
208,96,479988,1,2
240,96,480063,1,0
272,96,480138,1,2
432,288,480738,6,2,B|472:288,2,40,2|0|2
368,288,481038,1,2
304,288,481188,1,2
240,288,481338,1,2
176,288,481488,1,2
96,208,481788,1,2
208,192,482088,5,2
272,160,482238,1,2
328,112,482388,1,0
360,48,482538,1,2
96,48,483138,6,2,B|120:80,3,40,2|0|2|0
128,112,483438,1,2
112,144,483513,1,0
96,176,483588,1,2
88,272,483888,5,2
120,272,483963,1,0
152,272,484038,1,2
184,272,484113,1,0
208,256,484188,1,2
240,256,484263,1,0
272,256,484338,1,2
304,256,484413,1,0
336,240,484488,5,2
368,232,484563,1,0
400,224,484638,1,2
432,216,484713,1,0
464,200,484788,1,2
480,168,484863,1,0
464,136,484938,1,2
432,120,485013,1,0
400,128,485088,1,2
144,144,485688,5,2
352,288,486288,6,0,B|352:240,1,40,2|0
288,272,486438,2,0,B|288:224,1,40,2|0
224,256,486588,2,0,B|224:208,1,40,2|0
160,240,486738,6,0,B|160:192,1,40,2|0
224,224,486888,2,0,B|224:176,1,40,2|0
288,208,487038,2,0,B|288:144,1,40,2|0
352,192,487188,6,0,B|352:144,1,40,2|0
288,176,487338,2,0,B|288:128,1,40,2|0
224,160,487488,2,0,B|224:96,3,40,2|0|2|0
240,96,487788,5,2
272,80,487863,1,0
304,64,487938,1,2
336,80,488013,1,0
368,96,488088,1,2
384,128,488163,1,0
400,160,488238,1,2
384,192,488313,1,0
368,224,488388,1,2
336,240,488463,1,0
304,256,488538,1,2
272,240,488613,1,0
240,224,488688,6,2,B|144:224,3,80
48,160,489288,2,2,B|136:160,3,80
240,96,489888,2,2,B|336:96,1,80
448,96,490188,1,2
256,160,490488,5,2
256,352,490788,1,2
304,272,490938,1,2
208,272,491088,2,0,B|144:192|192:120,1,160,2|0
256,64,491538,1,0
384,128,491688,5,2
304,192,491838,1,2
208,192,491988,1,2
128,128,492138,1,2
208,64,492288,2,0,B|224:104|288:96,1,80
368,64,492588,2,0,B|416:72|440:104,1,80
448,192,492888,6,2,B|448:264|360:280,2,120
360,192,493488,2,0,B|192:192,1,160,2|0
112,192,493938,5,2
160,144,494088,1,2
208,96,494238,1,2
208,288,494688,1,2
448,160,495288,5,2
320,160,495588,1,2
256,160,495738,1,2
256,96,495888,5,0
192,128,496038,1,0
128,160,496188,1,0
192,192,496338,1,0
256,224,496488,1,0
192,256,496638,1,0
256,288,496788,1,0
320,160,497088,6,0,B|400:160,1,80
368,224,497388,2,0,B|464:224,1,80
480,288,497688,2,0,B|400:288,2,80
176,192,498288,5,0
96,192,498438,1,0
136,128,498588,1,0
216,128,498738,1,0
256,192,498888,2,0,B|304:256,1,80
368,208,499188,2,0,B|320:144,1,80
280,80,499488,5,0
216,128,499638,1,0
256,192,499788,1,0
216,256,499938,1,0
176,192,500088,5,0
112,232,500254,1,0
48,272,500421,1,0
216,320,500754,5,0
288,288,500925,1,0
216,256,501096,1,0
288,224,501268,1,0
216,192,501439,1,0
288,160,501611,1,0
360,128,501782,1,0
432,96,501954,1,0
360,64,502125,1,0
80,192,502852,5,0
256,256,503430,1,0
384,192,503880,1,0
256,112,504425,5,0
176,144,504758,1,0
144,232,505091,1,0
208,320,505545,2,0,B|248:344,1,40,0|2
