osu file format v9

[General]
AudioFilename: 7743.MP3
AudioLeadIn: 0
PreviewTime: 78210
Countdown: 1
SampleSet: Normal
StackLeniency: 0.1
Mode: 0
LetterboxInBreaks: 1

[Editor]
DistanceSpacing: 1.1
BeatDivisor: 4
GridSize: 4

[Metadata]
Title:Nageki No Ki
Artist:Kinjishi
Creator:akarina
Version:Another
Source:Beatmania IIDX 13 DistorteD
Tags:

[Difficulty]
HPDrainRate:7
CircleSize:4
OverallDifficulty:8
ApproachRate:9
SliderMultiplier:1.9
SliderTickRate:1

[Events]
//Background and Video events
0,0,"NagekBG.png"
//Break Periods
//Storyboard Layer 0 (Background)
//Storyboard Layer 1 (Fail)
//Storyboard Layer 2 (Pass)
//Storyboard Layer 3 (Foreground)
//Storyboard Sound Samples
//Background Colour Transformations
3,100,163,162,255

[TimingPoints]
18210,375,4,1,0,50,1,0
29460,-100,4,2,0,60,0,0
30210,-100,4,1,0,50,0,0
30397,-100,4,2,0,60,0,0
30960,-100,4,1,0,50,0,0
31147,-100,4,2,0,60,0,0
32085,-100,4,1,0,50,0,0
32272,-100,4,2,0,60,0,0
32835,-100,4,1,0,50,0,0
33022,-100,4,2,0,60,0,0
33585,-100,4,1,0,50,0,0
33772,-100,4,2,0,60,0,0
33960,-100,4,1,0,50,0,0
34147,-100,4,2,0,60,0,0
34710,-100,4,1,0,50,0,0
34897,-100,4,2,0,60,0,0
35085,-100,4,1,0,50,0,0
35272,-100,4,2,0,60,0,0
36585,-100,4,1,0,50,0,0
36772,-100,4,2,0,60,0,0
37335,-100,4,1,0,50,0,0
37522,-100,4,2,0,60,0,0
38085,-100,4,1,0,60,0,0
38272,-100,4,2,0,60,0,0
38460,-100,4,1,0,50,0,0
38647,-100,4,2,0,60,0,0
39210,-100,4,1,0,50,0,0
39397,-100,4,2,0,60,0,0
40335,-100,4,1,0,50,0,0
40522,-100,4,2,0,60,0,0
42210,-100,4,1,0,50,0,0
42397,-100,4,2,0,60,0,0
42960,-100,4,1,0,50,0,0
43147,-100,4,2,0,60,0,0
43710,-100,4,1,0,50,0,0
43897,-100,4,2,0,60,0,0
44460,-100,4,1,0,50,0,0
44647,-100,4,2,0,60,0,0
45210,-100,4,1,0,50,0,0
45397,-100,4,2,0,60,0,0
45960,-100,4,1,0,50,0,0
46147,-100,4,2,0,60,0,0
46710,-100,4,1,0,50,0,0
46897,-100,4,2,0,60,0,0
47085,-100,4,2,0,50,0,0
47272,-100,4,2,0,60,0,0
47460,-100,4,1,0,50,0,0
47647,-100,4,2,0,60,0,0
47835,-100,4,2,0,70,0,0
48210,-100,4,1,0,50,0,0
48397,-100,4,2,0,60,0,0
48960,-100,4,1,0,50,0,0
49147,-100,4,2,0,60,0,0
49710,-100,4,1,0,50,0,0
49897,-100,4,2,0,60,0,0
50460,-100,4,1,0,50,0,0
50647,-100,4,2,0,60,0,0
51210,-100,4,1,0,50,0,0
51397,-100,4,2,0,60,0,0
51960,-100,4,1,0,50,0,0
52053,-100,4,2,0,60,0,0
52710,-100,4,1,0,50,0,0
52897,-100,4,2,0,60,0,0
53460,-100,4,1,0,50,0,0
53647,-100,4,2,0,60,0,0
54210,-100,4,1,0,50,0,0
54303,-100,4,2,0,60,0,0
54960,-100,4,1,0,50,0,0
55053,-100,4,2,0,60,0,0
55710,-100,4,1,0,50,0,0
55897,-100,4,2,0,60,0,0
56460,-100,4,1,0,50,0,0
56553,-100,4,2,0,60,0,0
58710,-100,4,1,0,50,0,0
58885,-100,4,2,0,60,0,0
59460,-100,4,1,0,50,0,0
59647,-100,4,2,0,60,0,0
60210,-100,4,1,0,50,0,0
60303,-100,4,2,0,60,0,0
60960,-100,4,1,0,50,0,0
61053,-100,4,2,0,60,0,0
61710,-100,4,1,0,60,0,0
64710,-100,4,2,0,50,0,0
66210,-100,4,1,0,50,0,0
66397,-100,4,2,0,50,0,0
66585,-100,4,1,0,50,0,0
66678,-100,4,2,0,60,0,0
67335,-100,4,1,0,50,0,0
67522,-100,4,2,0,60,0,0
68085,-100,4,1,0,50,0,0
68178,-100,4,2,0,60,0,0
68835,-100,4,1,0,50,0,0
69210,-100,4,2,0,60,0,0
69585,-100,4,1,0,50,0,0
69678,-100,4,2,0,60,0,0
69960,-100,4,1,0,50,0,0
70053,-100,4,2,0,60,0,0
70335,-100,4,1,0,50,0,0
70428,-100,4,2,0,60,0,0
71085,-100,4,1,0,50,0,0
71272,-100,4,2,0,60,0,0
71835,-100,4,1,0,50,0,0
72210,-100,4,1,0,50,0,0
72585,-100,4,1,0,50,0,0
72678,-100,4,2,0,60,0,0
72960,-100,4,1,0,50,0,0
73147,-100,4,2,0,60,0,0
73335,-100,4,1,0,50,0,0
73522,-100,4,2,0,60,0,0
73710,-100,4,1,0,50,0,0
73803,-100,4,2,0,60,0,0
74085,-100,4,1,0,50,0,0
74178,-100,4,2,0,60,0,0
74835,-100,4,1,0,50,0,0
75210,-100,4,1,0,50,0,0
75585,-100,4,2,0,60,0,0
75960,-100,4,1,0,50,0,0
76335,-100,4,2,0,60,0,0
77460,-100,4,1,0,50,0,0
77835,-100,4,2,0,60,0,0
78210,-100,4,1,0,50,0,0
78585,-100,4,2,0,60,0,0
78960,-100,4,1,0,50,0,0
79147,-100,4,2,0,60,0,0
80085,-100,4,1,0,50,0,0
80178,-100,4,2,0,60,0,0
81210,-100,4,1,0,50,0,0
81303,-100,4,2,0,60,0,0
81960,-100,4,1,0,50,0,0
82053,-100,4,2,0,60,0,0
82710,-100,4,1,0,50,0,0
82897,-100,4,2,0,60,0,0
83460,-100,4,1,0,50,0,0
83647,-100,4,2,0,60,0,0
84210,-100,4,1,0,50,0,0
84772,-100,4,2,0,60,0,0
84960,-100,4,1,0,50,0,0
85147,-100,4,2,0,60,0,0
85335,-100,4,1,0,50,0,0
85522,-100,4,2,0,60,0,0
85710,-100,4,1,0,50,0,0
86272,-100,4,2,0,60,0,0
86835,-100,4,1,0,50,0,0
87585,-100,4,2,0,60,0,0
87960,-100,4,1,0,50,0,0
88335,-100,4,2,0,60,0,0
90210,-100,4,1,0,50,0,0
91522,-100,4,1,0,50,0,0
91710,-100,4,1,0,50,0,0
93022,-100,4,1,0,50,0,0
93210,-100,4,1,0,50,0,0
94335,-100,4,1,0,60,0,0
94522,-100,4,1,0,60,0,0
94897,-100,4,2,0,60,0,0
95272,-100,4,1,0,60,0,0
95460,-100,4,2,0,60,0,0
95835,-100,4,1,0,60,0,0
96022,-100,4,2,0,60,0,0
96210,-100,4,2,0,60,0,0
98085,-100,4,1,0,50,0,0
98272,-100,4,2,0,60,0,0
100710,-100,4,1,0,50,0,0
100897,-100,4,2,0,60,0,0
101272,-100,4,1,0,50,0,0
101460,-100,4,2,0,60,0,0
101835,-100,4,1,0,60,0,0
102022,-100,4,2,0,60,0,0
102210,-100,4,2,0,50,0,1
109710,-100,4,1,0,50,0,0
109897,-100,4,2,0,60,0,0
110460,-100,4,1,0,50,0,0
110647,-100,4,2,0,60,0,0
111210,-100,4,1,0,50,0,0
111397,-100,4,2,0,60,0,0
111960,-100,4,1,0,50,0,0
112147,-100,4,2,0,60,0,0
112710,-100,4,1,0,50,0,0
112897,-100,4,2,0,60,0,0
113460,-100,4,1,0,50,0,0
113647,-100,4,2,0,60,0,0
114210,-100,4,1,0,50,0,0
114397,-100,4,2,0,60,0,0
114960,-100,4,1,0,50,0,0
115147,-100,4,2,0,60,0,0
115710,-100,4,1,0,50,0,0
115897,-100,4,2,0,60,0,0
116460,-100,4,1,0,50,0,0
116647,-100,4,2,0,60,0,0
117210,-100,4,1,0,60,0,0
120303,-100,4,2,0,60,0,0
121710,-100,4,1,0,50,0,0
121897,-100,4,2,0,60,0,0
122085,-100,4,1,0,50,0,0
122272,-100,4,2,0,60,0,0
122460,-100,4,1,0,50,0,0
124710,-100,4,2,0,5,0,0

[Colours]
Combo1 : 128,0,0
Combo2 : 0,128,128
Combo3 : 0,128,192

[HitObjects]
192,208,18210,1,0
272,128,18397,1,0
304,240,18585,1,8
256,192,18772,1,0
200,136,18960,5,0
328,176,19147,1,0
232,264,19335,1,8
256,192,19522,1,0
160,216,19710,5,0
280,104,19897,1,0
320,264,20085,1,8
256,192,20272,1,0
192,128,20460,5,0
344,176,20647,1,0
224,280,20835,1,8
256,192,21022,1,0
152,216,21210,5,0
280,88,21397,1,0
328,272,21585,1,8
256,192,21772,1,0
176,112,21960,5,0
368,176,22147,1,0
216,296,22335,1,8
256,192,22522,1,0
136,224,22710,5,0
288,72,22897,1,0
336,288,23085,1,8
256,192,23272,1,0
160,96,23460,5,0
384,176,23647,1,0
208,312,23835,1,8
256,192,24022,1,0
120,232,24210,5,0
296,56,24397,1,0
352,304,24585,1,8
256,192,24772,1,0
144,80,24960,5,0
400,168,25147,1,0
200,328,25335,1,8
256,192,25522,1,0
136,224,25710,5,0
288,72,25897,1,0
336,288,26085,1,8
256,192,26272,1,0
176,112,26460,5,0
368,176,26647,1,0
216,296,26835,1,8
256,192,27022,1,0
152,216,27210,5,0
280,88,27397,1,0
328,272,27585,1,8
256,192,27772,1,0
200,136,27960,5,0
328,176,28147,1,0
232,264,28335,1,8
256,192,28522,1,0
256,192,28710,1,2
256,382,29460,6,0,B|256:192,2,190,2|0|0
256,384,30397,1,0
256,192,30585,2,0,B|256:76,1,95,2|0
156,152,30960,5,0
356,152,31147,1,0
256,276,31335,1,2
256,276,31428,1,0
256,276,31522,1,0
256,48,31710,6,0,B|256:152,1,95,2|0
256,276,32085,1,0
256,276,32272,1,0
256,143,32460,2,0,B|256:48,1,95,2|0
116,84,32835,5,0
112,296,33022,1,0
216,192,33210,1,0
216,192,33303,1,0
216,192,33397,1,0
204,328,33585,5,0
320,248,33772,1,0
432,336,33960,1,4
320,248,34147,1,0
320,136,34335,2,0,B|320:40,1,95
216,140,34710,5,0
216,140,34897,1,0
424,144,35085,1,0
424,144,35272,1,0
320,40,35460,1,2
320,136,35647,2,0,B|320:240,2,95,0|0|0
64,168,36210,6,0,B|64:272,1,95,2|0
152,64,36585,2,0,B|152:160,1,95
432,168,36960,2,0,B|432:280,1,95,2|0
360,64,37335,2,0,B|360:168,1,95
256,312,37710,1,2
256,200,37897,1,0
256,312,38085,1,0
256,64,38272,1,2
96,136,38460,6,0,B|208:120,1,95,0|0
408,136,38835,2,0,B|296:160,1,95,2|0
136,248,39210,1,0
376,264,39397,2,0,B|272:288,1,95
192,136,39772,5,0
248,280,39960,1,2
192,136,40147,1,0
336,168,40335,1,0
256,192,40522,5,0
304,88,40710,1,2
324,96,40803,1,0
348,104,40897,1,0
372,108,40991,1,0
396,108,41085,1,2
420,108,41178,1,0
444,100,41272,1,0
464,92,41366,1,0
484,128,41460,5,2
468,148,41553,1,0
452,168,41647,1,0
436,188,41741,1,0
420,208,41835,1,2
408,228,41928,1,0
396,248,42022,1,0
384,268,42116,1,0
372,288,42210,2,0,B|340:328|324:376,1,95
288,236,42585,2,0,B|320:196|336:148,1,95,8|0
156,200,42960,6,0,B|124:240|108:288,1,95
72,148,43335,2,0,B|104:108|120:60,1,95,8|0
224,112,43710,1,0
324,56,43897,1,0
324,172,44085,1,8
292,112,44272,5,0
188,248,44460,1,0
84,200,44647,1,0
76,316,44835,1,8
120,260,45022,5,0
120,96,45210,1,0
120,96,45397,1,0
256,192,45585,1,8
256,192,45772,1,0
384,92,45960,1,0
384,92,46147,1,0
256,64,46335,5,8
256,192,46522,1,0
120,268,46710,5,0
256,228,46897,1,0
392,268,47085,1,2
256,260,47272,1,0
136,184,47460,1,0
256,296,47647,1,0
372,184,47835,1,2
256,324,48022,5,0
256,184,48210,2,0,B|240:132|280:88,1,95,4|0
256,184,48585,2,0,B|308:168|352:208,1,95,8|0
256,184,48960,2,0,B|272:236|232:280,1,95
256,184,49335,2,0,B|204:200|160:160,1,95,8|0
220,120,49710,5,0
316,224,49897,1,0
184,172,50085,1,2
324,164,50272,1,0
200,236,50460,1,0
280,120,50647,1,0
260,260,50835,1,2
256,188,51022,5,0
400,64,51210,6,0,B|384:112|408:184,1,95
456,256,51585,1,8
440,272,51678,1,0
424,288,51772,1,0
336,248,51960,1,0
320,264,52053,1,0
304,280,52147,1,0
208,256,52335,1,8
192,272,52428,1,0
176,288,52522,1,0
72,240,52710,5,0
56,144,52897,1,0
112,72,53085,1,2
200,40,53272,1,0
296,64,53460,1,0
368,152,53647,1,0
360,264,53835,1,4
264,328,54022,1,0
152,200,54210,6,0,B|104:176,2,47.5
120,312,54585,2,0,B|176:344,1,47.5,2|0
192,352,54772,1,0
264,192,54960,6,0,B|240:240,2,47.5
256,64,55335,2,0,B|280:16,2,47.5,2|0|0
408,184,55710,6,0,B|360:288,1,95
256,296,56085,1,2
256,296,56178,1,0
256,296,56272,1,0
120,208,56460,6,0,B|80:256,2,47.5
132,96,56835,2,0,B|172:48,2,47.5,2|0|0
320,76,57210,5,2
344,88,57303,1,0
360,112,57397,1,0
368,140,57491,1,0
368,168,57585,1,2
356,196,57678,1,0
340,220,57772,1,0
184,180,57960,5,2
168,204,58054,1,0
156,232,58147,1,0
156,260,58241,1,0
164,288,58335,1,2
180,312,58429,1,0
204,324,58522,1,0
272,232,58710,5,0
352,312,58897,1,0
376,284,58991,1,0
396,252,59085,1,2
420,220,59178,1,0
444,188,59272,1,0
344,120,59460,5,0
264,40,59647,1,0
240,68,59741,1,0
220,100,59835,1,2
196,132,59928,1,0
172,164,60022,1,0
256,264,60210,6,0,B|216:316,4,47.5,0|0|0|0|2
100,192,60772,1,0
364,216,60960,6,0,B|328:272,4,47.5,0|0|0|0|2
208,148,61522,1,0
328,80,61710,5,4
144,264,61991,1,0
392,312,62272,1,0
288,208,62460,5,4
288,208,62741,1,0
288,208,63022,1,0
160,104,63303,5,0
456,168,63585,1,4
240,352,63866,1,0
328,72,64147,5,0
144,248,64335,1,4
400,320,64522,1,0
288,208,64710,5,2
288,208,64803,1,0
288,208,64897,1,0
288,208,64991,1,0
288,208,65085,1,2
288,208,65178,1,0
288,208,65272,1,0
288,208,65366,1,0
288,208,65460,1,2
288,208,65553,1,0
288,208,65647,1,0
288,208,65741,1,0
288,208,65835,2,0,B|328:256,2,47.5,4|0|0
236,104,66210,6,0,B|188:120|132:104,1,95
40,56,66585,1,0
32,84,66678,1,0
24,112,66772,1,0
16,140,66866,1,0
8,168,66960,2,0,B|80:240,1,95,2|0
24,336,67335,2,0,B|136:336,1,95,8|0
200,256,67710,5,2
216,240,67803,1,0
232,224,67897,1,0
344,240,68085,1,0
360,224,68178,1,0
376,208,68272,1,0
368,104,68460,2,0,B|432:32,2,95,2|0|8
72,72,69210,6,0,B|176:72,1,95,2|0
272,112,69585,1,0
256,144,69678,1,0
248,184,69772,1,0
256,224,69866,1,0
272,256,69960,1,0
280,296,70053,1,0
272,336,70147,1,0
160,304,70335,2,0,B|104:336,1,47.5,8|0
88,344,70522,1,0
72,176,70710,6,0,B|176:136,1,95,2|0
192,232,71085,2,0,B|160:128,1,95
165,139,71460,2,0,B|140:48,2,95,2|0|8
424,64,72210,6,2,B|464:160|424:264,1,190,2|2
429,249,72678,1,0
429,249,72772,1,0
344,208,72960,1,4
288,288,73147,1,0
184,216,73335,1,2
104,312,73522,1,0
40,216,73710,2,0,B|0:176,6,47.5,2|0|0|0|2|0|0
136,152,74460,5,2
376,152,74647,1,0
192,56,74835,1,0
320,56,75022,1,0
252,144,75210,1,2
236,160,75303,1,0
220,176,75397,1,0
204,192,75491,1,0
188,208,75585,1,4
368,160,75960,5,2
352,176,76053,1,0
336,192,76147,1,0
320,208,76241,1,0
304,224,76335,1,4
477,178,76710,6,0,B|448:216,7,47.5,2|0|0|0|8|0|0|0
424,240,77460,1,8
400,240,77553,1,0
376,240,77647,1,0
352,240,77741,1,0
336,240,77835,1,2
320,240,77928,1,0
304,240,78022,1,0
112,80,78210,6,0,B|72:168|112:280,1,190,4|2
144,280,78678,1,0
160,312,78772,2,0,B|216:312|248:368,2,95
160,312,79335,6,0,B|120:364,2,47.5,8|0|0
232,224,79710,2,0,B|344:224,1,95,2|0
424,288,80085,1,0
440,256,80178,1,0
448,220,80272,1,0
440,184,80366,1,0
428,148,80460,2,0,B|388:116|380:68,1,95,2|0
304,128,80835,2,0,B|272:167|224:175,1,95,8|0
172,72,81210,5,0
152,84,81303,1,0
132,96,81397,1,0
112,108,81491,1,0
80,128,81585,2,0,B|152:200|136:312,1,190,2|0
137,302,82053,1,0
137,302,82147,1,0
137,302,82335,2,0,B|232:344,1,95,8|0
376,312,82710,6,0,B|416:216,1,95
392,88,83085,2,0,B|344:184,1,95,2|0
464,200,83460,1,0
256,200,83647,1,0
432,200,83835,1,2
288,200,84022,1,0
360,88,84210,6,2,B|264:112|160:88,1,190,2|2
80,60,84772,1,0
144,192,84960,1,4
88,328,85147,1,0
232,312,85335,1,2
160,272,85522,5,0
160,272,85710,2,2,B|232:200|336:184,1,190,2|2
416,208,86272,1,0
344,296,86460,1,2
312,184,86647,1,0
488,200,86835,1,0
368,368,87022,1,0
352,232,87210,5,2
352,232,87303,1,0
352,232,87397,1,0
352,232,87491,1,0
352,232,87585,1,4
160,232,87960,1,2
160,232,88053,1,0
160,232,88147,1,0
160,232,88241,1,0
160,232,88335,1,4
256,48,88710,5,8
248,72,88803,1,0
248,96,88897,1,0
252,120,88991,1,0
260,144,89085,1,2
268,168,89178,1,0
272,192,89272,1,0
272,216,89366,1,0
268,240,89460,1,2
260,264,89553,1,0
252,288,89647,2,0,B|272:344,4,47.5,0|0|2|0|0
56,204,90210,5,8
104,96,90397,1,0
216,64,90585,1,0
328,96,90772,1,0
360,208,90960,1,0
248,176,91147,1,0
256,288,91335,1,8
368,320,91522,1,0
384,88,91710,5,8
464,168,91897,1,0
448,280,92085,1,0
336,304,92272,1,0
264,216,92460,1,0
288,104,92647,1,0
368,184,92835,1,8
368,184,93022,1,0
392,84,93210,5,8
316,68,93397,1,0
240,80,93585,1,0
108,156,93772,1,8
184,172,93959,1,0
260,160,94147,1,0
260,304,94335,5,8
260,160,94522,1,0
144,80,94710,5,0
360,80,94897,1,0
256,248,95085,1,2
144,320,95272,5,0
144,80,95460,1,2
360,80,95647,1,0
368,320,95835,1,4
256,192,96022,1,0
256,136,96210,6,0,B|200:40,1,95,2|0
256,136,96585,2,0,B|256:32,1,95
256,136,96960,2,0,B|304:40,1,95
256,136,97335,2,0,B|160:104,1,95,2|0
256,136,97710,2,0,B|352:104,1,95,2|0
256,232,98085,21,0
256,136,98272,2,0,B|256:336,2,190
152,184,99210,21,2
256,136,99397,1,0
360,192,99585,1,2
256,348,99772,1,0
256,224,99960,1,8
256,348,100147,1,0
256,224,100335,5,8
256,224,100522,1,0
168,152,100710,5,0
256,80,100897,1,0
344,152,101085,1,2
368,256,101272,5,0
256,352,101460,1,2
144,256,101647,1,0
256,80,101835,5,4
256,288,102022,1,0
260,188,102210,5,2
256,164,102303,5,0
236,172,102397,1,0
232,196,102491,1,0
244,216,102585,1,2
268,216,102678,1,0
284,196,102772,1,0
280,172,102866,1,0
264,152,102960,5,2
232,164,103053,1,0
220,196,103147,1,0
232,228,103241,1,0
264,240,103335,1,2
296,228,103428,1,0
308,196,103522,1,0
300,164,103616,1,0
264,140,103710,5,2
224,156,103803,1,0
208,196,103897,1,0
224,236,103991,1,0
264,252,104085,1,2
304,236,104178,1,0
320,196,104272,1,0
308,156,104366,1,0
264,128,104460,5,2
216,148,104553,1,0
196,196,104647,1,0
216,244,104741,1,0
264,264,104835,1,2
312,244,104928,1,0
332,196,105022,1,0
312,148,105116,1,0
264,192,105210,5,2
264,192,105303,1,0
264,192,105397,1,0
264,192,105491,1,0
264,192,105585,1,2
116,88,105772,5,0
116,136,105866,1,0
116,184,105960,2,0,B|116:252,3,47.5
116,280,106335,5,2
152,268,106428,1,0
188,260,106522,1,0
228,256,106616,1,0
264,264,106710,1,2
300,280,106803,1,0
332,300,106897,1,0
368,312,106991,1,0
404,308,107085,1,2
436,288,107178,1,0
452,256,107272,1,0
452,216,107366,1,0
432,184,107460,1,2
400,164,107553,1,0
364,152,107647,1,0
328,164,107741,1,0
296,188,107835,1,2
264,208,107928,1,0
228,212,108022,1,0
192,204,108116,1,0
160,184,108210,6,0,B|136:132,3,47.5,2|0|0|0
116,112,108585,2,0,B|68:88,3,47.5,2|0|0|0
36,104,108960,2,0,B|0:144,3,47.5,2|0|0|0
12,176,109335,2,0,B|40:236,3,47.5,2|0|0|0
48,256,109710,5,0
172,184,109897,1,0
172,328,110085,1,2
132,256,110272,5,0
152,128,110460,6,0,B|256:152,1,95
288,40,110835,1,2
272,256,111022,2,0,B|368:280,1,95
480,200,111397,2,0,B|387:178,1,95,0|2
288,72,111772,1,0
376,240,111960,6,0,B|272:216,1,95
240,328,112335,1,2
256,112,112522,2,0,B|160:88,1,95
48,168,112897,2,0,B|140:189,1,95,0|2
240,296,113272,1,0
320,176,113460,5,0
448,112,113647,1,0
440,256,113835,1,2
400,184,114022,5,0
304,104,114210,1,0
232,200,114397,1,0
328,272,114585,1,2
316,187,114772,5,0
208,96,114960,2,0,B|144:184,1,95
56,64,115335,1,2
56,208,115522,2,0,B|56:312,1,95
160,176,115897,2,0,B|208:264,1,95,0|2
304,160,116272,1,0
416,280,116460,5,0
416,280,116647,1,0
400,136,116835,2,0,B|328:200,1,95,2|0
216,320,117210,5,4
400,136,117491,1,0
152,88,117772,1,0
256,192,117960,5,4
256,192,118241,1,0
256,192,118522,1,0
384,296,118803,5,0
88,232,119085,1,4
304,48,119366,1,0
216,328,119647,5,0
400,152,119835,1,4
144,80,120022,1,0
256,192,120210,6,0,B|280:240,11,47.5,4|0|0|0|2|0|0|0|2|0|0|0
256,192,121335,2,0,B|232:152,2,47.5,4|0|0
256,48,121710,5,0
120,160,121897,1,0
256,80,122085,1,0
392,160,122272,1,0
256,112,122460,5,0
152,296,122647,1,0
360,296,122835,1,8
256,216,123022,5,0
256,216,123210,1,4
256,192,123585,12,0,125085
