osu file format v5

[General]
AudioFilename: Rozen Maiden - Kinjirareta Asobi (TV Size).mp3
AudioLeadIn: 0
PreviewTime: -1
Countdown: 1
SampleSet: Normal

[Metadata]
Title:Rozen Maiden
Artist:Kinjirareta Asobi
Creator:xikitin
Version:Easy

[Difficulty]
HPDrainRate:2
CircleSize:4
OverallDifficulty:3
SliderMultiplier:1
SliderTickRate:4

[Events]
//Background and Video events
0,0,"rozen-maiden.jpg"
//Break Periods
2,21199,27310
2,78700,80810
//Storyboard Layer 0 (Background)
//Storyboard Layer 1 (Failing)
//Storyboard Layer 2 (Passing)
//Storyboard Layer 3 (Foreground)
//Storyboard Sound Samples
//Background Colour Transformations
3,100,163,162,255

[TimingPoints]
1000,1000,4,1,0,100

[HitObjects]
224,96,5000,2,0,B|288:96,3,50
320,192,7000,2,0,B|384:192,3,50
192,192,9000,2,0,B|128:192,3,50
192,288,11000,5,2
256,352,11500,1,2
320,288,12000,1,2
256,224,12500,1,6
192,128,13000,6,0,B|192:192,3,50
320,176,15000,2,0,B|320:112,3,50
192,128,17000,1,4
192,224,18000,1,4
288,224,19000,2,4,B|160:384|128:288,1,200
96,128,28750,6,0,B|352:128,1,250
416,192,32750,6,0,B|192:192,1,200
256,128,36750,5,2
192,192,37250,1,2
256,224,37750,1,2
320,192,38250,1,2
448,160,39000,6,0,B|320:96,1,125
256,96,41000,5,0
256,160,41500,1,0
256,160,41750,1,0
256,224,42500,1,0
256,224,42750,1,0
192,256,43500,5,0
192,256,43750,1,2
192,256,44000,1,0
320,256,44500,1,2
320,256,44750,1,0
384,160,45750,6,0,B|224:160,1,150
160,160,48250,6,2,B|128:160,2,25
32,128,49750,6,0,B|176:64,1,150
256,64,52500,5,0
128,256,53500,1,0
384,256,54500,1,0
256,288,56500,1,0
128,96,57500,1,0
384,96,58500,1,0
256,96,60000,1,0
256,96,60500,1,0
256,96,61000,1,0
256,96,61500,1,2
192,96,62500,6,0,B|192:160,3,50
128,224,64500,2,0,B|128:160,3,50
224,288,66500,2,0,B|288:288,3,50
256,224,68500,1,2
192,160,69000,1,2
256,96,69500,1,2
320,160,70000,1,2
320,240,70500,6,0,B|384:240,3,50
384,144,72500,2,0,B|384:80,3,50
256,96,74500,1,4
256,256,75500,1,4
144,160,76500,2,4,B|368:160,1,200
96,160,82250,6,0,B|256:160,1,150
256,224,84250,2,0,B|416:224,1,150
256,192,86500,12,0,88750
