osu file format v14

[General]
AudioFilename: Kiniro Mosaic - Desu! Desu!.mp3
AudioLeadIn: 0
PreviewTime: -1
Countdown: 1
SampleSet: None
StackLeniency: 0.7
Mode: 0
LetterboxInBreaks: 1
WidescreenStoryboard: 0

[Editor]
Bookmarks: 8183,22131,25155
DistanceSpacing: 1.2
BeatDivisor: 4
GridSize: 32
TimelineZoom: 1.5

[Metadata]
Title:Desu! Desu!
TitleUnicode:Desu! Desu!
Artist:Kiniro Mosaic
ArtistUnicode:Kiniro Mosaic
Creator:MrMajusnyPl
Version:Desu?
Source:Kin-iro Mosaic
Tags:Kin-iro Mosaic DESU desu! desu de de
BeatmapID:669910
BeatmapSetID:298494

[Difficulty]
HPDrainRate:6
CircleSize:4
OverallDifficulty:6
ApproachRate:10
SliderMultiplier:1.4
SliderTickRate:1

[Events]
//Background and Video events
0,0,"desu!.jpg",0,0
//Break Periods
//Storyboard Layer 0 (Background)
//Storyboard Layer 1 (Fail)
//Storyboard Layer 2 (Pass)
//Storyboard Layer 3 (Foreground)
//Storyboard Sound Samples

[TimingPoints]
2392,526.325023246022,4,1,0,70,1,0

[HitObjects]
32,224,2392,6,0,P|100:172|96:124,1,140
480,224,3444,6,0,P|412:172|416:124,1,140
352,288,4497,6,0,P|256:192|352:96,1,280
160,288,6602,6,0,P|256:192|160:96,1,280
64,64,8181,6,8,P|160:96|192:64,1,140
480,64,9234,6,8,P|384:96|352:64,1,140
256,288,10286,6,2,L|256:128,1,140,0|0,0:0|0:0,0:0:0:0:
32,192,11076,6,0,P|64:224|96:192,1,70
480,192,11602,6,0,P|448:224|416:192,1,70
288,64,12129,6,0,P|256:32|224:64,1,70
224,320,12655,6,0,P|256:288|288:320,1,70
32,32,13181,6,0,L|96:96,1,70
448,320,13707,6,0,L|384:256,1,70
192,192,14234,6,0,P|224:160|256:192,1,70
256,224,14629,5,0,0:0:0:0:
192,256,14760,5,0,0:0:0:0:
128,224,14892,5,0,0:0:0:0:
64,320,15286,6,0,P|96:320|128:288,1,70
448,320,15813,6,0,P|416:320|384:288,1,70
64,64,16339,6,0,P|96:64|128:96,1,70
448,64,16865,6,0,P|416:64|384:96,1,70
256,32,17392,6,0,L|256:128,1,70
256,352,17918,6,0,L|256:256,1,70
256,224,18313,5,0,0:0:0:0:
256,192,18444,5,0,0:0:0:0:
256,160,18576,5,0,0:0:0:0:
256,128,18708,5,0,0:0:0:0:
32,192,18971,6,0,L|128:192,1,70
480,192,19497,6,0,L|384:192,1,70
256,32,20023,6,0,L|256:128,1,70
256,352,20550,6,0,L|256:256,1,70
32,352,21076,6,0,L|96:288,1,70
480,32,21602,6,0,L|416:96,1,70
480,352,22129,6,0,L|416:288,1,70
32,32,22655,5,0,0:0:0:0:
64,64,22787,5,0,0:0:0:0:
96,96,22918,6,0,L|160:160|160:160,1,70
256,192,23445,5,0,0:0:0:0:
256,320,23708,6,0,L|256:224,1,70
256,64,24234,6,0,L|256:160,1,70
384,192,24760,6,0,L|288:192,1,70
128,192,25287,6,0,L|224:192,1,70
128,64,25681,6,0,L|160:96,1,35
384,64,25945,6,0,L|352:96,1,35
128,320,26208,6,0,L|160:288,1,35
384,320,26471,6,0,L|352:288,1,35
256,64,26734,6,0,L|256:128,1,35
256,320,26997,6,0,L|256:256,1,35
256,192,27260,6,0,L|256:128,1,35
256,256,27655,5,0,0:0:0:0:
192,128,27918,5,0,0:0:0:0:
320,128,28050,5,0,0:0:0:0:
96,64,28181,6,0,L|160:64,2,35
416,64,28576,6,0,L|352:64,2,35
256,64,28971,5,0,0:0:0:0:
256,320,29234,6,0,L|256:256,2,35
192,224,29629,6,0,P|256:192|352:224,1,175
256,64,30813,6,0,L|256:160,2,70
256,320,31866,6,0,L|256:224,1,70
160,224,32392,5,0,0:0:0:0:
256,192,32524,5,0,0:0:0:0:
352,224,32655,5,0,0:0:0:0:
256,64,32918,6,0,L|256:128,3,35
256,320,33576,6,0,L|256:256,3,35
256,224,34103,5,0,0:0:0:0:
256,160,34234,6,0,L|256:96,2,35
256,32,34760,6,0,L|256:96,1,35
128,128,35024,6,0,P|160:96|192:128,1,70
384,128,35550,6,0,P|352:96|320:128,1,70
256,160,36076,6,0,L|256:256,2,70
256,128,36734,5,0,0:0:0:0:
256,256,36866,6,0,L|256:320,1,35
224,64,37129,6,0,L|288:64,1,70
256,192,37655,5,0,0:0:0:0:
256,256,37918,6,0,L|256:320,2,35
256,192,38445,5,0,0:0:0:0:
64,192,38708,6,0,L|160:192,1,70
448,192,39234,6,0,L|352:192,1,70
448,128,39629,5,0,0:0:0:0:
448,256,39892,5,0,0:0:0:0:
256,32,40024,6,0,L|256:96,2,35
32,192,40550,6,0,L|96:192,2,35
256,352,41076,6,0,L|256:288,2,35
448,192,41603,6,0,L|384:192,1,35
256,64,41866,6,0,L|256:128,1,35
64,192,42129,6,0,L|128:192,1,35
256,128,42392,6,0,L|256:224,1,70
256,256,42787,5,0,0:0:0:0:
256,320,42919,5,0,0:0:0:0:
256,192,43182,5,0,0:0:0:0:
416,192,43313,6,0,L|352:192,1,35
96,192,43576,6,0,L|160:192,1,35
256,64,43840,6,0,L|256:128,2,35
256,192,44234,6,0,P|288:160|320:192,1,70
32,192,44761,6,0,P|64:224|96:192,1,70
480,192,45287,6,0,P|448:224|416:192,1,70
288,64,45814,6,0,P|256:32|224:64,1,70
224,320,46340,6,0,P|256:288|288:320,1,70
32,32,46866,6,0,L|96:96,1,70
448,320,47392,6,0,L|384:256,1,70
192,192,47919,6,0,P|224:160|256:192,1,70
256,224,48314,5,0,0:0:0:0:
320,160,48445,5,0,0:0:0:0:
256,96,48577,5,0,0:0:0:0:
64,320,48971,6,0,P|96:320|128:288,1,70
448,320,49498,6,0,P|416:320|384:288,1,70
64,64,50024,6,0,P|96:64|128:96,1,70
448,64,50550,6,0,P|416:64|384:96,1,70
256,32,51077,6,0,L|256:128,1,70
256,352,51603,6,0,L|256:256,1,70
256,224,51998,5,0,0:0:0:0:
256,192,52129,5,0,0:0:0:0:
256,160,52261,5,0,0:0:0:0:
256,128,52393,5,0,0:0:0:0:
32,192,52656,6,0,L|128:192,1,70
480,192,53182,6,0,L|384:192,1,70
256,32,53708,6,0,L|256:128,1,70
256,352,54235,6,0,L|256:256,1,70
32,352,54761,6,0,L|96:288,1,70
480,32,55287,6,0,L|416:96,1,70
480,352,55814,6,0,L|416:288,1,70
32,32,56340,5,0,0:0:0:0:
64,64,56472,5,0,0:0:0:0:
96,96,56603,6,0,L|160:160|160:160,1,70
256,192,57130,5,0,0:0:0:0:
256,320,57393,6,0,L|256:224,1,70
256,64,57919,6,0,L|256:160,1,70
384,192,58445,6,0,L|288:192,1,70
128,192,58972,6,0,L|224:192,1,70
128,64,59366,6,0,L|160:96,1,35
384,64,59630,6,0,L|352:96,1,35
128,320,59893,6,0,L|160:288,1,35
384,320,60156,6,0,L|352:288,1,35
256,64,60419,6,0,L|256:128,1,35
256,320,60682,6,0,L|256:256,1,35
256,192,60945,6,0,L|256:128,1,35
256,256,61340,5,0,0:0:0:0:
192,128,61603,5,0,0:0:0:0:
320,128,61735,5,0,0:0:0:0:
96,64,61866,6,0,L|160:64,2,35
416,64,62261,6,0,L|352:64,2,35
256,64,62656,5,0,0:0:0:0:
256,320,62919,6,0,L|256:256,2,35
192,224,63314,6,0,P|256:192|352:224,1,175
256,64,64498,6,0,L|256:160,2,70
256,320,65551,6,0,L|256:224,1,70
160,224,66077,5,0,0:0:0:0:
256,192,66209,5,0,0:0:0:0:
352,224,66340,5,0,0:0:0:0:
256,64,66603,6,0,L|256:128,3,35
256,320,67261,6,0,L|256:256,3,35
256,224,67788,5,0,0:0:0:0:
256,160,67919,6,0,L|256:96,2,35
256,32,68445,6,0,L|256:96,1,35
256,224,68709,6,0,L|256:192|256:128,1,70
256,192,69103,12,0,69761,0:0:0:0:
