osu file format v3

[General]
AudioFilename: Boom Boom Dollar.mp3
AudioLeadIn: 0
AudioHash: 34bbf582d4f1dab63a6d88fad3d23e83
PreviewTime: -1
SampleSet: Normal

[Metadata]
Title:BOOM BOOM DOLLAR
Artist:King Kong & D. Jungle Girls
Creator:Bonesnake
Version:Easy

[Difficulty]
HPDrainRate:3
CircleSize:5
OverallDifficulty:5
SliderMultiplier: 1.5
SliderTickRate: 2

[Events]
0,0,"Dollar.jpg"
3,0,163,162,255

[TimingPoints]
456,444.082599363482

[HitObjects]
192,160,4008,1,0,
320,160,4896,1,0,
320,256,5784,5,0,
192,256,6673,1,0,
160,128,7783,5,0,
160,224,8449,2,2,B|160:224|352:224,1,165
320,128,9559,5,0,
320,224,10225,2,2,B|320:224|160:224,1,150
256,224,11336,5,0,
256,128,12890,5,0,
256,192,13334,1,0,
256,256,13778,1,0,
256,320,14222,1,0,
256,160,15110,5,0,
256,32,16220,6,2,B|256:32|192:32|128:160|128:224,1,220
128,320,17775,1,0,
256,320,18663,5,0,
256,320,19551,1,0,
352,320,20439,5,0,
352,320,20883,1,0,
352,320,21327,1,0,
256,160,22216,5,0,
256,32,23326,6,2,B|256:32|320:32|384:160|384:224,1,220
384,320,24881,1,0,
256,320,25769,5,0,
256,320,26657,1,0,
160,320,27545,5,0,
160,320,27989,1,0,
160,320,28433,1,0,
192,224,29321,5,0,
320,224,30209,1,0,
320,128,31097,1,0,
192,128,31985,1,0,
96,224,32874,2,0,B|96:224|416:224,1,300
256,128,34650,1,0,
192,32,35982,5,0,
320,32,36870,1,0,
320,128,37758,1,0,
192,128,38647,1,0,
256,192,39535,5,0,
256,192,39979,1,0,
448,192,41311,5,0,
448,256,41755,1,0,
384,224,42199,1,0,
256,192,43087,5,0,
256,192,43532,1,0,
256,192,43976,1,0,
256,192,44420,1,0,
160,128,45308,5,0,
192,64,45752,1,0,
256,64,46196,1,0,
256,192,47084,5,0,
256,192,47528,1,0,
256,192,47972,1,0,
352,160,48861,5,0,
320,96,49305,1,0,
256,96,49749,1,0,
256,192,50637,5,0,
256,192,51081,1,0,
256,192,51525,1,0,
224,64,52413,5,0,
288,64,52857,1,0,
256,192,53745,12,0,56854
256,32,57742,1,0,
256,160,58630,1,0,
256,224,59074,5,0,
256,352,59963,1,0,
256,192,60851,5,0,
256,192,61739,1,0,
96,96,62627,6,2,B|96:96|416:96,1,300
256,192,64403,5,0,
256,192,64847,1,0,
256,192,65292,1,0,
96,288,66180,6,2,B|96:288|416:288,1,300
128,256,67956,6,0,B|128:256|165:313|258:324|311:317|286:279|416:256|314:216|416:192|292:196|333:207|69:210|26:178|206:191|79:160|75:57|300:21|352:160,1,750
192,64,71509,5,0,
320,64,72397,1,0,
320,160,73285,5,0,
192,160,74173,1,0,
256,224,74617,5,0,
