osu file format v6

[General]
AudioFilename: PENETRATION.mp3
AudioLeadIn: 0
PreviewTime: -1
Countdown: 0
SampleSet: Soft
StackLeniency: 0.7
Mode: 1
LetterboxInBreaks: 1

[Editor]
DistanceSpacing: 0.800000011920929
BeatDivisor: 1
GridSize: 8

[Metadata]
Title:PENETRATION
Artist:Kinato
Creator:2116zzang
Version:Taiko Insane
Source:
Tags:

[Difficulty]
HPDrainRate:5
CircleSize:5
OverallDifficulty:5
SliderMultiplier:1.4
SliderTickRate:1

[Events]
//Background and Video events
//Break Periods
2,4511,5484
2,9935,10908
//Storyboard Layer 0 (Background)
//Storyboard Layer 1 (Fail)
//Storyboard Layer 2 (Pass)
//Storyboard Layer 3 (Foreground)
//Storyboard Sound Samples
//Background Colour Transformations
3,100,163,162,255

[TimingPoints]
1600,338.983050847458,4,2,0,100,1,0

[HitObjects]
256,192,4311,1,4
256,192,6684,5,8
256,192,8549,1,8
256,192,8633,1,8
256,192,8718,1,8
256,192,8888,1,8
256,192,8972,1,8
256,192,9142,1,8
256,192,9227,1,8
256,192,9396,1,0
256,192,9481,1,8
256,192,9566,1,0
256,192,9650,1,8
256,192,9735,1,4
256,192,12108,5,8
256,192,13972,1,8
256,192,14057,1,8
256,192,14142,1,8
256,192,14311,1,8
256,192,14396,1,8
256,192,14566,1,8
256,192,14650,1,8
256,192,14820,1,8
256,192,14905,1,8
256,192,14989,1,0
256,192,15074,1,8
256,192,15159,1,4
256,192,17532,1,8
256,192,17871,1,0
256,192,18040,1,4
256,192,18379,1,0
256,192,18549,1,4
256,192,18888,1,0
256,192,19057,1,4
256,192,19396,1,0
256,192,19566,1,4
256,192,19905,1,4
256,192,20244,1,4
256,192,20583,1,4
256,192,21938,1,4
256,192,22616,1,4
256,192,22786,1,8
256,192,22955,1,0
256,192,23294,1,8
256,192,23803,1,8
256,192,24311,1,0
256,192,24481,1,0
256,192,24650,1,8
256,192,25159,1,8
256,192,25667,1,8
256,192,26006,1,8
256,192,26515,1,8
256,192,27023,1,0
256,192,27193,1,0
256,192,27532,1,0
256,192,27616,1,8
256,192,27701,1,0
256,192,27871,1,8
256,192,28040,1,8
256,192,28210,1,0
256,192,28379,1,8
256,192,28464,1,0
256,192,28549,1,8
256,192,28633,1,0
256,192,28718,1,8
256,192,29227,1,8
256,192,29735,1,0
256,192,29905,1,0
256,192,30074,1,8
256,192,30583,1,8
256,192,31091,1,8
256,192,31430,1,8
256,192,31939,1,8
256,192,32447,1,0
256,192,32617,1,0
256,192,32786,1,0
256,192,32955,1,8
256,192,33040,1,0
256,192,33125,1,8
256,192,33294,1,0
256,192,33464,1,8
256,192,33633,1,0
256,192,33803,1,8
256,192,33888,1,0
256,192,33972,1,0
256,192,34057,1,0
256,192,34142,1,0
256,192,34311,1,8
256,192,34481,1,0
256,192,34650,1,8
256,192,34820,1,0
256,192,34989,1,8
256,192,35159,1,0
256,192,35328,1,8
256,192,35498,1,0
256,192,35667,1,8
256,192,35837,1,0
256,192,36006,1,8
256,192,36176,1,0
256,192,36261,1,8
256,192,36345,1,8
256,192,36515,1,0
256,192,36600,1,8
256,192,36769,1,8
256,192,36854,1,0
256,192,37023,1,8
256,192,37193,1,0
256,192,37362,1,8
256,192,37532,1,0
256,192,37701,1,8
256,192,37871,1,0
256,192,38040,1,8
256,192,38210,1,0
256,192,38379,1,8
256,192,38549,1,0
256,192,38718,1,8
256,192,38888,1,0
256,192,38972,1,8
256,192,39227,1,0
256,192,39396,1,8
256,192,39481,1,0
256,192,39566,1,0
256,192,39735,1,8
256,192,39905,1,0
256,192,40074,1,8
256,192,40244,1,0
256,192,40413,1,8
256,192,40583,1,0
256,192,40752,1,8
256,192,40922,1,0
256,192,41091,1,8
256,192,41261,1,0
256,192,41430,1,8
256,192,41600,1,0
256,192,41685,1,8
256,192,41769,1,8
256,192,41938,1,0
256,192,42023,1,8
256,192,42193,1,8
256,192,42277,1,0
256,192,42447,1,8
256,192,42616,1,0
256,192,42786,1,8
256,192,42955,1,0
256,192,43125,1,8
256,192,43294,1,0
256,192,43464,1,8
256,192,43549,1,0
256,192,43633,1,0
256,192,43803,1,8
256,192,43888,1,0
256,192,43972,1,0
256,192,44142,1,0
256,192,44311,1,0
256,192,44481,1,8
256,192,44650,1,4
256,192,45159,1,8
256,192,45328,1,0
256,192,45498,1,0
256,192,45667,1,8
256,192,45837,1,0
256,192,46006,1,0
256,192,46176,1,8
256,192,46345,1,0
256,192,46515,1,0
256,192,46684,1,8
256,192,46854,1,0
256,192,47023,1,0
256,192,47193,1,8
256,192,47362,1,0
256,192,47532,1,0
256,192,47871,1,8
256,192,48040,1,0
256,192,48210,1,0
256,192,48379,1,8
256,192,48549,1,0
256,192,48718,1,0
256,192,48888,1,8
256,192,49057,1,0
256,192,49227,1,0
256,192,49396,1,8
256,192,49566,1,0
256,192,49735,1,0
256,192,49905,1,8
256,192,50074,1,0
256,192,50244,1,0
256,192,50583,1,8
256,192,50752,1,0
256,192,50922,1,0
256,192,51091,1,8
256,192,51261,1,0
256,192,51430,1,0
256,192,51600,1,8
256,192,51769,1,0
256,192,51938,1,0
256,192,52108,1,8
256,192,52277,1,0
256,192,52447,1,0
256,192,52616,1,8
256,192,52786,1,0
256,192,52955,1,0
256,192,53294,1,0
256,192,53464,1,8
256,192,53633,1,0
256,192,53803,1,0
256,192,53972,1,0
256,192,54142,1,8
256,192,54311,1,0
256,192,54481,1,0
256,192,54650,1,0
256,192,54820,1,8
256,192,54989,1,0
256,192,55159,1,0
256,192,55328,1,0
256,192,55498,1,8
256,192,55583,1,0
256,192,55667,1,0
256,192,55752,1,0
256,192,55837,1,4
256,192,55922,1,8
256,192,56091,1,0
256,192,56176,1,8
256,192,56345,1,0
256,192,56430,1,8
256,192,56600,1,0
256,192,56684,1,8
256,192,56854,1,0
256,192,56938,1,8
256,192,57108,1,0
256,192,57193,1,0
256,192,57277,1,8
256,192,57447,1,0
256,192,57532,1,8
256,192,57701,1,0
256,192,57786,1,8
256,192,57955,1,0
256,192,58040,1,8
256,192,58210,1,0
256,192,58294,1,8
256,192,58379,1,0
256,192,58464,1,0
256,192,58549,1,0
256,192,58633,1,8
256,192,58803,1,0
256,192,58888,1,8
256,192,59057,1,0
256,192,59142,1,8
256,192,59311,1,0
256,192,59396,1,8
256,192,59566,1,0
256,192,59650,1,8
256,192,59820,1,0
256,192,59905,1,0
256,192,59989,1,8
256,192,60159,1,0
256,192,60244,1,8
256,192,60413,1,0
256,192,60498,1,8
256,192,60667,1,0
256,192,60752,1,8
256,192,60837,1,0
256,192,61006,1,0
256,192,61176,1,0
256,192,61261,1,0
256,192,61345,1,8
256,192,61515,1,0
256,192,61600,1,8
256,192,61769,1,0
256,192,61854,1,8
256,192,62023,1,0
256,192,62108,1,8
256,192,62277,1,0
256,192,62362,1,8
256,192,62532,1,0
256,192,62616,1,0
256,192,62701,1,8
256,192,62871,1,0
256,192,62955,1,8
256,192,63040,1,0
256,192,63210,1,8
256,192,63294,1,0
256,192,63464,1,8
256,192,63633,1,0
256,192,63718,1,8
256,192,63888,1,8
256,192,63972,1,0
256,192,64057,1,8
256,192,64227,1,0
256,192,64311,1,8
256,192,64481,1,0
256,192,64566,1,8
256,192,64735,1,0
256,192,64820,1,8
256,192,64989,1,0
256,192,65074,1,8
256,192,65244,1,8
256,192,65328,1,0
256,192,65413,1,8
256,192,65583,1,0
256,192,65667,1,8
256,192,65837,1,0
256,192,65922,1,8
256,192,66091,1,0
256,192,66176,1,8
256,192,66345,1,8
256,192,66430,1,0
256,192,66600,1,0
256,192,67023,1,0
256,192,67362,1,8
256,192,67701,1,0
256,192,68040,1,0
256,192,68210,1,8
256,192,68549,1,8
256,192,69735,1,0
256,192,70074,1,8
256,192,70413,1,0
256,192,70752,1,0
256,192,70922,1,8
256,192,71261,1,8
256,192,71600,1,0
256,192,71769,1,8
256,192,71938,1,8
256,192,72447,1,0
256,192,72786,1,8
256,192,73125,1,0
256,192,73464,1,0
256,192,73803,1,8
256,192,74142,1,0
256,192,74311,1,8
256,192,74650,1,8
256,192,74820,1,0
256,192,75159,1,8
256,192,75667,1,8
256,192,76176,1,8
256,192,76515,1,0
256,192,76854,1,8
256,192,77023,1,0
256,192,77193,1,0
256,192,77362,1,8
256,192,77871,1,0
256,192,78210,1,8
256,192,78549,1,0
256,192,78888,1,0
256,192,79058,1,8
256,192,79397,1,8
256,192,80583,1,0
256,192,80922,1,8
256,192,81261,1,0
256,192,81600,1,0
256,192,81770,1,8
256,192,82109,1,8
256,192,82448,1,0
256,192,82617,1,8
256,192,82786,1,8
256,192,83295,1,0
256,192,83634,1,8
256,192,83973,1,0
256,192,84312,1,0
256,192,84651,1,8
256,192,84990,1,0
256,192,85159,1,8
256,192,85498,1,8
256,192,85668,1,0
256,192,86007,1,8
256,192,86176,1,8
256,192,86515,1,8
256,192,87024,1,8
256,192,87363,1,0
256,192,87702,1,8
256,192,87871,1,0
256,192,88041,1,0
256,192,88210,1,8
256,192,88379,1,4
256,192,88464,1,8
256,192,88633,1,0
256,192,88718,1,8
256,192,88887,1,0
256,192,88972,1,8
256,192,89142,1,0
256,192,89226,1,8
256,192,89396,1,0
256,192,89480,1,8
256,192,89650,1,0
256,192,89735,1,0
256,192,89819,1,8
256,192,89989,1,0
256,192,90074,1,8
256,192,90243,1,0
256,192,90328,1,8
256,192,90497,1,0
256,192,90582,1,8
256,192,90752,1,0
256,192,90836,1,8
256,192,90921,1,0
256,192,91006,1,0
256,192,91091,1,0
256,192,91175,1,8
256,192,91345,1,0
256,192,91430,1,8
256,192,91599,1,0
256,192,91684,1,8
256,192,91853,1,0
256,192,91938,1,8
256,192,92108,1,0
256,192,92192,1,8
256,192,92362,1,0
256,192,92447,1,0
256,192,92531,1,8
256,192,92701,1,0
256,192,92786,1,8
256,192,92955,1,0
256,192,93040,1,8
256,192,93209,1,0
256,192,93294,1,8
256,192,93379,1,0
256,192,93548,1,0
256,192,93718,1,0
256,192,93803,1,0
256,192,93887,1,8
256,192,94057,1,0
256,192,94142,1,8
256,192,94311,1,0
256,192,94396,1,8
256,192,94565,1,0
256,192,94650,1,8
256,192,94819,1,0
256,192,94904,1,8
256,192,95074,1,0
256,192,95158,1,0
256,192,95243,1,8
256,192,95413,1,0
256,192,95497,1,8
256,192,95582,1,0
256,192,95752,1,8
256,192,95836,1,0
256,192,96006,1,8
256,192,96175,1,0
256,192,96260,1,8
256,192,96430,1,8
256,192,96514,1,0
256,192,96599,1,8
256,192,96769,1,0
256,192,96853,1,8
256,192,97023,1,0
256,192,97108,1,8
256,192,97277,1,0
256,192,97362,1,8
256,192,97531,1,0
256,192,97616,1,8
256,192,97786,1,8
256,192,97870,1,0
256,192,97955,1,8
256,192,98125,1,0
256,192,98209,1,8
256,192,98379,1,0
256,192,98464,1,8
256,192,98633,1,0
256,192,98718,1,8
256,192,98887,1,8
256,192,98972,1,0
256,192,99142,1,0
256,192,99227,1,4
256,192,99312,1,8
256,192,99481,1,0
256,192,99566,1,8
256,192,99735,1,0
256,192,99820,1,8
256,192,99905,1,8
256,192,99990,1,0
256,192,100074,1,8
256,192,100244,1,0
256,192,100328,1,8
256,192,100498,1,0
256,192,100583,1,0
256,192,100667,1,8
256,192,100752,1,8
256,192,100837,1,0
256,192,100922,1,8
256,192,101091,1,0
256,192,101176,1,8
256,192,101345,1,0
256,192,101430,1,8
256,192,101600,1,0
256,192,101684,1,8
256,192,101769,1,0
256,192,101854,1,0
256,192,101939,1,0
256,192,102023,1,8
256,192,102193,1,0
256,192,102278,1,8
256,192,102447,1,0
256,192,102532,1,8
256,192,102616,1,8
256,192,102701,1,0
256,192,102786,1,8
256,192,102956,1,0
256,192,103040,1,8
256,192,103210,1,0
256,192,103295,1,0
256,192,103379,1,8
256,192,103464,1,8
256,192,103549,1,0
256,192,103634,1,8
256,192,103803,1,0
256,192,103888,1,8
256,192,104057,1,0
256,192,104142,1,8
256,192,104227,1,0
256,192,104311,1,8
256,192,104396,1,0
256,192,104481,1,8
256,192,104566,1,0
256,192,104651,1,0
256,192,104735,1,8
256,192,104905,1,0
256,192,104990,1,8
256,192,105159,1,0
256,192,105244,1,8
256,192,105328,1,8
256,192,105413,1,0
256,192,105498,1,8
256,192,105667,1,0
256,192,105752,1,8
256,192,105922,1,0
256,192,106006,1,0
256,192,106091,1,8
256,192,106261,1,0
256,192,106345,1,8
256,192,106430,1,0
256,192,106600,1,8
256,192,106684,1,0
256,192,106854,1,8
256,192,107023,1,0
256,192,107108,1,8
256,192,107193,1,8
256,192,107278,1,8
256,192,107362,1,0
256,192,107447,1,8
256,192,107617,1,0
256,192,107701,1,8
256,192,107871,1,0
256,192,107956,1,8
256,192,108125,1,0
256,192,108210,1,8
256,192,108379,1,0
256,192,108464,1,8
256,192,108634,1,8
256,192,108718,1,0
256,192,108803,1,8
256,192,108973,1,0
256,192,109057,1,8
256,192,109227,1,0
256,192,109312,1,8
256,192,109396,1,0
256,192,109481,1,0
256,192,109566,1,8
256,192,109735,1,8
256,192,109820,1,0
256,192,109905,1,0
256,192,109990,1,0
256,192,110413,1,12
256,192,110498,1,8
256,192,110667,1,0
256,192,110752,1,8
256,192,110837,1,0
256,192,110922,1,0
256,192,111091,1,8
256,192,111261,1,0
256,192,111430,1,8
256,192,111515,1,0
256,192,111768,1,8
256,192,111853,1,0
256,192,112022,1,8
256,192,112107,1,0
256,192,112192,1,8
256,192,112277,1,0
256,192,112447,1,8
256,192,112616,1,8
256,192,112701,1,0
256,192,112786,1,0
256,192,112871,1,8
256,192,112955,1,0
256,192,113125,1,8
256,192,113294,1,0
256,192,113464,1,8
256,192,113549,1,0
256,192,113718,1,0
256,192,113803,1,8
256,192,113972,1,8
256,192,114057,1,0
256,192,114142,1,0
256,192,114227,1,0
256,192,114311,1,0
256,192,114481,1,8
256,192,114566,1,0
256,192,114650,1,0
256,192,114820,1,8
256,192,114905,1,0
256,192,115074,1,0
256,192,115159,1,8
256,192,115328,1,8
256,192,115413,1,0
256,192,115498,1,8
256,192,115583,1,0
256,192,115667,1,0
256,192,115837,1,8
256,192,115922,1,0
256,192,116091,1,8
256,192,116176,1,0
256,192,116261,1,8
256,192,116345,1,0
256,192,116515,1,8
256,192,116684,1,0
256,192,116854,1,8
256,192,116938,1,0
256,192,117193,1,8
256,192,117278,1,0
256,192,117447,1,8
256,192,117532,1,0
256,192,117617,1,8
256,192,117701,1,0
256,192,117871,1,8
256,192,118040,1,8
256,192,118125,1,0
256,192,118210,1,0
256,192,118294,1,8
256,192,118379,1,0
256,192,118549,1,8
256,192,118718,1,0
256,192,118888,1,8
256,192,118972,1,0
256,192,119142,1,8
256,192,119227,1,0
256,192,119396,1,8
256,192,119481,1,0
256,192,119566,1,0
256,192,119650,1,8
256,192,119735,1,0
256,192,119905,1,8
256,192,119989,1,0
256,192,120074,1,0
256,192,120244,1,8
256,192,120328,1,0
256,192,120413,1,0
256,192,120498,1,8
256,192,120583,1,0
256,192,120667,1,0
256,192,120752,1,8
256,192,120837,1,0
256,192,120922,1,0
256,192,121091,1,8
256,192,121261,1,0
256,192,121430,1,8
256,192,121600,1,0
256,192,121769,1,8
256,192,121938,1,0
256,192,122108,1,8
256,192,122277,1,0
256,192,122447,1,8
256,192,122616,1,0
256,192,122786,1,8
256,192,122955,1,0
256,192,123125,1,8
256,192,123294,1,0
256,192,123464,1,8
256,192,123633,1,0
256,192,123803,1,8
256,192,123972,1,0
256,192,124142,1,8
256,192,124311,1,0
256,192,124481,1,8
256,192,124649,1,0
256,192,124820,1,8
256,192,124988,1,0
256,192,125159,1,8
256,192,125328,1,0
256,192,125498,1,8
256,192,125667,1,0
256,192,125753,1,8
256,192,126007,1,0
256,192,126177,1,8
256,192,126262,1,0
256,192,126345,1,0
256,192,126515,1,8
256,192,126684,1,0
256,192,126854,1,8
256,192,127023,1,0
256,192,127193,1,8
256,192,127361,1,0
256,192,127532,1,8
256,192,127700,1,0
256,192,127871,1,8
256,192,128039,1,0
256,192,128210,1,8
256,192,128378,1,0
256,192,128549,1,8
256,192,128717,1,0
256,192,128888,1,8
256,192,129057,1,0
256,192,129227,1,8
256,192,129396,1,0
256,192,129566,1,8
256,192,129735,1,0
256,192,129905,1,8
256,192,130074,1,0
256,192,130244,1,0
256,192,130413,1,0
256,192,130752,1,0
256,192,130922,1,0
256,192,131091,1,0
256,192,131261,1,0
256,192,131430,1,0
256,192,131515,1,0
256,192,131600,1,0
256,192,131684,1,0
256,192,131769,1,4
