osu file format v14

[General]
AudioFilename: PV.mp3
AudioLeadIn: 0
PreviewTime: 23958
Countdown: 0
SampleSet: Normal
StackLeniency: 0.7
Mode: 1
LetterboxInBreaks: 0
WidescreenStoryboard: 0

[Editor]
Bookmarks: 78563
DistanceSpacing: 0.8
BeatDivisor: 4
GridSize: 32
TimelineZoom: 2.7

[Metadata]
Title:Kouon Katsuzetsu-chuu Oniki Hayakuchi Test
TitleUnicode:Kouon Katsuzetsu-chuu Oniki Hayakuchi Test
Artist:KimuraYP
ArtistUnicode:KimuraYP
Creator:JessiChan
Version:Oni
Source:NicoNico Douga
Tags:木村わいp hatsune miku shelfall vocaloid nico douga
BeatmapID:1087007
BeatmapSetID:511332

[Difficulty]
HPDrainRate:5
CircleSize:4
OverallDifficulty:5
ApproachRate:7
SliderMultiplier:1.4
SliderTickRate:1

[Events]
//Background and Video events
0,0,"i6JBUhy.png",0,0
//Break Periods
//Storyboard Layer 0 (Background)
//Storyboard Layer 1 (Fail)
//Storyboard Layer 2 (Pass)
//Storyboard Layer 3 (Foreground)
//Storyboard Sound Samples

[TimingPoints]
375,375,4,1,0,80,1,0
15375,-100,4,1,0,80,0,1
23625,333.333333333333,4,1,0,80,1,8
24291,333.333333333333,4,1,0,80,1,0
34958,-100,4,1,0,80,0,1
42291,300,4,1,0,80,1,8
42891,300,4,1,0,80,1,0
52191,-100,4,1,0,80,0,1
59091,272.727272727273,4,1,0,80,1,8
59636,272.727272727273,4,1,0,80,1,0
68363,-100,4,1,0,80,0,1
74363,240,4,1,0,80,1,8
74843,240,4,1,0,80,1,1
80243,-100,4,1,0,80,0,0

[HitObjects]
256,192,375,5,8,0:0:0:0:
256,192,562,1,8,0:0:0:0:
256,192,750,1,0,0:0:0:0:
256,192,937,1,8,0:0:0:0:
256,192,1125,1,0,0:0:0:0:
256,192,1312,1,8,0:0:0:0:
256,192,1500,1,8,0:0:0:0:
256,192,1687,1,0,0:0:0:0:
256,192,1875,1,4,0:0:0:0:
256,192,2250,1,12,0:0:0:0:
256,192,2625,1,4,0:0:0:0:
256,192,3375,1,0,0:0:0:0:
256,192,3750,1,8,0:0:0:0:
256,192,3937,1,0,0:0:0:0:
256,192,4125,1,8,0:0:0:0:
256,192,4500,1,0,0:0:0:0:
256,192,4687,1,0,0:0:0:0:
256,192,4875,1,8,0:0:0:0:
256,192,5062,1,8,0:0:0:0:
256,192,5250,1,0,0:0:0:0:
256,192,5437,1,8,0:0:0:0:
256,192,5625,1,0,0:0:0:0:
256,192,6375,1,8,0:0:0:0:
256,192,6562,1,0,0:0:0:0:
256,192,6656,1,0,0:0:0:0:
256,192,6750,1,8,0:0:0:0:
256,192,6843,1,8,0:0:0:0:
256,192,6937,1,0,0:0:0:0:
256,192,7125,1,8,0:0:0:0:
256,192,7312,1,0,0:0:0:0:
256,192,7500,1,8,0:0:0:0:
256,192,7875,1,8,0:0:0:0:
256,192,8062,1,8,0:0:0:0:
256,192,8250,1,8,0:0:0:0:
256,192,8437,1,0,0:0:0:0:
256,192,8625,1,8,0:0:0:0:
256,192,9375,1,0,0:0:0:0:
256,192,9750,1,8,0:0:0:0:
256,192,9844,1,8,0:0:0:0:
256,192,9938,1,0,0:0:0:0:
256,192,10031,1,0,0:0:0:0:
256,192,10125,1,8,0:0:0:0:
256,192,10312,1,0,0:0:0:0:
256,192,10500,1,8,0:0:0:0:
256,192,10875,1,0,0:0:0:0:
256,192,11062,1,8,0:0:0:0:
256,192,11250,1,0,0:0:0:0:
256,192,11437,1,8,0:0:0:0:
256,192,11625,1,0,0:0:0:0:
256,192,11812,1,8,0:0:0:0:
256,192,12000,1,8,0:0:0:0:
256,192,12375,1,8,0:0:0:0:
256,192,12562,1,8,0:0:0:0:
256,192,12750,1,0,0:0:0:0:
256,192,12937,1,0,0:0:0:0:
256,192,13125,1,8,0:0:0:0:
256,192,13312,1,0,0:0:0:0:
256,192,13500,1,8,0:0:0:0:
256,192,13687,1,8,0:0:0:0:
256,192,13875,1,0,0:0:0:0:
256,192,14250,1,0,0:0:0:0:
256,192,14437,1,8,0:0:0:0:
256,192,14625,1,8,0:0:0:0:
256,192,15000,1,8,0:0:0:0:
256,192,15093,1,8,0:0:0:0:
256,192,15187,1,8,0:0:0:0:
256,192,15375,1,8,0:0:0:0:
256,192,15468,1,0,0:0:0:0:
256,192,15562,1,0,0:0:0:0:
256,192,15750,1,8,0:0:0:0:
256,192,15937,1,0,0:0:0:0:
256,192,16031,1,0,0:0:0:0:
256,192,16125,1,8,0:0:0:0:
256,192,16312,1,0,0:0:0:0:
256,192,16500,1,8,0:0:0:0:
256,192,16875,1,8,0:0:0:0:
256,192,16968,1,8,0:0:0:0:
256,192,17062,1,0,0:0:0:0:
256,192,17250,1,8,0:0:0:0:
256,192,17437,1,0,0:0:0:0:
256,192,17531,1,0,0:0:0:0:
256,192,17625,1,8,0:0:0:0:
256,192,17812,1,0,0:0:0:0:
256,192,18000,1,8,0:0:0:0:
256,192,18375,1,8,0:0:0:0:
256,192,18468,1,0,0:0:0:0:
256,192,18562,1,0,0:0:0:0:
256,192,18750,1,8,0:0:0:0:
256,192,18937,1,0,0:0:0:0:
256,192,19031,1,0,0:0:0:0:
256,192,19125,1,8,0:0:0:0:
256,192,19312,1,8,0:0:0:0:
256,192,19500,1,8,0:0:0:0:
256,192,19875,1,8,0:0:0:0:
256,192,19968,1,8,0:0:0:0:
256,192,20062,1,0,0:0:0:0:
256,192,20250,1,8,0:0:0:0:
256,192,20437,1,0,0:0:0:0:
256,192,20531,1,0,0:0:0:0:
256,192,20625,1,8,0:0:0:0:
256,192,20812,1,8,0:0:0:0:
256,192,21000,1,8,0:0:0:0:
256,192,21375,1,8,0:0:0:0:
256,192,21562,1,8,0:0:0:0:
256,192,21750,1,0,0:0:0:0:
256,192,21937,1,0,0:0:0:0:
256,192,22125,1,8,0:0:0:0:
256,192,22312,1,0,0:0:0:0:
256,192,22500,1,8,0:0:0:0:
256,192,22875,1,8,0:0:0:0:
256,192,23062,1,8,0:0:0:0:
256,192,23250,1,0,0:0:0:0:
256,192,23437,1,8,0:0:0:0:
256,192,24291,1,0,0:0:0:0:
256,192,24458,1,8,0:0:0:0:
256,192,24625,1,8,0:0:0:0:
256,192,24791,1,0,0:0:0:0:
256,192,24958,1,8,0:0:0:0:
256,192,25125,1,0,0:0:0:0:
256,192,25208,1,0,0:0:0:0:
256,192,25291,1,8,0:0:0:0:
256,192,25458,1,0,0:0:0:0:
256,192,25624,1,8,0:0:0:0:
256,192,25791,1,8,0:0:0:0:
256,192,25958,1,0,0:0:0:0:
256,192,26124,1,0,0:0:0:0:
256,192,26291,1,8,0:0:0:0:
256,192,26958,1,8,0:0:0:0:
256,192,27124,1,0,0:0:0:0:
256,192,27458,1,8,0:0:0:0:
256,192,27624,1,8,0:0:0:0:
256,192,27791,1,0,0:0:0:0:
256,192,27958,1,8,0:0:0:0:
256,192,28124,1,0,0:0:0:0:
256,192,28291,1,8,0:0:0:0:
256,192,28458,1,0,0:0:0:0:
256,192,28624,1,0,0:0:0:0:
256,192,28791,1,8,0:0:0:0:
256,192,28958,1,8,0:0:0:0:
256,192,29624,1,0,0:0:0:0:
256,192,29958,1,8,0:0:0:0:
256,192,30041,1,8,0:0:0:0:
256,192,30124,1,0,0:0:0:0:
256,192,30208,1,0,0:0:0:0:
256,192,30291,1,8,0:0:0:0:
256,192,30458,1,0,0:0:0:0:
256,192,30624,1,8,0:0:0:0:
256,192,30958,1,8,0:0:0:0:
256,192,31124,1,8,0:0:0:0:
256,192,31291,1,0,0:0:0:0:
256,192,31458,1,8,0:0:0:0:
256,192,31624,1,0,0:0:0:0:
256,192,31791,1,8,0:0:0:0:
256,192,31958,1,8,0:0:0:0:
256,192,32291,1,8,0:0:0:0:
256,192,32458,1,0,0:0:0:0:
256,192,32624,1,0,0:0:0:0:
256,192,32791,1,8,0:0:0:0:
256,192,32958,1,0,0:0:0:0:
256,192,33124,1,8,0:0:0:0:
256,192,33291,1,8,0:0:0:0:
256,192,33458,1,0,0:0:0:0:
256,192,33624,1,8,0:0:0:0:
256,192,33958,1,0,0:0:0:0:
256,192,34124,1,8,0:0:0:0:
256,192,34291,1,8,0:0:0:0:
256,192,34624,1,8,0:0:0:0:
256,192,34707,1,8,0:0:0:0:
256,192,34790,1,8,0:0:0:0:
256,192,34958,1,8,0:0:0:0:
256,192,35041,1,8,0:0:0:0:
256,192,35124,1,0,0:0:0:0:
256,192,35208,1,0,0:0:0:0:
256,192,35291,1,8,0:0:0:0:
256,192,35374,1,8,0:0:0:0:
256,192,35458,1,0,0:0:0:0:
256,192,35541,1,0,0:0:0:0:
256,192,35624,1,8,0:0:0:0:
256,192,35791,1,0,0:0:0:0:
256,192,35958,1,8,0:0:0:0:
256,192,36291,1,8,0:0:0:0:
256,192,36374,1,0,0:0:0:0:
256,192,36458,1,0,0:0:0:0:
256,192,36541,1,0,0:0:0:0:
256,192,36624,1,8,0:0:0:0:
256,192,36708,1,0,0:0:0:0:
256,192,36791,1,0,0:0:0:0:
256,192,36874,1,0,0:0:0:0:
256,192,36958,1,8,0:0:0:0:
256,192,37124,1,0,0:0:0:0:
256,192,37291,1,8,0:0:0:0:
256,192,37624,1,8,0:0:0:0:
256,192,37708,1,8,0:0:0:0:
256,192,37791,1,0,0:0:0:0:
256,192,37874,1,0,0:0:0:0:
256,192,37958,1,8,0:0:0:0:
256,192,38041,1,8,0:0:0:0:
256,192,38124,1,0,0:0:0:0:
256,192,38208,1,0,0:0:0:0:
256,192,38291,1,8,0:0:0:0:
256,192,38458,1,0,0:0:0:0:
256,192,38624,1,8,0:0:0:0:
256,192,38790,1,0,0:0:0:0:
256,192,38958,1,8,0:0:0:0:
256,192,39291,1,8,0:0:0:0:
256,192,39624,1,8,0:0:0:0:
256,192,39958,1,8,0:0:0:0:
256,192,40291,1,0,0:0:0:0:
256,192,40458,1,8,0:0:0:0:
256,192,40624,1,8,0:0:0:0:
256,192,40791,1,0,0:0:0:0:
256,192,40958,1,0,0:0:0:0:
256,192,41124,1,0,0:0:0:0:
256,192,41291,1,8,0:0:0:0:
256,192,41624,1,8,0:0:0:0:
256,192,41791,1,8,0:0:0:0:
256,192,41958,1,0,0:0:0:0:
256,192,42124,1,8,0:0:0:0:
256,192,42891,1,8,0:0:0:0:
256,192,43191,1,0,0:0:0:0:
256,192,43491,1,8,0:0:0:0:
256,192,43641,1,8,0:0:0:0:
256,192,43791,1,0,0:0:0:0:
256,192,43941,1,0,0:0:0:0:
256,192,44091,1,8,0:0:0:0:
256,192,44391,1,8,0:0:0:0:
256,192,44541,1,0,0:0:0:0:
256,192,44691,1,8,0:0:0:0:
256,192,45291,1,8,0:0:0:0:
256,192,45441,1,8,0:0:0:0:
256,192,45591,1,8,0:0:0:0:
256,192,45741,1,0,0:0:0:0:
256,192,45891,1,0,0:0:0:0:
256,192,46041,1,8,0:0:0:0:
256,192,46191,1,0,0:0:0:0:
256,192,46341,1,0,0:0:0:0:
256,192,46491,1,8,0:0:0:0:
256,192,46791,1,0,0:0:0:0:
256,192,46941,1,8,0:0:0:0:
256,192,47091,1,8,0:0:0:0:
256,192,47391,1,0,0:0:0:0:
256,192,47691,1,8,0:0:0:0:
256,192,47991,1,8,0:0:0:0:
256,192,48066,1,8,0:0:0:0:
256,192,48141,1,0,0:0:0:0:
256,192,48216,1,0,0:0:0:0:
256,192,48291,1,8,0:0:0:0:
256,192,48441,1,0,0:0:0:0:
256,192,48591,1,8,0:0:0:0:
256,192,48891,1,8,0:0:0:0:
256,192,49041,1,8,0:0:0:0:
256,192,49191,1,8,0:0:0:0:
256,192,49341,1,0,0:0:0:0:
256,192,49491,1,0,0:0:0:0:
256,192,49641,1,8,0:0:0:0:
256,192,49791,1,8,0:0:0:0:
256,192,50091,1,8,0:0:0:0:
256,192,50241,1,8,0:0:0:0:
256,192,50391,1,0,0:0:0:0:
256,192,50541,1,0,0:0:0:0:
256,192,50691,1,8,0:0:0:0:
256,192,50991,1,8,0:0:0:0:
256,192,51141,1,0,0:0:0:0:
256,192,51291,1,8,0:0:0:0:
256,192,51591,1,8,0:0:0:0:
256,192,51741,1,8,0:0:0:0:
256,192,51891,1,8,0:0:0:0:
256,192,52191,1,8,0:0:0:0:
256,192,52266,1,0,0:0:0:0:
256,192,52341,1,0,0:0:0:0:
256,192,52416,1,0,0:0:0:0:
256,192,52491,1,8,0:0:0:0:
256,192,52641,1,0,0:0:0:0:
256,192,52791,1,8,0:0:0:0:
256,192,52941,1,0,0:0:0:0:
256,192,53016,1,0,0:0:0:0:
256,192,53091,1,8,0:0:0:0:
256,192,53241,1,0,0:0:0:0:
256,192,53391,1,8,0:0:0:0:
256,192,53541,1,0,0:0:0:0:
256,192,53691,1,8,0:0:0:0:
256,192,53766,1,0,0:0:0:0:
256,192,53841,1,0,0:0:0:0:
256,192,53991,1,8,0:0:0:0:
256,192,54141,1,0,0:0:0:0:
256,192,54216,1,0,0:0:0:0:
256,192,54291,1,8,0:0:0:0:
256,192,54441,1,8,0:0:0:0:
256,192,54591,1,8,0:0:0:0:
256,192,54741,1,0,0:0:0:0:
256,192,54891,1,8,0:0:0:0:
256,192,54966,1,0,0:0:0:0:
256,192,55041,1,0,0:0:0:0:
256,192,55116,1,0,0:0:0:0:
256,192,55191,1,8,0:0:0:0:
256,192,55341,1,0,0:0:0:0:
256,192,55491,1,8,0:0:0:0:
256,192,55641,1,0,0:0:0:0:
256,192,55716,1,0,0:0:0:0:
256,192,55791,1,8,0:0:0:0:
256,192,55941,1,8,0:0:0:0:
256,192,56091,1,8,0:0:0:0:
256,192,56391,1,8,0:0:0:0:
256,192,56691,1,8,0:0:0:0:
256,192,56991,1,8,0:0:0:0:
256,192,57291,1,0,0:0:0:0:
256,192,57441,1,8,0:0:0:0:
256,192,57591,1,8,0:0:0:0:
256,192,57741,1,0,0:0:0:0:
256,192,57891,1,8,0:0:0:0:
256,192,58041,1,8,0:0:0:0:
256,192,58191,1,0,0:0:0:0:
256,192,58491,1,8,0:0:0:0:
256,192,58641,1,8,0:0:0:0:
256,192,58791,1,0,0:0:0:0:
256,192,58941,1,8,0:0:0:0:
256,192,59636,1,8,0:0:0:0:
256,192,59909,1,8,0:0:0:0:
256,192,60045,1,8,0:0:0:0:
256,192,60181,1,8,0:0:0:0:
256,192,60454,1,8,0:0:0:0:
256,192,60591,1,0,0:0:0:0:
256,192,60727,1,8,0:0:0:0:
256,192,60863,1,0,0:0:0:0:
256,192,61000,1,8,0:0:0:0:
256,192,61136,1,0,0:0:0:0:
256,192,61272,1,8,0:0:0:0:
256,192,61818,1,8,0:0:0:0:
256,192,61954,1,8,0:0:0:0:
256,192,62091,1,8,0:0:0:0:
256,192,62227,1,0,0:0:0:0:
256,192,62363,1,8,0:0:0:0:
256,192,62636,1,0,0:0:0:0:
256,192,62909,1,8,0:0:0:0:
256,192,63045,1,0,0:0:0:0:
256,192,63181,1,8,0:0:0:0:
256,192,63318,1,0,0:0:0:0:
256,192,63454,1,8,0:0:0:0:
256,192,64000,1,8,0:0:0:0:
256,192,64272,1,8,0:0:0:0:
256,192,64341,1,8,0:0:0:0:
256,192,64409,1,0,0:0:0:0:
256,192,64477,1,0,0:0:0:0:
256,192,64545,1,8,0:0:0:0:
256,192,64681,1,0,0:0:0:0:
256,192,64818,1,8,0:0:0:0:
256,192,65091,1,0,0:0:0:0:
256,192,65227,1,8,0:0:0:0:
256,192,65363,1,8,0:0:0:0:
256,192,65500,1,0,0:0:0:0:
256,192,65636,1,0,0:0:0:0:
256,192,65772,1,8,0:0:0:0:
256,192,65909,1,8,0:0:0:0:
256,192,66181,1,8,0:0:0:0:
256,192,66454,1,0,0:0:0:0:
256,192,66727,1,8,0:0:0:0:
256,192,66863,1,0,0:0:0:0:
256,192,67000,1,0,0:0:0:0:
256,192,67136,1,8,0:0:0:0:
256,192,67272,1,0,0:0:0:0:
256,192,67545,1,0,0:0:0:0:
256,192,67681,1,8,0:0:0:0:
256,192,67818,1,8,0:0:0:0:
256,192,68091,1,8,0:0:0:0:
256,192,68159,1,8,0:0:0:0:
256,192,68227,1,8,0:0:0:0:
256,192,68363,1,8,0:0:0:0:
256,192,68499,1,0,0:0:0:0:
256,192,68635,1,8,0:0:0:0:
256,192,68772,1,0,0:0:0:0:
256,192,68909,1,8,0:0:0:0:
256,192,69045,1,0,0:0:0:0:
256,192,69113,1,0,0:0:0:0:
256,192,69181,1,8,0:0:0:0:
256,192,69454,1,8,0:0:0:0:
256,192,69591,1,0,0:0:0:0:
256,192,69727,1,8,0:0:0:0:
256,192,69863,1,0,0:0:0:0:
256,192,70000,1,8,0:0:0:0:
256,192,70136,1,0,0:0:0:0:
256,192,70204,1,0,0:0:0:0:
256,192,70272,1,8,0:0:0:0:
256,192,70545,1,8,0:0:0:0:
256,192,70681,1,0,0:0:0:0:
256,192,70818,1,8,0:0:0:0:
256,192,70954,1,0,0:0:0:0:
256,192,71091,1,8,0:0:0:0:
256,192,71159,1,8,0:0:0:0:
256,192,71227,1,0,0:0:0:0:
256,192,71363,1,8,0:0:0:0:
256,192,71500,1,0,0:0:0:0:
256,192,71636,1,8,0:0:0:0:
256,192,71704,1,0,0:0:0:0:
256,192,71772,1,8,0:0:0:0:
256,192,71909,1,8,0:0:0:0:
256,192,72045,1,8,0:0:0:0:
256,192,72181,1,8,0:0:0:0:
256,192,72250,1,0,0:0:0:0:
256,192,72318,1,8,0:0:0:0:
256,192,72727,1,8,0:0:0:0:
256,192,72863,1,8,0:0:0:0:
256,192,73000,1,8,0:0:0:0:
256,192,73136,1,0,0:0:0:0:
256,192,73272,1,0,0:0:0:0:
256,192,73545,1,0,0:0:0:0:
256,192,73818,1,8,0:0:0:0:
256,192,73954,1,8,0:0:0:0:
256,192,74091,1,0,0:0:0:0:
256,192,74227,1,8,0:0:0:0:
256,192,74843,1,8,0:0:0:0:
256,192,74903,1,0,0:0:0:0:
256,192,74963,1,0,0:0:0:0:
256,192,75023,1,0,0:0:0:0:
256,192,75083,1,8,0:0:0:0:
256,192,75143,1,0,0:0:0:0:
256,192,75203,1,0,0:0:0:0:
256,192,75263,1,0,0:0:0:0:
256,192,75323,1,8,0:0:0:0:
256,192,75563,1,8,0:0:0:0:
256,192,75803,1,8,0:0:0:0:
256,192,75863,1,0,0:0:0:0:
256,192,75923,1,0,0:0:0:0:
256,192,75983,1,0,0:0:0:0:
256,192,76043,1,8,0:0:0:0:
256,192,76103,1,0,0:0:0:0:
256,192,76163,1,0,0:0:0:0:
256,192,76223,1,0,0:0:0:0:
256,192,76283,1,8,0:0:0:0:
256,192,76523,1,8,0:0:0:0:
256,192,76763,1,0,0:0:0:0:
256,192,76823,1,0,0:0:0:0:
256,192,76883,1,0,0:0:0:0:
256,192,77003,1,8,0:0:0:0:
256,192,77243,1,0,0:0:0:0:
256,192,77303,1,0,0:0:0:0:
256,192,77363,1,0,0:0:0:0:
256,192,77483,1,8,0:0:0:0:
256,192,77723,1,8,0:0:0:0:
256,192,77783,1,8,0:0:0:0:
256,192,77843,1,8,0:0:0:0:
256,192,77963,1,8,0:0:0:0:
256,192,78203,1,8,0:0:0:0:
256,192,78443,1,8,0:0:0:0:
256,192,78683,1,0,0:0:0:0:
256,192,78803,1,8,0:0:0:0:
256,192,78923,1,8,0:0:0:0:
256,192,79043,1,0,0:0:0:0:
256,192,79163,1,0,0:0:0:0:
256,192,79283,1,8,0:0:0:0:
256,192,79403,1,8,0:0:0:0:
256,192,79643,1,8,0:0:0:0:
256,192,79763,1,8,0:0:0:0:
256,192,79883,1,0,0:0:0:0:
256,192,80003,1,8,0:0:0:0:
256,192,80243,1,0,0:0:0:0:
256,192,80363,1,0,0:0:0:0:
256,192,80483,1,8,0:0:0:0:
256,192,80603,1,8,0:0:0:0:
256,192,80723,1,0,0:0:0:0:
256,192,80843,1,8,0:0:0:0:
256,192,80963,1,8,0:0:0:0:
256,192,81203,1,8,0:0:0:0:
256,192,81323,1,0,0:0:0:0:
