osu file format v14

[General]
AudioFilename: PV.mp3
AudioLeadIn: 0
PreviewTime: 23958
Countdown: 0
SampleSet: Normal
StackLeniency: 0.7
Mode: 1
LetterboxInBreaks: 0
WidescreenStoryboard: 0

[Editor]
Bookmarks: 78563
DistanceSpacing: 0.8
BeatDivisor: 2
GridSize: 32
TimelineZoom: 1.800001

[Metadata]
Title:Kouon Katsuzetsu-chuu Oniki Hayakuchi Test
TitleUnicode:Kouon Katsuzetsu-chuu Oniki Hayakuchi Test
Artist:KimuraYP
ArtistUnicode:KimuraYP
Creator:JessiChan
Version:Kantan
Source:NicoNico Douga
Tags:木村わいp hatsune miku shelfall vocaloid nico douga
BeatmapID:1087004
BeatmapSetID:511332

[Difficulty]
HPDrainRate:7
CircleSize:4
OverallDifficulty:3
ApproachRate:5
SliderMultiplier:1.4
SliderTickRate:1

[Events]
//Background and Video events
0,0,"i6JBUhy.png",0,0
//Break Periods
//Storyboard Layer 0 (Background)
//Storyboard Layer 1 (Fail)
//Storyboard Layer 2 (Pass)
//Storyboard Layer 3 (Foreground)
//Storyboard Sound Samples

[TimingPoints]
375,375,4,1,0,80,1,0
15375,-100,4,1,0,80,0,1
23625,333.333333333333,4,1,0,80,1,8
24291,333.333333333333,4,1,0,80,1,0
24291,-105.263157894737,4,1,0,80,0,0
34958,-105.263157894737,4,1,0,80,0,1
42291,300,4,1,0,80,1,8
42891,300,4,1,0,80,1,0
42891,-111.111111111111,4,1,0,80,0,0
52191,-111.111111111111,4,1,0,80,0,1
59091,272.727272727273,4,1,0,80,1,8
59636,272.727272727273,4,1,0,80,1,0
59636,-117.647058823529,4,1,0,80,0,0
68363,-117.647058823529,4,1,0,80,0,1
74363,240,4,1,0,80,1,8
74843,240,4,1,0,80,1,0
74843,-133.333333333333,4,1,0,80,0,1
80243,-133.333333333333,4,1,0,80,0,0

[HitObjects]
256,192,375,5,0,0:0:0:0:
256,192,1125,1,8,0:0:0:0:
256,192,1875,1,4,0:0:0:0:
256,192,2625,1,12,0:0:0:0:
256,192,3375,1,0,0:0:0:0:
256,192,4125,1,8,0:0:0:0:
256,192,4875,1,0,0:0:0:0:
256,192,5250,1,0,0:0:0:0:
256,192,5625,1,8,0:0:0:0:
256,192,6375,1,0,0:0:0:0:
256,192,7125,1,8,0:0:0:0:
256,192,7875,1,8,0:0:0:0:
256,192,8250,1,0,0:0:0:0:
256,192,8625,1,8,0:0:0:0:
256,192,9375,1,0,0:0:0:0:
256,192,10125,1,8,0:0:0:0:
256,192,10875,1,0,0:0:0:0:
256,192,11625,1,8,0:0:0:0:
256,192,12000,1,0,0:0:0:0:
256,192,12375,1,8,0:0:0:0:
256,192,13125,1,0,0:0:0:0:
256,192,13875,1,8,0:0:0:0:
256,192,15375,1,8,0:0:0:0:
256,192,16125,1,0,0:0:0:0:
256,192,16875,1,8,0:0:0:0:
256,192,17250,1,8,0:0:0:0:
256,192,17625,1,0,0:0:0:0:
256,192,18375,1,8,0:0:0:0:
256,192,19125,1,0,0:0:0:0:
256,192,19875,1,8,0:0:0:0:
256,192,20250,1,8,0:0:0:0:
256,192,20625,1,0,0:0:0:0:
256,192,21375,1,0,0:0:0:0:
256,192,22125,1,8,0:0:0:0:
256,192,22875,1,8,0:0:0:0:
256,192,24291,1,0,0:0:0:0:
256,192,24958,1,8,0:0:0:0:
256,192,25624,1,0,0:0:0:0:
256,192,25958,1,0,0:0:0:0:
256,192,26291,1,8,0:0:0:0:
256,192,26958,1,0,0:0:0:0:
256,192,27624,1,8,0:0:0:0:
256,192,28291,1,0,0:0:0:0:
256,192,28625,1,8,0:0:0:0:
256,192,28958,1,0,0:0:0:0:
256,192,29624,1,0,0:0:0:0:
256,192,30291,1,8,0:0:0:0:
256,192,30958,1,0,0:0:0:0:
256,192,31624,1,8,0:0:0:0:
256,192,31958,1,8,0:0:0:0:
256,192,32291,1,0,0:0:0:0:
256,192,32958,1,0,0:0:0:0:
256,192,33624,1,8,0:0:0:0:
256,192,34958,1,0,0:0:0:0:
256,192,35624,1,8,0:0:0:0:
256,192,36291,1,8,0:0:0:0:
256,192,36624,1,0,0:0:0:0:
256,192,36958,1,8,0:0:0:0:
256,192,37624,1,0,0:0:0:0:
256,192,38291,1,8,0:0:0:0:
256,192,38958,1,8,0:0:0:0:
256,192,40291,1,8,0:0:0:0:
256,192,40624,1,8,0:0:0:0:
256,192,40958,1,0,0:0:0:0:
256,192,41624,1,8,0:0:0:0:
256,192,42891,1,0,0:0:0:0:
256,192,43491,1,8,0:0:0:0:
256,192,44091,1,0,0:0:0:0:
256,192,44391,1,0,0:0:0:0:
256,192,44691,1,8,0:0:0:0:
256,192,45291,1,0,0:0:0:0:
256,192,45891,1,8,0:0:0:0:
256,192,46491,1,0,0:0:0:0:
256,192,46791,1,8,0:0:0:0:
256,192,47091,1,0,0:0:0:0:
256,192,47691,1,0,0:0:0:0:
256,192,48291,1,8,0:0:0:0:
256,192,48891,1,0,0:0:0:0:
256,192,49491,1,0,0:0:0:0:
256,192,49791,1,8,0:0:0:0:
256,192,50091,1,8,0:0:0:0:
256,192,50691,1,0,0:0:0:0:
256,192,51291,1,8,0:0:0:0:
256,192,52491,1,8,0:0:0:0:
256,192,53091,1,0,0:0:0:0:
256,192,53691,1,8,0:0:0:0:
256,192,53991,1,0,0:0:0:0:
256,192,54291,1,8,0:0:0:0:
256,192,54891,1,0,0:0:0:0:
256,192,55491,1,0,0:0:0:0:
256,192,56091,1,8,0:0:0:0:
256,192,57291,1,0,0:0:0:0:
256,192,57891,1,8,0:0:0:0:
256,192,58491,1,8,0:0:0:0:
256,192,59636,1,0,0:0:0:0:
256,192,60181,1,0,0:0:0:0:
256,192,60727,1,8,0:0:0:0:
256,192,61000,1,8,0:0:0:0:
256,192,61272,1,8,0:0:0:0:
256,192,61818,1,0,0:0:0:0:
256,192,62363,1,0,0:0:0:0:
256,192,62909,1,8,0:0:0:0:
256,192,63181,1,8,0:0:0:0:
256,192,63454,1,8,0:0:0:0:
256,192,64000,1,0,0:0:0:0:
256,192,64545,1,8,0:0:0:0:
256,192,65091,1,0,0:0:0:0:
256,192,65636,1,8,0:0:0:0:
256,192,66181,1,0,0:0:0:0:
256,192,66727,1,0,0:0:0:0:
160,192,67272,2,0,L|416:192,1,238.00000453949
256,192,68363,5,8,0:0:0:0:
256,192,68909,1,0,0:0:0:0:
256,192,69454,1,8,0:0:0:0:
256,192,70000,1,0,0:0:0:0:
256,192,70545,1,8,0:0:0:0:
256,192,71091,1,8,0:0:0:0:
256,192,71636,1,8,0:0:0:0:
256,192,72727,1,0,0:0:0:0:
256,192,73272,1,8,0:0:0:0:
32,192,73818,6,0,L|320:192,1,238.00000453949
256,192,74843,1,0,0:0:0:0:
256,192,75323,1,0,0:0:0:0:
256,192,75803,1,8,0:0:0:0:
256,192,76283,1,8,0:0:0:0:
256,192,76763,1,0,0:0:0:0:
256,192,77243,1,8,0:0:0:0:
256,192,77723,1,8,0:0:0:0:
256,192,78683,1,0,0:0:0:0:
256,192,79163,1,8,0:0:0:0:
256,192,79643,1,0,0:0:0:0:
256,192,80003,1,8,0:0:0:0:
256,192,80603,1,8,0:0:0:0:
256,192,81323,1,0,0:0:0:0:
