osu file format v11

[General]
AudioFilename: Without You.mp3
AudioLeadIn: 1500
PreviewTime: 23378
Countdown: 0
SampleSet: Soft
StackLeniency: 0.3
Mode: 0
LetterboxInBreaks: 0

[Editor]
DistanceSpacing: 1.3
BeatDivisor: 2
GridSize: 4

[Metadata]
Title:Without You (Nightcore Mix)
TitleUnicode:Without You (Nightcore Mix)
Artist:Kimura & Tube Tonic
ArtistUnicode:Kimura & Tube Tonic
Creator:BCI
Version:Lally
Source:
Tags:Cc.K remix edit trance Black_Cherry_Ita Flask Lally Gabe
BeatmapID:211803
BeatmapSetID:74624

[Difficulty]
HPDrainRate:2
CircleSize:2
OverallDifficulty:2
ApproachRate:2
SliderMultiplier:0.7
SliderTickRate:1

[Events]
//Background and Video events
0,0,"hi zoidberi.jpg"
//Break Periods
2,48137,51797
//Storyboard Layer 0 (Background)
//Storyboard Layer 1 (Fail)
//Storyboard Layer 2 (Pass)
//Storyboard Layer 3 (Foreground)
//Storyboard Sound Samples
//Background Colour Transformations
3,100,163,162,255

[TimingPoints]
1864,338.772514256677,4,2,1,80,1,0
23545,-100,4,1,1,80,0,1
33031,-100,4,1,1,80,0,0
34386,-100,4,1,1,80,0,1
45226,-100,4,2,1,80,0,0
58777,-100,4,1,1,80,0,1
68940,-100,4,1,1,80,0,0
69618,-100,4,1,1,80,0,1
78765,-100,4,1,1,80,0,0
80459,-100,4,2,1,80,0,1
80628,-100,4,2,1,80,0,0
102479,-100,4,1,1,35,0,0
102818,-100,4,1,1,25,0,0
103156,-100,4,1,1,15,0,0
103495,-100,4,2,1,5,0,0

[Colours]
Combo1 : 41,214,140
Combo2 : 91,24,231
Combo3 : 255,0,128
SliderBorder : 218,218,218

[HitObjects]
144,140,1863,6,0,P|104:192|136:252,1,140,2|0,0:0|0:0,0:0:0
212,300,2880,1,8,0:0:0
236,212,3219,2,0,P|248:164|328:172,1,140,2|0,0:0|0:0,0:0:0
344,256,4235,6,0,P|400:220|412:144,2,140,8|0|8,0:0|0:0|0:0,0:0:0
304,336,5929,1,2,0:0:0
72,192,6945,1,8,0:0:0
92,104,7284,6,0,P|144:132|164:52|212:52,1,140,4|0,0:0|0:0,0:0:0
256,132,8300,1,8,0:0:0
304,52,8639,2,0,P|352:52|372:132|424:104,1,140,2|8,0:0|0:0,0:0:0
384,280,9994,2,0,P|332:260|292:292|256:320|256:320|220:292|180:260|128:280,2,280,2|0|4,0:0|0:0|0:0,0:0:0
450,114,13382,6,0,P|388:84|319:87,1,140,0|2,0:0|0:0,0:0:0
256,152,14398,1,8,0:0:0
192,87,14737,2,0,P|124:84|60:116,1,140,0|4,0:0|0:0,0:0:0
56,204,15753,5,8,0:0:0
116,272,16092,2,0,P|144:324|236:308,2,140,0|2|0,0:0|0:0|0:0,0:0:0
268,168,18125,1,4,0:0:0
440,104,18802,6,0,P|468:160|440:228,1,140,0|2,0:0|0:0,0:0:0
352,256,19818,2,0,P|368:308|388:320,2,70,8|0|8,0:0|0:0|0:0,0:0:0
256,192,20835,12,8,22867,0:0:0
88,252,23545,22,0,P|60:192|100:132,2,140,4|0|4,0:0|0:0|0:0,0:0:0
256,192,25578,1,0,0:0:0
412,284,26255,6,0,P|440:268|464:208,1,70,4|8,0:0|0:0,0:0:0
424,152,26933,1,0,0:0:0
356,92,27271,2,0,P|400:64|424:64,2,70,8|4|8,0:0|0:0|0:0,0:0:0
189,76,28627,6,0,P|128:56|60:84,2,140,8|8|8,0:0|0:0|0:0,0:0:0
256,135,30320,1,4,0:0:0
312,208,30659,2,0,P|256:252|256:252|202:209,1,140,8|8,0:0|0:0,0:0:0
136,148,31675,6,0,P|112:196|144:276,2,140,4|0|4,0:0|0:0|0:0,0:0:0
292,88,34386,6,0,P|372:120|436:116,1,140,4|0,0:0|0:0,0:0:0
472,196,35402,2,0,P|468:272|424:320,1,140,8|8,0:0|0:0,0:0:0
340,348,36418,1,0,0:0:0
248,348,36757,6,0,P|196:348|172:332,1,70,8|4,0:0|0:0,0:0:0
92,324,37435,2,0,P|32:264|32:264|56:216|56:172|32:144,2,210,8|4|8,0:0|0:0|0:0,0:0:0
180,340,39806,5,4,0:0:0
268,324,40145,2,0,P|328:264|328:264|304:216|304:172|328:144,1,210,8|4,0:0|0:0,0:0:0
244,108,41500,2,0,P|176:128|112:100,2,140,8|8|8,0:0|0:0|0:0,0:0:0
324,64,43194,1,4,0:0:0
356,244,43871,6,0,P|256:300|256:208|140:256,1,210,4|8,0:0|0:0,0:0:0
256,192,45226,12,2,47937,0:0:0
256,192,53357,12,4,56067,0:0:0
108,168,56745,6,0,P|184:192|208:244,1,140,2|4,0:0|0:0,0:0:0
256,320,57761,1,8,0:0:0
304,242,58100,2,0,P|328:192|404:168,1,140,0|4,0:0|0:0,0:0:0
440,84,59116,6,0,P|476:52|480:32,2,70,8|0|8,0:0|0:0|0:0,0:0:0
348,76,60132,2,0,P|296:164|256:-40|212:160|160:76,1,210,4|8,0:0|0:0,0:0:0
72,84,61487,6,0,P|36:52|32:32,2,70,4|8|0,0:0|0:0|0:0,0:0:0
108,168,62504,2,0,P|184:208|160:248|140:308|200:344,1,210,8|0,0:0|0:0,0:0:0
256,272,63859,1,8,0:0:0
313,342,64198,6,0,P|372:308|352:248|328:208|404:168,1,210,4|8,0:0|0:0,0:0:0
424,80,65553,2,0,P|464:56|472:32,2,70,4|8|0,0:0|0:0|0:0,0:0:0
336,100,66569,6,0,P|268:88|256:148,1,140,8|8,0:0|0:0,0:0:0
256,236,67585,2,0,P|192:224|160:152,2,140,0|4|0,0:0|0:0|0:0,0:0:0
408,136,69618,6,0,P|408:64|356:24,1,140,4|0,0:0|0:0,0:0:0
320,108,70634,2,0,P|256:136|196:108,1,140,8|8,0:0|0:0,0:0:0
124,52,71651,2,0,P|87:76|83:112,1,70,0|8,0:0|0:0,0:0:0
8,152,72328,6,0,P|64:196|128:180,1,140,4|0,0:0|0:0,0:0:0
216,204,73345,2,0,P|256:220|280:236,2,70,8|0|8,0:0|0:0|0:0,0:0:0
156,272,74361,2,0,P|128:300|120:336,1,70,0|8,0:0|0:0,0:0:0
208,348,75038,6,0,P|296:348|336:308,1,140,4|0,0:0|0:0,0:0:0
420,288,76055,2,0,P|472:264|496:188,2,140,8|8|8,0:0|0:0|0:0,0:0:0
408,200,77749,6,0,P|376:144|300:116,1,140,4|0,0:0|0:0,0:0:0
256,192,78765,12,4,80459,0:0:0
112,172,81136,6,0,P|128:124|200:96|256:228|256:228|312:96|384:124|404:172,2,420,2|0|2,0:0|0:0|0:0,0:0:0
68,252,85540,2,0,P|84:280|116:300,1,70,8|4,0:0|0:0,0:0:0
296,316,86557,6,0,P|352:320|404:352|404:352|468:336|488:304,1,210,0|8,0:0|0:0,0:0:0
452,224,87912,2,0,P|400:168|448:52,2,210,0|8|4,0:0|0:0|0:0,0:0:0
488,308,90283,6,0,P|448:316|408:312,1,70,8|0,0:0|0:0,0:0:0
328,312,90961,2,0,P|284:308|256:296,1,70,8|4,0:0|0:0,0:0:0
144,160,91977,6,0,P|192:136|180:92|180:92|232:112|256:68|256:68|280:112|336:92|336:92|320:136|372:160,1,350,0|8,0:0|0:0,0:0:0
456,188,94010,6,0,P|412:244|340:248,1,140,4|0,0:0|0:0,0:0:0
256,236,95026,1,8,0:0:0
164,248,95365,2,0,P|88:236|56:176,2,140,0|0|4,0:0|0:0|0:0,0:0:0
344,220,97397,6,0,P|408:172|408:172|424:120|440:112,2,140,0|2|0,0:0|0:0|0:0,0:0:0
256,240,99091,1,8,0:0:0
168,220,99430,6,0,P|104:172|104:172|88:120|72:112,2,140,0|2|0,0:0|0:0|0:0,0:0:0
196,308,101124,2,0,P|256:340|320:308,1,140,8|2,0:0|0:0,0:0:0
256,192,102140,12,0,103834,0:0:0
