osu file format v11

[General]
AudioFilename: Without You.mp3
AudioLeadIn: 1500
PreviewTime: 23378
Countdown: 0
SampleSet: Soft
StackLeniency: 0.3
Mode: 0
LetterboxInBreaks: 0

[Editor]
DistanceSpacing: 1.1
BeatDivisor: 4
GridSize: 4

[Metadata]
Title:Without You (Nightcore Mix)
TitleUnicode:Without You (Nightcore Mix)
Artist:Kimura & Tube Tonic
ArtistUnicode:Kimura & Tube Tonic
Creator:BCI
Version:Gabe
Source:
Tags:Cc.K remix edit trance Black_Cherry_Ita Flask Lally Gabe
BeatmapID:211802
BeatmapSetID:74624

[Difficulty]
HPDrainRate:6
CircleSize:5
OverallDifficulty:7
ApproachRate:9
SliderMultiplier:1.6
SliderTickRate:2

[Events]
//Background and Video events
0,0,"hi zoidberi.jpg"
//Break Periods
2,48137,52690
//Storyboard Layer 0 (Background)
//Storyboard Layer 1 (Fail)
//Storyboard Layer 2 (Pass)
//Storyboard Layer 3 (Foreground)
//Storyboard Sound Samples
//Background Colour Transformations
3,100,163,162,255

[TimingPoints]
1864,338.772514256677,4,2,1,80,1,0
23545,-100,4,1,1,80,0,1
32861,-100,4,1,1,80,0,0
34386,-100,4,1,1,80,0,1
45226,-100,4,2,1,80,0,0
58777,-100,4,1,1,80,0,1
68094,-100,4,1,1,80,0,0
69618,-100,4,1,1,80,0,1
78934,-100,4,1,1,80,0,0
80459,-100,4,2,1,80,0,1
80628,-100,4,2,1,80,0,0
102479,-100,4,1,1,35,0,0
102818,-100,4,1,1,25,0,0
103156,-100,4,1,1,15,0,0
103495,-100,4,2,1,5,0,0

[Colours]
Combo1 : 41,214,140
Combo2 : 91,24,231
Combo3 : 255,0,128
SliderBorder : 218,218,218

[HitObjects]
60,100,1864,2,0,P|104:164|96:244,1,160
160,316,2372,1,0,0:0:0
236,256,2541,2,0,P|392:200,1,160,2|0,0:0|0:0,0:0:0
456,136,3049,1,0,0:0:0
352,148,3219,2,0,P|328:220|412:264,1,160,0|0,0:0|0:0,0:0:0
160,148,3896,2,0,P|184:220|100:264,1,160,2|0,0:0|0:0,0:0:0
256,352,4404,1,0,0:0:0
164,344,4574,6,0,P|96:344|40:268,1,160
0,188,5082,2,0,P|0:116|0:24,1,160
88,68,5590,2,0,P|88:156,1,80,0|0,0:0|0:0,0:0:0
140,228,5929,2,0,P|180:188|180:140|180:140|224:96,1,160
256,8,6437,1,0,0:0:0
289,97,6606,2,0,P|332:140|332:140|332:188|372:228,1,160,2|0,0:0|0:0,0:0:0
448,284,7114,1,0,0:0:0
448,284,7284,1,0,0:0:0
68,336,7961,5,2,0:0:0
36,244,8131,1,0,0:0:0
228,232,8470,2,0,P|160:212|104:272,1,160,0|0,0:0|0:0,0:0:0
188,320,8978,1,0,0:0:0
228,232,9147,2,0,P|272:72,1,160
270,77,9655,1,0,0:0:0
460,40,9994,6,0,P|440:100|460:200,1,160
368,288,10502,2,0,P|388:228|368:128,1,160
304,256,11010,2,0,P|300:296|308:336,1,80,2|0,0:0|0:0,0:0:0
208,288,11349,2,0,P|212:248|204:208,2,80
92,260,11857,2,0,P|48:80,1,160
148,132,12365,2,0,P|240:100,1,80
312,72,12704,5,0,0:0:0
256,256,13043,1,0,0:0:0
160,260,13212,2,0,P|172:304|200:336,1,80,0|2,0:0|0:0,0:0:0
318,330,13551,2,0,P|340:304|352:260,1,80,0|0,0:0|0:0,0:0:0
256,256,13890,2,0,P|256:336,2,80,0|0|0,0:0|0:0|0:0,0:0:0
256,160,14398,2,0,P|272:108|240:52|256:0,1,160,0|2,0:0|0:0,0:0:0
184,68,14906,2,0,P|192:108|192:148,1,80
328,116,15245,2,0,P|324:76|316:36,1,80
124,116,15753,5,0,0:0:0
64,192,15923,1,0,0:0:0
124,268,16092,2,0,P|160:288|176:328,1,80,2|0,0:0|0:0,0:0:0
12,248,16431,2,0,P|48:224|64:192,1,80
124,116,16769,2,0,P|256:24,1,160
388,20,17278,2,0,P|256:112,1,160
176,164,17786,2,0,P|192:208|232:248,1,80
299,233,18125,6,0,P|320:208|336:164,1,80
180,292,18463,2,0,P|256:316|332:296,1,160,0|2,0:0|0:0,0:0:0
384,216,18972,1,0,0:0:0
384,120,19141,1,0,0:0:0
384,24,19310,2,0,P|444:44|480:140,1,160
384,360,19988,2,0,P|444:340|480:244,1,160
316,192,20665,1,0,0:0:0
196,192,20835,5,0,0:0:0
256,240,21174,1,0,0:0:0
316,192,21512,1,0,0:0:0
256,144,21851,1,0,0:0:0
124,192,22190,5,0,0:0:0
256,336,22529,1,0,0:0:0
388,192,22867,1,0,0:0:0
256,196,23037,1,0,0:0:0
360,268,23206,1,8,0:0:0
320,144,23376,1,2,0:0:0
280,268,23545,6,0,P|236:268|192:300,1,80,4|0,0:0|0:0,0:0:0
422,317,23884,2,0,P|360:268,1,80,8|0,0:0|0:0,0:0:0
256,196,24222,2,0,P|176:212|108:272,1,160,0|8,0:0|0:0,0:0:0
52,332,24731,2,0,P|52:128,2,160
144,360,25578,1,0,0:0:0
248,368,25747,1,0,0:0:0
348,320,25916,1,8,0:0:0
404,216,26086,1,0,0:0:0
388,88,26255,6,0,P|308:128|300:216,1,160,0|8,0:0|0:0,0:0:0
124,88,26933,2,0,P|204:128|218:191,1,160,0|8,0:0|0:0,0:0:0
180,352,27441,2,0,P|216:312|296:384|336:340,2,160
142,275,28288,2,0,P|114:191,1,80
240,200,28627,2,0,P|214:275,1,80,8|0,0:0|0:0,0:0:0
180,352,28965,6,0,P|216:312|296:384|336:340,1,160,0|8,0:0|0:0,0:0:0
412,288,29473,1,0,0:0:0
400,192,29643,2,0,P|336:144|336:144|304:64,1,160,0|8,0:0|0:0,0:0:0
205,69,30151,2,0,P|176:144|176:144|112:192,1,160
112,191,30659,1,8,0:0:0
188,252,30829,2,0,P|256:296|256:296|324:252,1,160
256,184,31337,1,8,0:0:0
188,252,31506,1,0,0:0:0
256,368,31675,6,0,P|392:284,1,160,0|8,0:0|0:0,0:0:0
392,283,32184,2,0,P|352:216|392:156,1,160
468,96,32692,1,8,0:0:0
392,40,32861,5,2,0:0:0
256,184,33200,1,2,0:0:0
120,40,33539,1,2,0:0:0
256,184,33878,1,2,0:0:0
304,244,34047,1,8,0:0:0
256,304,34216,1,0,0:0:0
208,244,34386,6,0,P|180:172|228:112,1,160,4|8,0:0|0:0,0:0:0
352,184,34894,2,0,P|380:256|332:316,1,160
256,372,35402,1,8,0:0:0
160,356,35571,2,0,P|0:356,1,160
0,356,36080,1,8,0:0:0
48,272,36249,2,0,P|84:196|48:132,2,160
0,356,37096,6,0,P|88:356,1,80
148,288,37435,2,0,P|216:244|216:244|200:148,1,160,8|0,0:0|0:0,0:0:0
364,288,38112,2,0,P|296:244|296:244|312:148,1,160,8|0,0:0|0:0,0:0:0
328,72,38620,2,0,P|256:36|256:36|184:72,2,160
256,136,39467,5,8,0:0:0
184,196,39637,2,0,P|256:228|328:196,1,160
256,136,40145,1,8,0:0:0
176,296,40314,2,0,P|256:308|336:296,1,160
408,232,40822,1,8,0:0:0
432,148,40992,1,0,0:0:0
80,144,41330,1,0,0:0:0
104,232,41500,1,8,0:0:0
176,296,41669,5,0,0:0:0
256,36,42008,1,0,0:0:0
336,296,42347,1,0,0:0:0
88,116,42686,2,0,P|256:224|256:224|424:116,2,400,0|8|0,0:0|0:0|0:0,0:0:0
188,100,44549,2,0,P|256:144|256:144|328:100,1,160,0|8,0:0|0:0,0:0:0
256,192,45226,12,2,47937,0:0:0
476,32,53357,5,2,0:0:0
464,176,53526,2,0,P|479:140|463:104,1,80,0|8,0:0|0:0,0:0:0
396,208,53865,1,0,0:0:0
396,208,53950,1,0,0:0:0
396,208,54034,2,0,P|364:284|396:352,1,160,2|0,0:0|0:0,0:0:0
460,280,54543,6,0,P|500:280,2,40,0|0|2,0:0|0:0|0:0,0:0:0
396,208,54881,1,0,0:0:0
328,140,55051,1,8,0:0:0
256,196,55220,2,0,P|256:248,2,40,0|0|2,0:0|0:0|0:0,0:0:0
184,140,55559,1,0,0:0:0
116,208,55728,1,8,0:0:0
52,280,55898,1,0,0:0:0
184,312,56067,6,0,P|256:344|328:312,1,160,2|8,0:0|0:0,0:0:0
256,248,56575,1,0,0:0:0
184,184,56745,2,0,P|256:152|328:184,1,160,2|8,0:0|0:0,0:0:0
256,248,57253,1,0,0:0:0
256,76,57422,5,0,0:0:0
256,76,57592,1,0,0:0:0
256,76,57761,1,0,0:0:0
256,76,57930,1,0,0:0:0
256,76,58100,2,0,P|256:28,7,40,0|0|0|0|8|0|2|0,0:0|0:0|0:0|0:0|0:0|0:0|0:0|0:0,0:0:0
336,32,58777,6,0,P|404:56|440:60,1,80,6|0,0:0|0:0,0:0:0
500,16,59116,1,8,0:0:0
492,112,59285,1,2,0:0:0
412,164,59455,2,0,P|352:204|368:296,1,160,0|8,0:0|0:0,0:0:0
256,348,59963,2,0,P|256:264,1,80,0|2,0:0|0:0,0:0:0
204,132,60302,2,0,P|204:216,1,80,0|10,0:0|0:0,0:0:0
304,212,60641,1,2,0:0:0
184,284,60810,2,0,P|132:328|36:308,1,160,0|10,0:0|0:0,0:0:0
45,315,61487,5,2,0:0:0
32,124,61826,1,8,0:0:0
124,100,61996,1,2,0:0:0
152,8,62165,2,0,P|220:52|316:32,1,160,0|8,0:0|0:0,0:0:0
388,20,62673,1,0,0:0:0
448,92,62843,2,0,P|456:176,2,80,2|0|10,0:0|0:0|0:0,0:0:0
388,20,63351,1,2,0:0:0
344,104,63520,2,0,P|312:176|244:236,1,160,0|10,0:0|0:0,0:0:0
64,260,64198,6,0,P|40:224|44:180,1,80,2|0,0:0|0:0,0:0:0
144,264,64536,2,0,P|168:300|164:344,1,80,8|2,0:0|0:0,0:0:0
72,328,64875,1,2,0:0:0
256,380,65214,1,8,0:0:0
336,328,65383,1,0,0:0:0
336,232,65553,2,0,P|356:156|336:76,1,160,2|8,0:0|0:0,0:0:0
256,132,66061,1,2,0:0:0
174,78,66230,2,0,P|156:156|176:232,1,160,2|8,0:0|0:0,0:0:0
336,328,66908,6,0,P|404:376,1,80,2|0,0:0|0:0,0:0:0
176,328,67247,2,0,P|108:376,1,80,8|2,0:0|0:0,0:0:0
256,352,67585,2,0,P|240:304|276:248|256:192,1,160,2|8,0:0|0:0,0:0:0
256,193,68094,5,2,0:0:0
220,124,68432,1,2,0:0:0
256,56,68771,1,2,0:0:0
292,124,69110,1,2,0:0:0
256,193,69449,1,2,0:0:0
324,228,69618,6,0,P|256:264|188:228,1,160,6|8,0:0|0:0,0:0:0
256,193,70126,1,2,0:0:0
360,164,70296,2,0,P|392:220|332:304,1,160,2|8,0:0|0:0,0:0:0
256,332,70804,1,0,0:0:0
162,297,70973,2,0,P|124:312|88:344,1,80,2|0,0:0|0:0,0:0:0
4,368,71312,1,8,0:0:0
4,368,71481,1,2,0:0:0
24,276,71651,2,0,P|36:192|0:128,1,160,2|8,0:0|0:0,0:0:0
168,32,72328,5,2,0:0:0
256,72,72498,1,0,0:0:0
172,120,72667,2,0,P|156:160|164:200,2,80,8|2|2,0:0|0:0|0:0,0:0:0
172,120,73345,1,8,0:0:0
256,72,73514,1,0,0:0:0
348,92,73683,2,0,P|408:132|492:120,1,160,2|8,0:0|0:0,0:0:0
432,44,74191,1,2,0:0:0
400,204,74361,2,0,P|366:267|387:350,1,160,2|8,0:0|0:0,0:0:0
386,349,75038,5,2,0:0:0
256,212,75377,2,0,P|256:112,1,80,8|2,0:0|0:0,0:0:0
200,56,75716,2,0,P|128:92|128:92|64:172,1,160,2|8,0:0|0:0,0:0:0
78,154,76224,1,0,0:0:0
78,229,76393,2,0,P|128:292|128:292|200:328,1,160,2|8,0:0|0:0,0:0:0
284,372,76902,2,0,P|288:320|280:280,1,80,2|2,0:0|0:0,0:0:0
283,292,77410,1,8,0:0:0
228,12,77749,6,0,P|216:72|232:172,1,160,2|8,0:0|0:0,0:0:0
324,200,78257,1,2,0:0:0
324,200,78426,1,2,0:0:0
256,192,78595,12,4,80459,0:0:0
256,192,80797,5,8,0:0:0
140,40,81136,2,0,P|180:32|220:56,1,80
304,80,81475,2,0,P|344:88|384:64,1,80,8|0,0:0|0:0,0:0:0
213,48,81814,2,0,P|208:120|256:192,1,160,0|8,0:0|0:0,0:0:0
348,164,82322,2,0,P|308:320,1,160
308,318,82830,1,8,0:0:0
220,352,83000,1,0,0:0:0
136,308,83169,6,0,P|116:252|20:248,1,160,0|8,0:0|0:0,0:0:0
68,296,83677,2,0,P|112:216|84:160,1,160
132,76,84185,2,0,P|184:144,1,80,8|0,0:0|0:0,0:0:0
308,200,84524,2,0,P|212:68,1,160,0|8,0:0|0:0,0:0:0
132,76,85032,2,0,P|73:89|47:206,1,160
112,236,85540,2,0,P|128:192|116:160,1,80,8|0,0:0|0:0,0:0:0
117,162,85879,5,0,0:0:0
256,296,86218,1,8,0:0:0
394,162,86557,1,0,0:0:0
256,296,86895,1,8,0:0:0
256,296,87065,1,0,0:0:0
160,332,87234,2,0,P|156:264|224:200,1,160,0|8,0:0|0:0,0:0:0
296,200,87742,2,0,P|358:262|354:330,1,160
256,296,88250,1,8,0:0:0
256,104,88589,6,0,P|424:152,1,160,0|8,0:0|0:0,0:0:0
102,147,89267,2,0,P|256:104,1,160,0|8,0:0|0:0,0:0:0
256,104,89775,1,0,0:0:0
256,104,89944,5,0,0:0:0
256,328,90453,1,0,0:0:0
256,328,90537,1,0,0:0:0
256,328,90622,1,0,0:0:0
388,328,90876,1,0,0:0:0
388,196,91130,1,0,0:0:0
256,196,91299,6,0,P|176:224|136:300,1,160,4|8,0:0|0:0,0:0:0
64,344,91808,2,0,P|56:240,1,80
12,128,92146,2,0,P|18:207,1,80,0|8,0:0|0:0,0:0:0
18,207,92485,1,0,0:0:0
88,120,92655,2,0,P|164:44|239:121,2,240,0|0|8,0:0|0:0|0:0,0:0:0
148,192,93840,1,0,0:0:0
100,276,94010,6,0,P|128:352|128:352|216:376,1,160,0|8,0:0|0:0,0:0:0
204,232,94518,2,0,P|224:320,1,80
290,310,94857,2,0,P|308:232,1,80,0|8,0:0|0:0,0:0:0
412,276,95195,1,0,0:0:0
412,276,95365,2,0,P|384:352|384:352|296:376,2,160,0|8|0,0:0|0:0|0:0,0:0:0
452,88,96381,1,8,0:0:0
272,20,96720,6,0,P|264:100|296:184,1,160,0|8,0:0|0:0,0:0:0
240,364,97397,2,0,P|248:284|216:200,1,160,0|8,0:0|0:0,0:0:0
128,188,97906,1,0,0:0:0
164,268,98075,2,0,P|248:280|300:220,2,160,0|8|0,0:0|0:0|0:0,0:0:0
92,100,99091,1,8,0:0:0
256,200,99430,5,0,0:0:0
308,140,99769,1,8,0:0:0
256,80,100108,1,0,0:0:0
204,140,100446,1,8,0:0:0
204,140,100616,5,0,0:0:0
256,324,100954,1,0,0:0:0
308,140,101293,1,0,0:0:0
112,168,101632,1,0,0:0:0
256,328,101801,1,8,0:0:0
400,168,101971,1,2,0:0:0
256,192,102140,12,0,103495,0:0:0
