osu file format v11

[General]
AudioFilename: Without You.mp3
AudioLeadIn: 1500
PreviewTime: 23378
Countdown: 0
SampleSet: Normal
StackLeniency: 0.3
Mode: 0
LetterboxInBreaks: 0

[Editor]
DistanceSpacing: 1
BeatDivisor: 2
GridSize: 4

[Metadata]
Title:Without You (Nightcore Mix)
TitleUnicode:Without You (Nightcore Mix)
Artist:Kimura & Tube Tonic
ArtistUnicode:Kimura & Tube Tonic
Creator:BCI
Version:Flask
Source:
Tags:Cc.K remix edit trance Black_Cherry_Ita Flask Lally Gabe
BeatmapID:211801
BeatmapSetID:74624

[Difficulty]
HPDrainRate:3
CircleSize:3
OverallDifficulty:4
ApproachRate:5
SliderMultiplier:1
SliderTickRate:1

[Events]
//Background and Video events
0,0,"hi zoidberi.jpg"
//Break Periods
2,48137,52157
//Storyboard Layer 0 (Background)
//Storyboard Layer 1 (Fail)
//Storyboard Layer 2 (Pass)
//Storyboard Layer 3 (Foreground)
//Storyboard Sound Samples
//Background Colour Transformations
3,100,163,162,255

[TimingPoints]
1864,338.772514256677,4,2,1,80,1,0
23545,-100,4,1,1,80,0,1
32861,-100,4,1,1,80,0,0
34386,-100,4,1,1,80,0,1
45226,-100,4,2,1,80,0,0
58777,-100,4,1,1,80,0,1
68094,-100,4,1,1,80,0,0
69618,-100,4,1,1,80,0,1
79104,-100,4,1,1,80,0,0
80459,-100,4,2,1,80,0,1
80628,-100,4,2,1,80,0,0
102479,-100,4,1,1,35,0,0
102818,-100,4,1,1,25,0,0
103156,-100,4,1,1,15,0,0
103495,-100,4,2,1,5,0,0

[Colours]
Combo1 : 41,214,140
Combo2 : 91,24,231
Combo3 : 255,0,128
SliderBorder : 218,218,218

[HitObjects]
108,76,1863,6,0,P|184:76|184:76|252:24|316:72|316:72|412:72,1,300,2|0,0:0|0:0,0:0:0
400,172,3219,2,0,P|324:172|324:172|256:224|192:176|192:176|96:176,1,300,2|0,0:0|0:0,0:0:0
12,180,4574,2,0,P|4:236|44:280|108:280|108:280|156:284,1,200,2|0,0:0|0:0,0:0:0
364,284,5929,2,0,P|404:280|404:280|468:280|508:236|500:180,1,200,2|0,0:0|0:0,0:0:0
512,80,6945,2,0,P|468:72|428:112,1,100,0|2,0:0|0:0,0:0:0
368,292,7961,6,0,P|372:340|372:340|340:332|304:340,1,100
256,260,8639,1,2,0:0:0
191,337,8978,2,0,P|172:332|140:340|140:340|144:292,1,100
160,192,9655,5,0,0:0:0
92,120,9994,2,0,P|120:80|108:28|108:28|148:64|208:52,1,200,2|0,0:0|0:0,0:0:0
256,140,11010,1,0,0:0:0
307,52,11349,2,0,P|364:64|404:28|404:28|392:80|420:120,1,200,2|0,0:0|0:0,0:0:0
480,200,12365,2,0,P|488:252|476:304,1,100,0|2,0:0|0:0,0:0:0
400,360,13043,5,0,0:0:0
304,336,13382,2,0,P|256:352|212:336,1,100,8|0,0:0|0:0,0:0:0
168,244,14059,2,0,P|256:200|352:252,2,200,8|8|8,0:0|0:0|0:0,0:0:0
56,76,16092,1,8,0:0:0
148,40,16431,1,0,0:0:0
240,80,16769,6,0,P|312:72|332:152|332:152|408:152,2,200,8|8|8,0:0|0:0|0:0,0:0:0
56,148,18802,2,0,P|20:192|16:244,1,100,8|0,0:0|0:0,0:0:0
16,332,19480,2,0,P|68:332|112:284|112:232|112:232|176:232,1,200,8|8,0:0|0:0,0:0:0
256,212,20496,1,8,0:0:0
352,184,20835,5,8,0:0:0
291,104,21173,1,8,0:0:0
190,103,21512,1,8,0:0:0
127,180,21851,1,8,0:0:0
148,278,22190,1,8,0:0:0
237,323,22528,1,8,0:0:0
328,281,22867,1,8,0:0:0
396,208,23206,2,0,P|424:252|420:312,1,100,8|0,0:0|0:0,0:0:0
328,280,23884,6,0,P|240:328|160:268,1,200,8|8,0:0|0:0,0:0:0
168,180,24900,2,0,P|156:136|108:108,1,100,0|8,0:0|0:0,0:0:0
76,204,25578,2,0,P|32:233|17:279,1,100,0|8,0:0|0:0,0:0:0
116,288,26255,6,0,P|188:288|188:288|252:336|312:300,1,200
260,216,27271,1,8,0:0:0
212,128,27610,2,0,P|267:94|331:142|331:142|403:142,1,200
476,72,28627,1,8,1:0:0
484,172,28965,6,0,P|488:216|488:216|480:248|480:248|480:280,1,100,0|8,0:0|0:0,0:0:0
380,280,29643,2,0,P|376:236|376:236|384:204|384:204|384:172,1,100,0|8,0:0|0:0,0:0:0
332,96,30320,2,0,P|308:44|256:40|256:40|192:44|176:104,1,200
256,160,31337,1,8,0:0:0
176,220,31675,6,0,P|200:272|252:276|252:276|316:272|332:212,1,200
396,148,32692,2,0,P|448:124,1,50,8|0,0:0|0:0,0:0:0
416,28,33200,1,0,0:0:0
512,60,33539,1,0,0:0:0
441,127,33878,2,0,P|488:176,1,50,0|8,0:0|0:0,0:0:0
492,260,34386,5,0,0:0:0
464,356,34724,2,0,P|400:352|380:280|380:280|380:192,1,200,8|8,0:0|0:0,0:0:0
324,120,35741,1,0,0:0:0
268,200,36080,2,0,P|268:277|268:277|248:349|184:353,1,200,8|8,0:0|0:0,0:0:0
88,324,37096,6,0,P|116:280|164:260,1,100,0|8,0:0|0:0,0:0:0
260,264,37773,2,0,P|302:283|330:327,1,100,0|8,0:0|0:0,0:0:0
428,340,38451,2,0,P|392:232|320:180,1,200
256,108,39467,1,8,0:0:0
186,182,39806,6,0,P|120:232|84:340,1,200,0|0,0:0|0:0,0:0:0
180,368,40822,1,8,0:0:0
220,276,41161,1,0,0:0:0
292,364,41500,2,0,P|320:312,1,50,8|0,0:0|0:0,0:0:0
288,224,42008,1,0,0:0:0
388,244,42347,1,0,0:0:0
399,342,42686,6,0,P|480:324|476:232|476:232|476:124,1,250,0|8,0:0|0:0,0:0:0
456,32,43871,2,0,P|375:50|379:142|379:142|379:250,1,250
380,244,44888,5,8,1:0:0
256,192,45226,12,4,47937,0:0:0
256,192,53357,12,4,58777,0:0:0
56,296,59455,6,0,P|55:249|83:205,1,100,0|8,0:0|0:0,0:0:0
80,112,60132,2,0,P|152:108|176:184|176:184|200:120,1,200
256,36,61149,1,8,0:0:0
356,40,61487,6,0,P|408:48|456:32,1,100,0|8,0:0|0:0,0:0:0
496,124,62165,2,0,P|463:165|452:214,1,100,0|8,0:0|0:0,0:0:0
456,312,62843,2,0,P|384:316|360:240|360:240|336:304,1,200,0|0,0:0|0:0,0:0:0
256,364,63859,1,8,0:0:0
172,312,64198,5,0,0:0:0
88,364,64536,1,8,0:0:0
8,304,64875,2,0,P|4:252|32:208,1,100,0|8,0:0|0:0,0:0:0
68,120,65553,2,0,P|152:164|212:84,1,200
292,40,66569,1,8,0:0:0
320,136,66908,6,0,P|312:192|340:232,1,100,0|8,0:0|0:0,0:0:0
412,164,67585,1,0,0:0:0
416,264,67924,2,0,P|416:328,1,50,8|2,0:0|0:0,0:0:0
416,314,68432,5,2,0:0:0
416,314,68771,1,2,0:0:0
416,312,69110,2,0,P|308:352,1,100,2|2,0:0|0:0,0:0:0
276,356,69618,6,0,P|228:368|180:352,1,100,0|8,0:0|0:0,0:0:0
184,252,70296,2,0,P|232:240|280:256,1,100,0|8,0:0|0:0,0:0:0
334,167,70973,2,0,P|229:137|134:162,1,200
48,192,71989,1,8,0:0:0
96,280,72328,6,0,P|144:284|188:248,1,100,0|8,0:0|0:0,0:0:0
284,256,73006,2,0,P|324:285|372:281,1,100,0|8,0:0|0:0,0:0:0
472,296,73683,2,0,P|480:204|392:184|392:184|404:128,1,200,0|0,0:0|0:0,0:0:0
428,44,74700,1,8,0:0:0
328,44,75038,6,0,P|304:148,1,100,0|8,0:0|0:0,0:0:0
206,141,75716,2,0,P|184:44,1,100,0|8,0:0|0:0,0:0:0
84,48,76393,2,0,P|108:148|108:148|116:208|172:228,1,200
256,252,77410,1,8,0:0:0
312,336,77749,6,0,P|348:308|360:252,1,100,0|8,0:0|0:0,0:0:0
360,156,78426,2,0,P|347:104|311:76,1,100,0|8,0:0|0:0,0:0:0
216,52,79104,2,0,P|164:52,1,50,0|2,0:0|0:0,0:0:0
76,8,79612,5,2,0:0:0
8,84,79951,1,2,0:0:0
100,124,80289,2,0,P|84:180,1,50,2|0,0:0|0:0,0:0:0
8,232,80797,5,8,0:0:0
100,268,81136,2,0,P|152:368,1,100,0|8,0:0|0:0,0:0:0
240,328,81814,2,0,P|192:232|192:232|244:232|280:180,2,200
336,296,83508,1,8,0:0:0
392,380,83846,2,0,P|425:350|442:298,1,100,0|8,0:0|0:0,0:0:0
412,204,84524,6,0,P|404:100|480:48,2,200,0|0|0,0:0|0:0|0:0,0:0:0
496,148,86218,1,8,0:0:0
400,120,86557,2,0,P|296:84,1,100,0|8,0:0|0:0,0:0:0
208,68,87234,2,0,P|188:136|248:172|248:172|336:208,2,200
120,20,88928,1,8,0:0:0
108,120,89267,2,0,P|116:172|152:216,1,100,0|8,0:0|0:0,0:0:0
228,264,89944,5,0,0:0:0
328,280,90283,2,0,P|380:312,1,50,8|0,0:0|0:0,0:0:0
416,324,90622,2,0,P|456:340|492:340,2,75,0|8|0,0:0|0:0|0:0,0:0:0
416,272,91299,5,4,0:0:0
432,172,91638,1,8,0:0:0
372,92,91977,2,0,P|332:60|280:60,1,100,0|8,0:0|0:0,0:0:0
184,72,92655,2,0,P|192:136|248:156|248:156|248:248,2,200
96,24,94348,1,8,0:0:0
96,124,94687,2,0,P|112:176|148:208,1,100,0|8,0:0|0:0,0:0:0
92,292,95365,6,0,P|192:304|244:228,2,200
12,228,97059,1,8,0:0:0
88,164,97397,2,0,P|132:132|184:148,1,100,0|8,0:0|0:0,0:0:0
216,48,98075,2,0,P|112:32|28:80,1,200
4,172,99091,1,8,0:0:0
104,160,99430,5,8,0:0:0
196,121,99769,1,8,0:0:0
288,159,100108,1,8,0:0:0
327,252,100446,1,8,0:0:0
304,296,100616,5,8,0:0:0
228,360,100954,1,8,0:0:0
128,348,101293,1,8,0:0:0
72,264,101632,2,0,P|67:212|39:168,1,100,8|0,0:0|0:0,0:0:0
44,120,102140,5,12,3:0:0
256,192,102310,12,0,103834,0:0:0
