osu file format v11

[General]
AudioFilename: Without You.mp3
AudioLeadIn: 1500
PreviewTime: 23378
Countdown: 0
SampleSet: Soft
StackLeniency: 0.3
Mode: 0
LetterboxInBreaks: 0

[Editor]
DistanceSpacing: 1.1
BeatDivisor: 4
GridSize: 4

[Metadata]
Title:Without You (Nightcore Mix)
TitleUnicode:Without You (Nightcore Mix)
Artist:Kimura & Tube Tonic
ArtistUnicode:Kimura & Tube Tonic
Creator:BCI
Version:BCI
Source:
Tags:Cc.K remix edit trance Black_Cherry_Ita Flask Lally Gabe
BeatmapID:211800
BeatmapSetID:74624

[Difficulty]
HPDrainRate:5
CircleSize:4
OverallDifficulty:6
ApproachRate:8
SliderMultiplier:1.4
SliderTickRate:2

[Events]
//Background and Video events
0,0,"hi zoidberi.jpg"
//Break Periods
2,48137,52607
//Storyboard Layer 0 (Background)
//Storyboard Layer 1 (Fail)
//Storyboard Layer 2 (Pass)
//Storyboard Layer 3 (Foreground)
//Storyboard Sound Samples
//Background Colour Transformations
3,100,163,162,255

[TimingPoints]
1864,338.772514256677,4,2,1,80,1,0
23545,-100,4,1,1,80,0,1
32861,-100,4,1,1,80,0,0
34386,-100,4,1,1,80,0,1
45226,-100,4,2,1,80,0,0
58777,-100,4,1,1,80,0,1
68094,-100,4,1,1,80,0,0
69618,-100,4,1,1,80,0,1
78934,-100,4,1,1,80,0,0
80459,-100,4,2,1,80,0,1
80628,-100,4,2,1,80,0,0
102479,-100,4,1,1,35,0,0
102818,-100,4,1,1,25,0,0
103156,-100,4,1,1,15,0,0
103495,-100,4,2,1,5,0,0

[Colours]
Combo1 : 41,214,140
Combo2 : 91,24,231
Combo3 : 255,0,128
SliderBorder : 218,218,218

[HitObjects]
64,100,1863,6,0,P|52:176,1,70
128,176,2202,2,0,P|140:92,1,70,0|0,0:0|0:0,0:0:0
208,76,2541,2,0,P|264:44|348:84,1,140,0|0,0:0|0:0,0:0:0
276,116,3049,2,0,P|324:140|408:88,2,140,0|0|0,0:0|0:0|0:0,0:0:0
232,180,3896,2,0,P|264:200|288:208|288:208|304:248|288:288,1,140,0|0,0:0|0:0,0:0:0
256,352,4404,1,0,0:0:0
184,328,4574,6,0,P|116:304|128:368|44:336,1,140,0|0,0:0|0:0,0:0:0
80,268,5082,2,0,P|56:204|80:132,1,140
120,76,5590,2,0,P|188:92,1,70,0|0,0:0|0:0,0:0:0
252,136,5929,2,0,P|272:104|264:72|264:72|296:44|340:56,1,140,0|0,0:0|0:0,0:0:0
400,88,6437,1,0,0:0:0
468,124,6606,2,0,P|500:144|500:144|524:196|476:248,2,140,0|0|0,0:0|0:0|0:0,0:0:0
176,28,7961,6,0,P|132:44|116:72,2,70,0|0|0,0:0|0:0|0:0,0:0:0
180,104,8470,2,0,P|116:84|56:144,1,140,0|0,0:0|0:0,0:0:0
132,160,8978,1,0,0:0:0
80,216,9147,2,0,P|144:236|204:176,1,140,0|0,0:0|0:0,0:0:0
252,140,9655,2,0,P|284:124|328:132,1,70,0|0,0:0|0:0,0:0:0
300,204,9994,6,0,P|452:192,1,140,0|0,0:0|0:0,0:0:0
448,268,10502,2,0,P|308:280,1,140
236,252,11010,2,0,P|232:292|240:324,1,70,0|0,0:0|0:0,0:0:0
156,288,11349,2,0,P|160:248|152:216,1,70
148,208,11603,1,0,0:0:0
144,200,11688,1,0,0:0:0
96,140,11857,1,0,0:0:0
100,132,11942,1,0,0:0:0
104,124,12027,2,0,P|244:116,2,140,0|0|8,0:0|0:0|0:0,0:0:0
316,220,13212,6,0,P|328:264|348:288,1,70,0|8,0:0|0:0,0:0:0
464,252,13551,2,0,P|468:216|456:176,1,70,0|0,0:0|0:0,0:0:0
376,156,13890,2,0,P|393:223,2,70,0|8|0,0:0|0:0|0:0,0:0:0
428,100,14398,2,0,P|384:80|304:132,1,140,0|8,0:0|0:0,0:0:0
232,124,14906,2,0,P|160:120,2,70,0|0|0,0:0|0:0|0:0,0:0:0
256,196,15414,2,0,P|104:188,1,140,8|0,0:0|0:0,0:0:0
48,228,15923,1,0,0:0:0
96,288,16092,6,0,P|128:308|144:336,1,70,8|0,0:0|0:0,0:0:0
220,356,16431,2,0,P|256:360|300:356,1,70
368,336,16769,2,0,P|384:308|416:288,1,70,8|0,0:0|0:0,0:0:0
492,268,17108,2,0,P|428:272|424:200,1,140,0|8,0:0|0:0,0:0:0
432,132,17616,1,0,0:0:0
448,56,17786,2,0,P|352:52|352:52|324:76|308:76,1,140,0|8,0:0|0:0,0:0:0
256,128,18294,1,0,0:0:0
200,76,18463,6,0,P|190:76|164:48|164:48|68:52,1,140,0|8,0:0|0:0,0:0:0
24,116,18972,1,0,0:0:0
56,188,19141,1,0,0:0:0
96,252,19310,2,0,P|152:260|184:332,1,140,0|0,0:0|0:0,0:0:0
260,348,19818,1,0,0:0:0
324,308,19988,2,0,P|472:320,2,140,0|0|0,0:0|0:0|0:0,0:0:0
256,192,20835,12,8,23206,0:0:0
256,192,23545,6,0,P|112:220,1,140,4|8,0:0|0:0,0:0:0
48,192,24053,1,0,0:0:0
100,132,24222,2,0,P|120:84|212:76,1,140,0|8,0:0|0:0,0:0:0
276,88,24731,2,0,P|324:92|344:104|344:104|372:80|420:88,1,140
396,164,25239,1,8,0:0:0
472,184,25408,2,0,P|444:228|352:232,2,140,0|0|0,0:0|0:0|0:0,0:0:0
396,164,26255,6,0,P|344:160|284:240,1,140,0|8,0:0|0:0,0:0:0
240,280,26763,1,0,0:0:0
200,344,26933,2,0,P|124:316|124:316|92:324|64:308,1,140,0|8,0:0|0:0,0:0:0
96,240,27441,2,0,P|104:96,1,140
172,68,27949,1,8,0:0:0
240,104,28118,2,0,P|232:243,1,140
284,308,28627,2,0,P|324:312|360:304,1,70,8|0,0:0|0:0,0:0:0
316,240,28965,6,0,P|388:272|448:232,1,140,4|8,0:0|0:0,0:0:0
380,196,29473,1,0,0:0:0
440,148,29643,2,0,P|390:122|318:154,1,140,0|8,0:0|0:0,0:0:0
252,196,30151,2,0,P|228:188|204:196|204:196|180:188|156:196|156:196|104:196,1,140
88,124,30659,1,8,0:0:0
72,48,30829,2,0,P|112:44|140:64|140:64|168:44|216:48,1,140
188,124,31337,2,0,P|220:124|264:100,1,70,8|0,0:0|0:0,0:0:0
300,48,31675,6,0,P|328:88|300:172,1,140,0|8,0:0|0:0,0:0:0
254,109,32184,2,0,P|413:133,1,140
468,104,32692,1,8,0:0:0
452,180,32861,2,0,P|460:216|460:216|452:248|452:248|468:280|460:340,2,140,8|8|8,0:0|0:0|0:0,0:0:0
332,280,33878,2,0,P|312:244|272:228,2,70,0|8|0,0:0|0:0|0:0,0:0:0
256,300,34386,5,4,0:0:0
188,336,34555,1,0,0:0:0
120,300,34724,1,8,0:0:0
120,300,34894,2,0,P|104:232|120:164,1,140
188,128,35402,1,8,0:0:0
188,128,35571,6,0,P|256:108|256:160|332:132,1,140
388,92,36080,1,8,0:0:0
388,92,36249,2,0,P|400:128|352:212,1,140
296,264,36757,1,8,0:0:0
296,264,36926,6,0,P|236:276|236:276|184:260|148:268,1,140
100,216,37435,1,8,0:0:0
100,216,37604,2,0,P|60:148,1,70
168,188,37943,2,0,P|176:116,1,70,0|8,0:0|0:0,0:0:0
132,56,38282,6,0,P|188:104|244:60,1,140
312,60,38790,1,8,0:0:0
312,60,38959,2,0,P|468:60,1,140
504,116,39467,1,8,0:0:0
504,116,39637,6,0,P|480:188|412:196,1,140
372,260,40145,1,8,0:0:0
372,260,40314,2,0,P|400:184|364:132,1,140
324,200,40822,1,8,0:0:0
324,200,40992,6,0,P|260:180|260:228|184:200,1,140
148,136,41500,1,8,0:0:0
148,136,41669,2,0,P|112:192|156:272,1,140
196,304,42177,1,8,0:0:0
196,304,42347,6,0,P|292:328|384:252,1,210,0|8,0:0|0:0,0:0:0
424,204,43024,1,0,0:0:0
424,204,43194,2,0,P|456:140|456:140|424:68,1,140,0|8,0:0|0:0,0:0:0
352,76,43702,6,0,P|300:108|224:68,1,140
160,96,44210,1,8,0:0:0
108,152,44379,2,0,P|68:288,1,140
28,352,44888,1,8,0:0:0
104,352,45057,1,0,0:0:0
256,192,45226,12,2,47937,0:0:0
256,192,53357,12,0,55728,0:0:0
256,192,56067,12,8,58439,0:0:0
256,192,58777,6,0,P|256:44,1,140,6|8,0:0|0:0,0:0:0
256,52,59285,1,2,0:0:0
180,48,59455,2,0,P|120:48|120:112|52:112,1,140,2|8,0:0|0:0,0:0:0
59,111,59963,1,0,0:0:0
24,180,60132,2,0,P|72:204|72:292,1,140,2|10,0:0|0:0,0:0:0
78,283,60641,1,2,0:0:0
148,320,60810,2,0,P|304:336,1,140,0|10,0:0|0:0,0:0:0
360,308,61318,1,0,0:0:0
368,304,61403,1,0,0:0:0
376,300,61487,6,0,P|404:236|368:172,1,140,2|8,0:0|0:0,0:0:0
320,120,61996,1,2,0:0:0
396,100,62165,2,0,P|356:52|264:68,1,140,2|8,0:0|0:0,0:0:0
228,108,62673,1,0,0:0:0
156,136,62843,2,0,P|128:128|128:128|100:140|100:140|56:120|16:140,1,140,2|8,0:0|0:0,0:0:0
60,204,63351,1,2,0:0:0
12,264,63520,2,0,P|48:280|132:228,1,140,2|10,0:0|0:0,0:0:0
252,328,64198,6,0,P|392:328,1,140,2|8,0:0|0:0,0:0:0
448,272,64706,1,2,0:0:0
448,272,64875,2,0,P|460:204|420:144,1,140,2|8,0:0|0:0,0:0:0
388,216,65383,1,0,0:0:0
388,216,65553,2,0,P|360:184|352:152,1,70,2|0,0:0|0:0,0:0:0
248,100,65892,2,0,P|272:132|280:164,1,70,8|2,0:0|0:0,0:0:0
204,168,66230,2,0,P|260:176|304:256,1,140,2|10,0:0|0:0,0:0:0
228,244,66738,1,0,0:0:0
168,292,66908,6,0,P|108:292|108:292|88:296|88:296|20:296,1,140,2|8,0:0|0:0,0:0:0
28,220,67416,1,2,0:0:0
172,192,67585,2,0,P|138:207|93:206,1,70,2|0,0:0|0:0,0:0:0
55,149,67924,2,0,P|85:131|118:136,1,70,8|2,0:0|0:0,0:0:0
256,120,68432,5,2,0:0:0
256,148,68771,1,2,0:0:0
256,176,69110,1,2,0:0:0
256,204,69449,1,2,0:0:0
256,212,69533,1,0,0:0:0
256,220,69618,6,0,P|304:244|388:224,1,140,6|8,0:0|0:0,0:0:0
385,225,70126,1,2,0:0:0
420,296,70296,2,0,P|368:320|272:312,1,140,2|8,0:0|0:0,0:0:0
286,317,70804,1,0,0:0:0
216,288,70973,2,0,P|172:272|148:292|148:292|104:312|60:284,1,140,2|8,0:0|0:0,0:0:0
81,295,71481,1,2,0:0:0
112,224,71651,2,0,P|128:84,1,140,2|10,0:0|0:0,0:0:0
200,56,72159,1,0,0:0:0
212,56,72243,1,0,0:0:0
224,56,72328,6,0,P|268:88|344:44,1,140,2|8,0:0|0:0,0:0:0
404,96,72836,1,2,0:0:0
484,140,73006,2,0,P|512:200|456:220|492:288,1,140,2|8,0:0|0:0,0:0:0
412,316,73514,1,0,0:0:0
336,300,73683,2,0,P|288:296|260:304|260:304|232:296|176:300,1,140,2|8,0:0|0:0,0:0:0
136,344,74191,1,2,0:0:0
92,280,74361,2,0,P|96:200,1,70,2|0,0:0|0:0,0:0:0
28,172,74700,2,0,P|64:140|160:172,1,140,10|2,0:0|0:0,0:0:0
288,88,75377,6,0,P|324:80|360:88,1,70,8|2,0:0|0:0,0:0:0
320,156,75716,2,0,P|364:104|428:132,1,140,2|8,0:0|0:0,0:0:0
436,200,76224,1,0,0:0:0
448,276,76393,2,0,P|368:284|368:284|344:300|304:292,1,140,2|8,0:0|0:0,0:0:0
256,236,76902,1,0,0:0:0
209,177,77071,2,0,P|244:161|289:173,1,70,2|0,0:0|0:0,0:0:0
310,293,77410,2,0,P|271:309|234:303,1,70,10|0,0:0|0:0,0:0:0
256,236,77749,6,0,P|184:252|184:252|108:236,1,140,2|8,0:0|0:0,0:0:0
52,200,78257,1,2,0:0:0
120,160,78426,2,0,P|184:146|184:146|256:162,1,140,2|8,0:0|0:0,0:0:0
324,196,78934,5,2,0:0:0
352,196,79273,1,2,0:0:0
380,196,79612,1,2,0:0:0
408,196,79951,1,2,0:0:0
436,196,80289,1,2,0:0:0
444,196,80374,1,0,0:0:0
452,196,80459,6,0,P|480:240|448:328,2,140,4|8|0,0:0|0:0|0:0,0:0:0
404,260,81306,2,0,P|364:264|332:260,1,70,0|8,0:0|0:0,0:0:0
264,228,81644,2,0,P|236:220|200:228|200:228|172:200|124:208,1,140
144,284,82153,1,8,0:0:0
180,352,82322,2,0,P|128:360|68:300,1,140
44,232,82830,1,8,0:0:0
48,156,83000,6,0,P|60:128|96:108|96:108|176:80,1,140
224,40,83508,2,0,P|300:44,1,70,8|0,0:0|0:0,0:0:0
232,112,83846,2,0,P|316:140,1,70
168,160,84185,2,0,P|232:212,1,70,8|0,0:0|0:0,0:0:0
172,264,84524,2,0,P|224:280|276:256,1,105
276,256,84863,2,0,P|352:252,1,70,8|0,0:0|0:0,0:0:0
324,328,85202,2,0,P|370:326|370:326|401:318|416:288,1,105
420,280,85540,2,0,P|424:236|416:212,1,70,8|0,0:0|0:0,0:0:0
480,112,85879,6,0,P|476:148|484:180,2,70,0|0|8,0:0|0:0|0:0,0:0:0
428,56,86387,1,0,0:0:0
360,92,86557,2,0,P|216:84,1,140,0|8,0:0|0:0,0:0:0
144,68,87065,2,0,P|120:104|120:104|72:132|80:188,1,140
156,176,87573,1,8,0:0:0
200,240,87742,2,0,P|228:196|232:168,1,70
212,104,88081,2,0,P|248:160|308:136,1,140
384,128,88589,6,0,P|416:136|452:128|452:128|444:164|460:200,1,140,0|8,0:0|0:0,0:0:0
432,268,89097,1,0,0:0:0
404,340,89267,2,0,P|336:352,1,70
288,284,89606,2,0,P|360:272,2,70,8|0|0,0:0|0:0|0:0,0:0:0
220,320,90114,1,0,0:0:0
148,296,90283,1,8,0:0:0
76,264,90453,1,0,0:0:0
68,260,90537,1,0,0:0:0
60,256,90622,2,0,P|40:200|68:148,2,105,8|8|8,0:0|0:0|0:0,0:0:0
116,204,91299,6,0,P|128:164|72:84,1,140,4|8,0:0|0:0,0:0:0
136,36,91808,1,0,0:0:0
204,68,91977,2,0,P|272:92|336:68,1,140,0|8,0:0|0:0,0:0:0
412,60,92485,2,0,P|448:48|484:48,2,70
456,124,92993,2,0,P|428:188|484:188|452:264,1,140,8|0,0:0|0:0,0:0:0
388,220,93501,1,0,0:0:0
332,272,93671,2,0,P|312:228|360:148,1,140,8|0,0:0|0:0,0:0:0
324,80,94179,5,0,0:0:0
256,116,94348,1,8,0:0:0
188,80,94518,1,0,0:0:0
120,116,94687,2,0,P|80:112|48:116,1,70
52,192,95026,2,0,P|84:196|124:192,1,70,8|0,0:0|0:0,0:0:0
192,228,95365,2,0,P|256:200|324:236,1,140,0|8,0:0|0:0,0:0:0
256,272,95873,1,0,0:0:0
316,320,96042,2,0,P|254:345|192:312,2,140,0|8|0,0:0|0:0|0:0,0:0:0
376,272,96889,5,0,0:0:0
400,200,97059,1,8,0:0:0
420,124,97228,1,0,0:0:0
480,76,97397,2,0,P|408:108|368:52,1,140,0|8,0:0|0:0,0:0:0
296,60,97906,2,0,P|144:80,1,140
96,124,98414,1,8,0:0:0
136,188,98583,2,0,P|172:228|128:332,2,140,0|0|0,0:0|0:0|0:0,0:0:0
104,256,99430,6,0,P|192:236|192:236|260:236,1,140,0|8,0:0|0:0,0:0:0
316,212,99938,1,0,0:0:0
380,260,100108,2,0,P|392:196|328:132,1,140,0|8,0:0|0:0,0:0:0
392,76,100616,6,8,P|336:64|272:136,1,140,8|0,0:0|0:0,0:0:0
240,180,101124,1,8,0:0:0
184,128,101293,2,0,P|132:108|92:100,2,70
240,180,101801,2,0,P|260:228|236:320,1,140,8|12,0:0|3:0,0:0:0
256,192,102310,12,0,103834,0:0:0
