osu file format v4

[General]
AudioFilename: Prince of Tennis 3rd OP.mp3
AudioLeadIn: 0
AudioHash: 86487e7f772542fbadfc2a2c9646c3b6
PreviewTime: -1
SampleSet: Normal
EditorBookmarks: 8546,44784,45107,64050,64535,65021,65345,65830,66316

[Metadata]
Title:Make You Free (TV Size)
Artist:Kimeru
Creator:EiJi
Version:Hard

[Difficulty]
HPDrainRate:5
CircleSize:5
OverallDifficulty:5
SliderMultiplier: 1.2
SliderTickRate: 2

[Events]
1,-1000,"Prince of Tennis 3rd OP.avi"
3,0,163,162,255

[TimingPoints]
4489,323.79924446843,4,1,0

[HitObjects]
48,200,8698,2,0,B|48:200|48:64,2,120
48,248,9507,1,0,
360,184,11288,6,0,B|360:184|504:184,2,120
352,232,12098,2,0,B|352:232|168:232,1,180
168,128,12907,2,0,B|168:128|168:-16,2,120
264,128,13879,1,0,
312,128,14041,1,0,
416,216,15660,6,0,B|416:216|416:128,2,60
368,216,16145,2,0,B|368:216|184:216,2,180
72,200,19059,5,0,
168,200,19383,1,0,
264,200,19707,1,0,
312,200,19869,1,0,
96,88,21650,5,0,
152,168,21974,1,0,
224,232,22297,1,0,
256,264,22459,1,0,
440,264,22945,2,0,B|440:264|440:248|472:248|481:213|504:216|456:136,3,120
192,272,24888,6,0,B|192:272|112:240|160:168,1,120
64,40,25859,1,0,
160,40,26183,1,0,
256,40,26507,1,0,
256,280,27316,5,0,
256,280,27478,1,0,
256,280,27640,1,0,
64,200,28612,6,0,B|64:200|64:176,6,30
160,200,29421,5,0,
160,104,29745,1,0,
256,104,30069,1,0,
304,104,30231,1,0,
408,200,30716,5,0,
312,200,31040,1,0,
312,200,31202,1,0,
216,200,31526,1,0,
216,200,31688,1,0,
128,200,32011,5,0,
32,200,32335,1,0,
32,56,32821,1,0,
320,64,33792,5,0,
320,64,33954,1,0,
320,64,34116,1,0,
320,64,34278,1,0,
320,160,34602,5,0,
320,160,34764,1,0,
320,256,35088,1,0,
224,256,35411,1,0,
72,72,36383,5,0,
120,72,36545,1,0,
216,72,36868,1,0,
328,80,37354,6,0,B|328:80|328:216,2,120
328,32,38164,1,0,
472,32,38649,1,0,
472,296,39621,6,0,B|472:296|472:376,6,60
424,296,40754,2,0,B|424:296|312:304|312:152,2,180
472,152,42211,5,0,
424,152,42373,1,0,
376,152,42535,1,0,
328,152,42697,1,0,
328,248,43021,1,0,
232,248,43344,6,0,B|232:248|176:208|256:184|296:200|312:176|216:136,2,180
376,256,44802,2,0,B|376:256|376:248|384:352|312:360,1,120
280,344,45287,2,0,B|280:344|248:280|320:240,1,120
312,144,45935,2,0,B|312:144|408:120|448:248,2,180
392,336,47554,5,0,
296,336,47878,1,0,
200,336,48201,1,0,
104,336,48525,2,0,B|104:336|24:272|160:264|96:168,2,180
144,120,51116,5,0,
144,264,51601,1,0,
288,272,52087,1,0,
288,128,52573,5,0,
288,128,52735,1,0,
288,128,52896,1,0,
288,128,53058,1,0,
208,128,53382,1,0,
112,128,53706,1,0,
112,272,54192,1,0,
256,272,54677,1,0,
400,280,55163,5,0,
400,280,55325,1,0,
400,232,55487,1,0,
400,232,55649,1,0,
400,136,55973,1,0,
400,40,56296,1,0,
152,40,57268,6,0,B|152:40|248:112|128:88,1,120
144,248,58239,6,0,B|144:248|240:248|216:320,2,120
256,192,58968,12,0,60020
248,192,60506,5,0,
248,192,60830,1,0,
248,192,61153,1,0,
344,192,61477,2,0,B|344:192|424:240|440:136|352:88,2,180
176,200,63096,6,0,B|176:200|128:256|216:304,2,120
272,200,64068,2,0,B|272:200|304:120|200:96|296:32,2,180
368,200,65363,2,0,B|368:200|400:120|414:99|344:24,2,180
272,208,66658,6,0,B|272:208|264:280|400:320,1,180
128,192,69248,5,0,
128,192,69410,1,0,
176,192,69572,1,0,
176,192,69734,1,0,
256,40,70705,5,0,
256,136,71029,1,0,
256,232,71353,1,0,
256,232,71515,1,0,
256,232,71677,1,0,
256,192,71758,12,0,74105
