osu file format v14

[General]
AudioFilename: +-++.mp3
AudioLeadIn: 0
PreviewTime: 19156
Countdown: 0
SampleSet: Soft
StackLeniency: 0.5
Mode: 0
LetterboxInBreaks: 0
EpilepsyWarning: 1
WidescreenStoryboard: 1

[Editor]
DistanceSpacing: 1.3
BeatDivisor: 6
GridSize: 4
TimelineZoom: 1.7

[Metadata]
Title:Geu Gose Olla
TitleUnicode:그 곳에 올라
Artist:Kim Yeon Woo
ArtistUnicode:김연우
Creator:Doyak
Version:Gold Medal
Source:
Tags:Taeyang Yeonwoo MBC Olympics gold medal song Go up to the there Geugose 그곳에 올림픽 금메달송
BeatmapID:1059142
BeatmapSetID:497619

[Difficulty]
HPDrainRate:6
CircleSize:4
OverallDifficulty:6.5
ApproachRate:8
SliderMultiplier:2.1
SliderTickRate:1

[Events]
//Background and Video events
0,0,"olympic_sports-wallpaper-1366x768.jpg",0,0
//Break Periods
//Storyboard Layer 0 (Background)
//Storyboard Layer 1 (Fail)
//Storyboard Layer 2 (Pass)
//Storyboard Layer 3 (Foreground)
//Storyboard Sound Samples

[TimingPoints]
1139,517.241379310345,4,2,1,30,1,0
1656,-100,4,2,1,40,0,0
2173,-100,4,2,1,50,0,0
2690,-100,4,2,1,60,0,0
3208,517.241379310345,4,2,1,70,1,0
6828,-76.9230769230769,4,2,1,70,0,0
7345,-100,4,2,1,70,0,0
10966,-76.9230769230769,4,2,1,70,0,0
11483,-100,4,2,1,70,0,0
19759,-100,4,2,1,90,0,1
36139,-100,4,2,1,90,0,0
36311,-100,4,2,1,90,0,1
52863,-100,4,2,1,70,0,0
67345,-100,4,2,1,80,0,0
69414,-153.846153846154,4,2,1,90,0,0
71311,-153.846153846154,4,2,1,50,0,0
71483,-100,4,2,1,70,0,0
88035,-120.481927710843,4,2,1,60,0,0
95276,-100,4,2,1,60,0,0
95794,-100,4,2,1,75,0,0
96311,-100,4,2,1,90,0,1
104414,-100,4,2,1,90,0,0
104587,-100,4,2,1,90,0,1
125276,-100,4,2,1,90,0,0

[Colours]
Combo1 : 172,145,94
Combo2 : 242,217,36
Combo3 : 159,159,159

[HitObjects]
256,192,1139,12,0,2690,0:0:0:0:
253,348,3208,6,0,P|318:273|412:305,1,210,4|8,0:0|0:0,0:0:0:0:
323,47,4242,2,0,P|269:89|202:79,1,140
124,33,4759,1,8,0:0:0:0:
45,79,4931,1,8,0:3:0:0:
45,170,5103,1,2,0:3:0:0:
124,216,5276,6,0,B|226:266|226:166|323:216,2,210,4|8|0,0:3|0:0|0:0,0:0:0:0:
356,132,6656,1,0,0:0:0:0:
356,132,6828,6,0,P|408:186|365:298,1,181.999991668702,12|0,0:0|0:0,0:0:0:0:
266,143,7345,6,0,P|270:79|354:135,1,210,4|8,0:0|0:0,0:0:0:0:
339,337,8208,1,0,0:0:0:0:
256,299,8380,2,0,L|103:314,1,140
44,256,8897,1,8,0:0:0:0:
102,185,9070,2,0,L|184:179,1,70,8|2,0:3|0:3,0:0:0:0:
44,256,9414,6,0,P|7:190|34:122,1,140,4|0,0:3|0:0,0:0:0:0:
110,95,9932,1,8,0:0:0:0:
173,337,10276,1,0,0:0:0:0:
256,299,10449,2,0,L|406:314,1,140
465,254,10966,6,0,P|445:179|379:229,1,181.999991668702,12|0,0:0|0:0,0:0:0:0:
395,312,11483,5,4,0:0:0:0:
117,312,12001,1,8,0:0:0:0:
256,76,12518,1,0,0:0:0:0:
395,312,13035,1,8,0:0:0:0:
391,124,13380,1,0,0:0:0:0:
391,124,13552,6,0,P|338:178|346:250,1,140
395,312,14070,1,8,0:0:0:0:
121,124,14587,2,0,P|173:178|165:250,1,140
117,312,15105,1,8,0:0:0:0:
37,88,15449,1,0,0:0:0:0:
36,88,15621,6,0,P|83:38|151:37,1,140
210,106,16139,2,0,P|272:134|335:107,1,140,8|0,0:0|0:0,0:0:0:0:
383,30,16656,6,0,P|424:83|413:150,1,140
364,227,17173,1,8,0:0:0:0:
430,289,17345,2,0,L|500:295,1,70,8|2,0:3|0:3,0:0:0:0:
364,227,17690,6,0,P|289:279|356:342,1,210,2|8,0:0|0:0,0:0:0:0:
356,341,18552,1,0,0:0:0:0:
281,152,18725,6,0,L|138:168,1,140,2|0,0:0|0:0,0:0:0:0:
58,203,19242,1,4,0:3:0:0:
68,112,19414,1,8,0:3:0:0:
78,21,19587,1,2,0:3:0:0:
141,167,19759,6,0,P|121:268|1:275,2,210,4|8|0,0:0|0:0|0:0,0:0:0:0:
388,283,21311,1,8,0:0:0:0:
311,236,21483,1,0,0:0:0:0:
391,192,21656,1,0,0:0:0:0:
307,327,21828,6,0,P|225:269|245:172,1,210,0|8,0:0|0:0,0:0:0:0:
453,37,22690,1,0,0:0:0:0:
453,37,22863,2,0,P|472:134|391:191,1,210,0|8,0:0|0:0,0:0:0:0:
127,100,23725,1,0,0:0:0:0:
121,191,23897,6,0,P|40:134|60:37,2,210,0|8|0,0:0|0:0|0:0,0:0:0:0:
390,103,25449,1,8,0:0:0:0:
300,87,25621,1,0,0:0:0:0:
331,172,25794,1,0,0:0:0:0:
360,17,25966,6,0,P|261:2|208:86,1,210,0|8,0:0|0:0,0:0:0:0:
308,310,26828,1,0,0:0:0:0:
308,310,27001,2,0,L|333:157,1,140
316,129,27432,1,0,0:0:0:0:
300,87,27518,2,0,P|234:70|176:107,1,140,8|0,0:0|0:0,0:0:0:0:
123,273,28035,6,0,P|221:257|248:162,2,210,4|8|0,0:0|0:0|0:0,0:0:0:0:
383,92,29587,1,8,0:0:0:0:
399,181,29759,1,0,0:0:0:0:
415,270,29932,1,0,0:0:0:0:
314,150,30104,6,0,P|301:51|386:0,1,210,0|8,0:0|0:0,0:0:0:0:
484,212,30966,1,0,0:0:0:0:
415,270,31139,2,0,L|269:260,1,140
220,187,31656,2,0,L|74:197,1,140,8|0,0:0|0:0,0:0:0:0:
15,260,32173,5,0,0:0:0:0:
275,260,32690,2,0,P|312:203|296:136,1,140,8|0,0:0|0:0,0:0:0:0:
241,63,33208,2,0,P|204:120|220:187,1,140
275,260,33725,1,8,0:0:0:0:
448,137,34070,1,0,0:0:0:0:
383,72,34242,5,2,0:0:0:0:
324,335,34759,2,0,P|257:350|200:313,1,140,8|0,0:0|0:0,0:0:0:0:
275,260,35276,6,0,P|341:244|398:281,1,140,2|0,0:0|0:0,0:0:0:0:
415,324,35708,1,0,0:0:0:0:
432,367,35794,2,0,P|506:356|490:297,1,140,8|0,0:0|0:0,0:0:0:0:
346,121,36311,6,0,P|321:217|398:280,2,210,4|8|0,0:0|0:0|0:0,0:0:0:0:
75,206,37863,1,8,0:0:0:0:
164,226,38035,1,0,0:0:0:0:
101,292,38208,1,0,0:0:0:0:
136,140,38380,6,0,P|230:169|243:268,1,210,0|8,0:0|0:0,0:0:0:0:
47,119,39242,1,0,0:0:0:0:
47,119,39414,2,0,P|102:55|130:145,1,210,0|8,0:0|0:0,0:0:0:0:
52,344,40276,1,0,0:0:0:0:
130,296,40449,6,0,B|232:246|232:346|329:296,2,210,0|8|0,0:0|0:0|0:0,0:0:0:0:
257,72,42001,1,8,0:0:0:0:
346,93,42173,1,0,0:0:0:0:
283,158,42345,1,0,0:0:0:0:
319,6,42518,6,0,P|413:35|426:134,1,210,0|8,0:0|0:0,0:0:0:0:
296,297,43380,1,0,0:0:0:0:
296,297,43552,2,0,L|282:149,1,140
273,66,44070,1,8,0:0:0:0:
273,66,44414,1,0,0:0:0:0:
207,252,44587,6,0,P|295:297|373:235,2,210,4|8|0,0:0|0:0|0:0,0:0:0:0:
60,21,46139,1,8,0:0:0:0:
44,110,46311,1,0,0:0:0:0:
28,199,46483,1,0,0:0:0:0:
128,79,46656,6,0,P|195:136|113:168,1,210,0|8,0:0|0:0,0:0:0:0:
249,11,47518,1,0,0:0:0:0:
249,11,47690,2,0,P|302:53|369:42,1,140
453,4,48208,2,0,L|469:160,1,140,8|0,0:0|0:0,0:0:0:0:
479,233,48725,5,0,0:0:0:0:
219,149,49242,2,0,P|151:137|98:179,1,140,8|0,0:0|0:0,0:0:0:0:
175,229,49759,2,0,P|242:240|295:198,1,140
219,149,50276,1,8,0:0:0:0:
273,355,50621,1,0,0:0:0:0:
354,313,50794,5,2,0:0:0:0:
172,71,51311,2,0,P|128:123|138:190,1,140,8|0,0:0|0:0,0:0:0:0:
197,260,51828,5,2,0:0:0:0:
390,156,52173,1,0,0:0:0:0:
390,156,52259,1,0,0:0:0:0:
390,156,52345,2,0,P|382:88|326:49,1,140,8|0,0:0|0:0,0:0:0:0:
348,236,52863,5,4,0:0:0:0:
52,83,53380,1,10,0:0:0:0:
291,307,53897,2,0,P|355:327|414:293,1,140
473,223,54414,2,0,L|464:142,1,70,8|0,0:0|0:0,0:0:0:0:
348,13,54932,5,4,0:0:0:0:
52,166,55449,1,10,0:0:0:0:
348,236,55966,2,0,P|375:174|349:112,1,140
269,65,56483,2,0,L|193:60,1,70,8|0,0:0|0:0,0:0:0:0:
52,166,57001,6,0,P|129:228|218:183,2,210,0|8|0,0:0|0:0|0:0,0:0:0:0:
291,95,58552,2,0,L|431:110,1,140,8|0,0:0|0:0,0:0:0:0:
464,140,58983,1,0,0:0:0:0:
497,171,59070,6,0,P|506:238|463:294,1,140
294,247,59587,2,0,P|348:206|416:215,1,140,10|0,0:0|0:0,0:0:0:0:
338,328,60104,2,0,P|270:336|216:295,1,140,2|0,0:0|0:0,0:0:0:0:
353,105,60621,2,0,P|406:146|415:214,1,140,10|0,0:0|0:0,0:0:0:0:
144,153,61139,6,0,P|201:86|233:168,1,210,4|8,0:0|0:0,0:0:0:0:
449,351,62173,2,0,L|465:210,1,140
448,122,62690,2,0,P|404:107|365:109,1,70,8|0,0:0|0:0,0:0:0:0:
242,224,63208,5,0,0:0:0:0:
39,40,63725,2,0,P|30:107|73:163,1,140,8|0,0:0|0:0,0:0:0:0:
162,157,64242,2,0,L|141:306,1,140
203,363,64759,2,0,P|239:374|287:372,1,70,8|0,0:0|0:0,0:0:0:0:
401,201,65276,6,0,P|483:171|470:258,1,210,0|8,0:0|0:0,0:0:0:0:
234,277,66139,1,0,0:0:0:0:
198,193,66311,2,0,P|108:180|57:237,2,157.5
320,254,67345,6,0,P|400:220|333:164,1,210,0|8,0:0|0:0,0:0:0:0:
123,90,68208,1,0,0:0:0:0:
123,90,68380,6,0,L|113:243,1,140
141,316,68897,1,8,0:0:0:0:
341,179,69242,1,0,0:0:0:0:
440,257,69414,6,0,B|495:285|485:356|440:385|382:404|333:330|321:281|354:237|424:250|454:223|457:180|453:129|430:101|430:101|413:127|424:151,1,500.499977088929,4|0,0:0|0:0,0:0:0:0:
339,79,71483,6,0,P|411:11|503:49,2,210,4|8|0,0:0|0:0|0:0,0:0:0:0:
439,276,72863,1,0,0:0:0:0:
356,313,73035,1,8,0:0:0:0:
212,200,73380,1,0,0:0:0:0:
129,237,73552,6,0,P|146:139|244:114,1,210,0|8,0:0|0:0,0:0:0:0:
356,313,74414,1,0,0:0:0:0:
439,276,74587,2,0,L|413:68,1,210,0|8,0:0|0:0,0:0:0:0:
178,23,75449,1,0,0:0:0:0:
98,68,75621,6,0,L|73:276,1,210,0|8,0:0|0:0,0:0:0:0:
291,356,76483,1,0,0:0:0:0:
341,280,76656,2,0,P|395:238|463:247,1,140
419,327,77173,1,8,0:0:0:0:
341,280,77345,1,8,0:3:0:0:
291,356,77518,1,2,0:3:0:0:
213,309,77690,5,4,0:3:0:0:
247,122,78208,2,0,P|314:113|369:154,1,140,10|0,0:0|0:0,0:0:0:0:
199,201,78725,2,0,P|157:146|166:79,1,140,2|0,0:0|0:0,0:0:0:0:
205,55,79156,1,0,0:0:0:0:
245,31,79242,2,0,P|308:57|334:120,1,140,10|0,0:0|0:0,0:0:0:0:
305,320,79759,5,4,0:0:0:0:
82,144,80276,2,0,L|232:161,1,140,8|0,0:0|0:0,0:0:0:0:
264,240,80794,1,0,0:0:0:0:
430,80,81139,1,0,0:0:0:0:
340,65,81311,1,8,0:0:0:0:
354,255,81656,1,0,0:0:0:0:
444,270,81828,6,0,P|406:177|305:173,1,210,0|8,0:0|0:0,0:0:0:0:
143,293,82690,1,0,0:0:0:0:
143,293,82863,2,0,L|287:311,1,140
354,255,83380,1,8,0:0:0:0:
196,86,83725,1,0,0:0:0:0:
115,127,83897,6,0,P|75:218|144:292,1,210,0|8,0:0|0:0,0:0:0:0:
378,167,84759,1,0,0:0:0:0:
441,231,84932,2,0,P|434:298|381:342,1,140
354,255,85449,1,8,0:0:0:0:
378,167,85621,1,8,0:3:0:0:
441,231,85794,1,2,0:3:0:0:
354,255,85966,6,0,L|146:234,1,210,2|8,0:0|0:0,0:0:0:0:
378,167,86828,6,0,P|441:274|316:338,1,280,8|0,0:0|0:0,0:0:0:0:
289,191,87690,1,8,0:3:0:0:
354,255,87863,1,2,0:3:0:0:
158,318,88035,5,4,0:0:0:0:
223,255,89587,2,0,P|250:252|291:263,2,58.1000008422089
158,318,90104,6,0,B|130:284|121:244|135:201|170:175|211:166|211:166|229:144|225:115|198:97|163:101|142:125|146:150|179:173,1,348.600005053253,2|0,0:0|0:0,0:0:0:0:
422,298,91656,2,0,B|436:241|396:242|411:185,1,116.200001684418,2|0,0:0|0:0,0:0:0:0:
500,202,92173,21,2,0:0:0:0:
440,134,93725,2,0,L|449:72,2,58.1000008422089
500,202,94242,6,0,B|465:235|412:235|374:209|354:166|354:166|347:212|314:244|264:252|221:233,1,348.600005053253,2|0,0:0|0:0,0:0:0:0:
156,169,95449,1,8,0:3:0:0:
133,257,95621,1,2,0:3:0:0:
245,145,95794,21,4,0:3:0:0:
68,194,95966,1,8,0:3:0:0:
198,320,96139,1,2,0:3:0:0:
176,86,96311,22,0,P|275:61|333:167,2,210,4|8|0,0:0|0:0|0:0,0:0:0:0:
321,311,97863,1,8,0:0:0:0:
352,225,98035,1,0,0:0:0:0:
411,294,98208,1,0,0:0:0:0:
262,242,98380,6,0,P|298:149|397:144,1,210,0|8,0:0|0:0,0:0:0:0:
232,328,99242,1,0,0:0:0:0:
232,328,99414,2,0,L|87:314,1,140
1,304,99932,1,8,0:0:0:0:
67,92,100276,1,0,0:0:0:0:
142,143,100449,6,0,P|241:156|292:71,1,210,0|8,0:0|0:0,0:0:0:0:
67,92,101311,1,0,0:0:0:0:
67,92,101483,6,0,P|50:158|86:215,1,140
160,269,102001,2,0,L|312:247,1,140,8|0,0:0|0:0,0:0:0:0:
369,306,102518,5,2,0:0:0:0:
205,137,103035,2,0,P|188:70|224:13,1,140,8|0,0:0|0:0,0:0:0:0:
314,31,103552,6,0,P|330:97|294:154,1,140,2|0,0:0|0:0,0:0:0:0:
260,185,103983,1,0,0:0:0:0:
226,216,104070,2,0,L|237:367,1,140,8|0,0:0|0:0,0:0:0:0:
294,154,104587,6,0,P|197:128|135:206,2,210,4|8|0,0:0|0:0|0:0,0:0:0:0:
412,355,106139,1,8,0:0:0:0:
440,268,106311,1,0,0:0:0:0:
501,335,106483,1,0,0:0:0:0:
351,287,106656,6,0,P|387:194|487:190,1,210,0|8,0:0|0:0,0:0:0:0:
323,373,107518,1,0,0:0:0:0:
323,373,107690,2,0,P|264:312|356:292,1,210,0|8,0:0|0:0,0:0:0:0:
350,286,108552,1,0,0:0:0:0:
292,100,108725,6,0,B|190:50|190:150|93:100,2,210,0|8|0,0:0|0:0|0:0,0:0:0:0:
92,322,110276,1,8,0:0:0:0:
177,291,110449,1,0,0:0:0:0:
109,232,110621,1,0,0:0:0:0:
160,381,110794,6,0,P|251:342|253:243,1,210,0|8,0:0|0:0,0:0:0:0:
98,57,111656,1,0,0:0:0:0:
15,94,111828,2,0,P|17:193|109:232,1,210,0|8,0:0|0:0,0:0:0:0:
109,232,112690,1,0,0:0:0:0:
266,131,112863,6,0,P|351:151|293:217,2,210,4|8|0,0:0|0:0|0:0,0:0:0:0:
128,321,114414,1,8,0:0:0:0:
219,336,114587,1,0,0:0:0:0:
310,351,114759,1,0,0:0:0:0:
187,252,114932,6,0,P|88:240|37:325,1,210,0|8,0:0|0:0,0:0:0:0:
278,267,115794,1,0,0:0:0:0:
278,267,115966,2,0,L|264:121,1,140
337,72,116483,2,0,P|279:35|213:52,1,140,8|0,0:0|0:0,0:0:0:0:
141,108,117001,5,0,0:0:0:0:
234,349,117518,1,8,0:0:0:0:
387,146,118035,2,0,B|420:75|362:75|395:7,2,140
238,220,119070,6,0,P|288:134|387:146,1,210,2|8,0:0|0:0,0:0:0:0:
279,364,119932,1,0,0:0:0:0:
209,305,120104,6,0,L|69:295,1,140,2|0,0:0|0:0,0:0:0:0:
168,182,120621,1,4,0:3:0:0:
295,209,120794,1,8,0:3:0:0:
209,305,120966,1,2,0:3:0:0:
254,86,121139,5,4,0:0:0:0:
256,192,121311,12,6,125276,0:0:0:0:
