osu file format v9

[General]
AudioFilename: Kim Leoni - Emergency (Nightcore Mix).mp3
AudioLeadIn: 1250
PreviewTime: 82967
Countdown: 0
SampleSet: Normal
StackLeniency: 0.7
Mode: 0
LetterboxInBreaks: 0
EpilepsyWarning: 1

[Editor]
DistanceSpacing: 1.1
BeatDivisor: 1
GridSize: 4

[Metadata]
Title:Emergency (Nightcore Mix)
Artist:Kim Leoni
Creator:Tony
Version:Easy
Source:
Tags:[Te][Amo]

[Difficulty]
HPDrainRate:1
CircleSize:3
OverallDifficulty:1
ApproachRate:2
SliderMultiplier:0.8
SliderTickRate:1

[Events]
//Background and Video events
0,0,"BG.png"
//Break Periods
2,41645,51119
2,63913,67671
2,94259,102154
//Storyboard Layer 0 (Background)
//Storyboard Layer 1 (Fail)
//Storyboard Layer 2 (Pass)
//Storyboard Layer 3 (Foreground)
//Storyboard Sound Samples
//Background Colour Transformations
3,100,163,162,255

[TimingPoints]
266,344.827586206897,4,1,1,65,1,0
1645,-100,4,1,1,45,0,0
9921,-100,4,1,1,55,0,0
18197,-100,4,1,1,65,0,0
29231,-100,4,1,1,65,0,1
40266,-100,4,1,1,65,0,0
52679,-100,4,1,1,65,0,0
83024,-100,4,1,1,65,0,1
94059,-100,4,1,1,65,0,0
105093,-100,4,1,1,45,0,0
106472,-100,4,1,1,50,0,0
107852,-100,4,1,1,55,0,0
109116,-100,4,1,1,60,0,0
110610,-100,4,1,1,65,0,0
121645,-100,4,1,1,65,0,1
132334,-100,4,1,1,65,0,0
132679,-100,4,1,1,65,0,1
143714,-100,4,1,1,45,0,0

[Colours]
Combo1 : 198,108,198
Combo2 : 255,128,64
Combo3 : 238,204,68
Combo4 : 137,209,71
SliderBorder : 224,224,224

[HitObjects]
180,128,1645,2,0,B|256:80|332:128,2,160,4|0|0
212,212,3369,1,0
300,212,3714,1,0
168,328,4403,6,0,B|95:278|101:191,2,160,0|0|0
256,336,6128,2,0,B|299:338|324:301,2,80
220,256,7162,5,8
220,168,7507,1,8
220,80,7852,2,0,B|300:80,2,80,8|8|8
132,80,8886,2,0,B|52:80,2,80,8|8|8
132,168,9921,5,4
132,256,10266,2,0,B|292:256,2,160,8|8|8
44,256,11990,1,0
44,80,12679,5,4
132,80,13024,2,0,B|292:80,2,160,8|8|8
132,168,14748,1,0
180,336,15438,6,0,B|256:376|336:336,1,160,4|0
260,180,16817,1,8
220,100,17162,2,0,B|260:84|300:100,2,80,8|8|8
144,52,18197,5,4
132,140,18541,2,0,B|64:197|72:281,1,160,8|8
140,340,19576,1,0
220,300,19921,2,8,B|262:310|278:350,2,80,8|0|8
152,244,20955,5,4
236,216,21300,2,0,B|323:204|362:129,1,160,8|8
452,128,22334,1,0
412,208,22679,2,0,B|496:208,2,80,8|0|8
452,288,23714,5,4
384,344,24059,2,0,B|220:344,1,160,8|8
156,288,25093,1,0
68,288,25438,2,0,B|68:368,2,80,8|0|8
68,200,26472,6,0,B|64:116|64:116|80:40,1,160,4|0
256,44,27852,1,8
216,128,28197,2,0,B|256:144|296:128,2,80,8|8|8
256,44,29231,5,4
344,52,29576,2,0,B|412:92|436:180,2,160,8|8|8
296,128,31300,2,0,B|296:208,1,80,0|8
208,196,31990,5,4
216,284,32334,2,0,B|56:284,2,160,8|8|8
304,284,34059,2,0,B|392:284,1,80,0|8
472,284,34748,5,4
472,196,35093,1,8
348,72,35783,1,8
260,72,36128,2,0,B|180:72,1,80,0|8
92,72,36817,2,0,B|92:152,1,80,0|8
88,240,37507,5,4
256,288,38197,1,0
424,240,38886,1,8
460,160,39231,2,0,B|420:144|380:160,2,80,8|8|8
424,240,40265,5,4
52,96,52679,5,4
140,96,53024,2,0,B|205:71|216:96|228:119|293:96,2,160,8|8|8
96,172,54748,2,0,B|96:252,1,80,0|8
140,328,55438,5,4
228,328,55783,2,8,B|294:351|305:328|317:303|383:328,2,160
184,252,57507,2,0,B|184:172,1,80,0|8
184,84,58197,6,0,B|264:84,2,80,4|8|0
336,172,59576,2,0,B|336:252,2,80,0|8|0
164,216,60955,5,4
52,80,61645,1,0
44,256,62334,1,8
84,180,62679,2,0,B|100:140|139:122,2,80,8|8|8
44,256,63713,5,4
120,192,69231,5,0
256,80,69921,1,0
392,192,70610,1,8
352,272,70955,2,0,B|392:288|432:272,2,80,8|8|8
264,272,71990,5,4
176,272,72334,2,8,B|97:303|19:272,2,160
220,196,74059,2,0,B|208:152|220:112,1,80,0|8
300,156,74748,5,4
300,156,75092,2,8,B|378:124|456:156,2,160
292,244,76817,2,0,B|304:284|292:324,1,80,0|8
212,284,77507,5,4
212,284,77852,2,8,B|52:284,2,160
212,196,79576,2,0,B|132:196,1,80,0|8
44,196,80266,5,4
172,76,80955,1,0
300,196,81645,1,8
388,196,81990,2,8,B|476:196,2,80
344,120,83024,5,4
264,84,83369,2,8,B|215:79|182:100|162:132|166:181,2,160
252,172,85093,2,0,B|304:232,1,80,0|8
368,292,85783,5,4
432,232,86128,2,8,B|460:264|464:306|452:343|417:372,2,160
456,148,87852,2,0,B|418:139|378:159,1,80,0|8
292,180,88541,5,4
216,220,88886,2,8,B|144:268|64:232,2,160
176,140,90610,1,0
172,52,90955,1,8
256,84,91300,5,4
396,192,91990,1,0
256,300,92679,1,8
168,300,93024,2,8,B|88:300,2,80
212,224,94059,5,4
168,192,103714,6,0,B|88:192,2,80
256,192,104748,1,0
332,148,105093,6,0,B|332:68,2,80,4|0|0
332,236,106127,1,0
256,280,106472,6,0,B|256:360,2,80
256,192,107506,1,0
256,104,107852,6,0,B|256:16,2,80
168,104,108886,1,0
80,104,109231,6,8,B|80:16,2,80
80,192,110266,1,8
80,280,110610,5,4
168,292,110955,2,8,B|220:272|220:272|260:232|260:176,1,160
436,200,112334,2,8,B|416:148|416:148|376:108|320:108,1,160
256,52,113369,5,4
188,108,113714,2,8,B|135:107|95:147|95:147|75:200,1,160
200,324,115093,2,8,B|252:324|292:284|292:284|312:231,1,160
384,284,116128,6,0,B|412:200,2,80,4|8|0
288,136,117507,2,0,B|316:52,2,80,0|8|0
112,136,118886,6,0,B|64:288,2,160,4|0|0
156,60,120610,1,8
200,136,120955,2,0,B|228:220,1,80,0|8
248,296,121645,5,4
324,252,121990,2,8,B|368:224|368:224|408:196|420:128,1,160
464,56,123024,2,0,B|428:32|388:52,1,80,0|8
324,112,123714,2,0,B|288:136|248:116,1,80,0|8
172,72,124403,5,4
128,148,124748,2,8,B|80:220|116:300,2,160
204,188,126472,2,0,B|244:280,1,80,0|8
280,336,127162,5,4
324,260,127507,2,8,B|372:188|336:108,1,160
256,72,128541,2,0,B|176:72,2,80,0|8|0
256,160,129576,1,8
168,160,129921,5,4
256,312,130610,1,0
344,160,131300,1,8
344,72,131645,2,8,B|384:56|424:68,2,80
256,72,132679,5,4
168,72,133024,2,0,B|100:112|76:200,2,160,8|8|8
220,144,134748,2,0,B|220:224,1,80,0|8
308,212,135438,5,4
300,300,135782,2,0,B|460:300,2,160,8|8|8
212,300,137507,2,0,B|124:300,1,80,0|8
44,300,138196,5,4
44,212,138541,1,8
168,88,139231,1,8
256,88,139576,2,0,B|336:88,1,80,0|8
424,88,140265,2,0,B|424:168,1,80,0|8
428,256,140955,5,4
256,288,141645,1,0
84,256,142334,1,8
44,176,142679,2,0,B|84:160|124:176,2,80,8|8|8
84,256,143713,5,4
