osu file format v12

[General]
AudioFilename: .mp3
AudioLeadIn: 2000
PreviewTime: 72
Countdown: 1
SampleSet: Soft
StackLeniency: 0.7
Mode: 0
LetterboxInBreaks: 1

[Editor]
DistanceSpacing: 1
BeatDivisor: 4
GridSize: 4

[Metadata]
Title:Lovable
TitleUnicode:사랑스러워
Artist:Kim Jong Kook
ArtistUnicode:김종국
Creator:peeace
Version:Hard
Source:
Tags:Kpop Kim Jong Kook SarangSeureoweo Lovable This is Me
BeatmapID:270914
BeatmapSetID:102566

[Difficulty]
HPDrainRate:6
CircleSize:4
OverallDifficulty:5
ApproachRate:6
SliderMultiplier:1
SliderTickRate:1

[Events]
//Background and Video events
0,0,"JongKook.jpg",0,0
//Break Periods
2,83225,91231
2,164927,172933
2,224926,234209
//Storyboard Layer 0 (Background)
//Storyboard Layer 1 (Fail)
//Storyboard Layer 2 (Pass)
//Storyboard Layer 3 (Foreground)
//Storyboard Sound Samples
//Background Colour Transformations
3,100,163,162,255

[TimingPoints]
47,319.148936170213,4,1,0,60,1,0
103451,-100,4,1,0,60,0,1
143185,-100,4,2,0,80,0,0
163291,-100,4,1,0,80,0,0
163929,-100,4,2,0,80,0,0
164727,-100,4,1,0,60,0,0
176935,-100,4,1,0,5,0,0
177015,-100,4,1,0,60,0,0
185153,-100,4,1,0,60,0,1
224727,-100,4,1,0,60,0,0
252812,451.127819548872,4,2,0,60,1,0
261774,-100,4,2,0,5,0,0

[Colours]
Combo1 : 0,0,160
Combo2 : 0,255,255
Combo3 : 185,0,0
Combo4 : 255,255,0

[HitObjects]
322,256,1323,6,0,P|378:224|378:176,1,100,4|8,0:0|0:0,0:0:0:0:
355,97,1961,2,0,P|299:128|299:177,1,100,0|8,0:0|0:0,0:0:0:0:
256,192,2440,1,0,0:0:0:0:
196,112,2759,1,0,0:0:0:0:
100,140,3078,1,0,0:0:0:0:
86,188,3238,2,0,P|116:192|148:248,1,100,0|8,0:0|0:0,0:0:0:0:
204,332,3876,6,0,P|219:305|283:295,1,100,0|8,0:0|0:0,0:0:0:0:
376,259,4515,2,0,P|364:196|336:181,1,100,0|8,0:0|0:0,0:0:0:0:
288,165,4993,2,0,P|260:150|260:41,1,150,0|8,0:0|0:0,0:0:0:0:
339,100,5791,6,0,P|366:114|378:177,1,100,0|8,0:0|0:0,0:0:0:0:
400,276,6429,1,0,0:0:0:0:
378,178,6749,1,8,0:0:0:0:
288,136,7068,2,0,P|224:148|210:175,1,100,0|8,0:0|0:0,0:0:0:0:
231,220,7547,2,0,P|216:247|153:259,2,100
210,175,8344,2,0,P|156:138|127:147,1,100,0|8,0:0|0:0,0:0:0:0:
56,216,8983,6,0,B|56:262|102:262|102:262|124:284,1,100,0|8,0:0|0:0,0:0:0:0:
220,288,9621,2,0,B|221:243|175:243|175:243|153:221,1,100,0|8,0:0|0:0,0:0:0:0:
256,192,10100,12,4,11536,0:0:0:0:
180,116,11855,5,8,0:0:0:0:
332,116,12174,1,0,0:0:0:0:
332,268,12493,1,8,0:0:0:0:
180,268,12812,1,0,0:0:0:0:
48,196,13132,1,8,0:0:0:0:
83,160,13291,2,0,P|130:155|141:109,1,100
48,72,13929,5,0,0:0:0:0:
91,51,14089,2,0,P|137:63|142:110,1,100,0|8,0:0|0:0,0:0:0:0:
240,92,14727,2,0,P|285:103|290:150,1,100,0|8,0:0|0:0,0:0:0:0:
388,173,15366,2,0,P|433:184|438:231,1,100,0|8,0:0|0:0,0:0:0:0:
472,268,15844,1,0,0:0:0:0:
224,240,16642,5,0,0:0:0:0:
151,310,16961,1,8,0:0:0:0:
63,263,17281,1,0,0:0:0:0:
136,200,17600,1,8,0:0:0:0:
136,200,17759,1,4,0:0:0:0:
272,73,18557,6,0,B|288:17|368:16|388:96|344:160|256:224|256:224|168:160|124:96|144:16|224:17|240:72,1,600
256,192,20632,12,2,21749,0:0:0:0:
256,120,22068,5,10,0:0:0:0:
328,192,22387,1,2,0:0:0:0:
256,264,22706,1,10,0:0:0:0:
256,264,22866,1,2,0:0:0:0:
184,192,23185,1,2,0:0:0:0:
184,192,23344,1,10,0:0:0:0:
124,112,23664,2,0,P|80:140|112:200,1,100,2|10,0:0|0:0,0:0:0:0:
184,192,24302,6,0,P|228:164|196:104,1,100,2|10,0:0|0:0,0:0:0:0:
288,48,24940,2,0,P|330:42|358:86,1,100,2|10,0:0|0:0,0:0:0:0:
408,92,25419,1,2,0:0:0:0:
356,180,25738,1,2,0:0:0:0:
356,180,25898,1,10,0:0:0:0:
416,260,26217,2,0,P|372:287|377:330,1,100,2|10,0:0|0:0,0:0:0:0:
280,308,26855,6,0,P|252:264|209:269,1,100,2|10,0:0|0:0,0:0:0:0:
112,244,27493,2,0,P|117:286|73:314,1,100,2|10,0:0|0:0,0:0:0:0:
73,314,27972,1,2,0:0:0:0:
37,220,28291,1,2,0:0:0:0:
37,220,28451,1,10,0:0:0:0:
73,127,28770,2,0,P|117:155|112:197,1,100,2|10,0:0|0:0,0:0:0:0:
211,189,29408,6,0,P|255:161|249:118,1,100,2|10,0:0|0:0,0:0:0:0:
196,36,30047,2,0,P|152:64|158:107,1,100,2|10,0:0|0:0,0:0:0:0:
157,106,30525,1,2,0:0:0:0:
249,118,30844,1,2,0:0:0:0:
249,118,31004,1,10,0:0:0:0:
348,118,31323,2,0,P|320:74|277:80,1,100,2|10,0:0|0:0,0:0:0:0:
276,180,31961,6,0,P|304:224|347:218,1,100,2|10,0:0|0:0,0:0:0:0:
424,156,32600,1,2,0:0:0:0:
444,256,32919,2,2,L|456:304,1,50,10|2,0:0|0:0,0:0:0:0:
356,308,33398,2,0,L|368:260,1,50,2|10,0:0|0:0,0:0:0:0:
456,304,33876,1,2,0:0:0:0:
356,308,34195,1,10,0:0:0:0:
256,328,34515,6,0,P|284:284|327:290,1,100,2|10,0:0|0:0,0:0:0:0:
236,332,35153,2,0,P|185:343|158:308,1,100,2|10,0:0|0:0,0:0:0:0:
158,309,35632,1,2,0:0:0:0:
144,200,35951,1,2,0:0:0:0:
146,200,36110,2,0,P|190:172|184:129,1,100,2|10,0:0|0:0,0:0:0:0:
256,60,36749,1,2,0:0:0:0:
316,140,37068,6,0,P|360:112|354:69,1,100,2|10,0:0|0:0,0:0:0:0:
420,144,37706,2,0,P|464:172|458:215,1,100,2|10,0:0|0:0,0:0:0:0:
408,224,38185,2,0,P|357:212|306:284,1,150,2|10,0:0|0:0,0:0:0:0:
236,212,38983,1,2,0:0:0:0:
165,141,39302,1,10,0:0:0:0:
94,70,39621,6,0,L|94:195,1,100,2|10,0:0|0:0,0:0:0:0:
35,250,40259,2,0,L|35:375,1,100,2|10,0:0|0:0,0:0:0:0:
35,350,40738,1,4,0:0:0:0:
256,192,40898,12,4,42175,0:0:0:0:
464,92,42493,6,0,B|416:36|416:36|388:60,1,100,0|0,0:0|0:0,0:0:0:0:
360,88,42972,2,0,B|340:105|340:105|292:49,2,100
430,158,43929,2,0,B|396:211|380:168|341:224,1,100
320,308,44568,6,0,P|197:240|225:159,1,250
158,294,45844,2,0,P|35:226|63:145,1,250
256,208,47281,5,4,0:0:0:0:
292,116,47600,2,0,P|352:120|356:156,1,100,0|0,0:0|0:0,0:0:0:0:
336,196,48078,2,0,P|341:225|401:229,4,100
240,220,49674,2,0,B|144:380|144:188|48:348,1,250,0|0,0:0|0:0,0:0:0:0:
256,344,51110,1,0,0:0:0:0:
256,244,51429,1,0,0:0:0:0:
256,144,51749,1,0,0:0:0:0:
256,244,52068,1,0,0:0:0:0:
256,344,52387,5,4,0:0:0:0:
256,244,52706,2,0,P|204:248|168:216,1,100,0|0,0:0|0:0,0:0:0:0:
169,218,53185,1,0,0:0:0:0:
120,128,53504,1,0,0:0:0:0:
196,64,53823,1,0,0:0:0:0:
284,108,54142,1,0,0:0:0:0:
364,48,54461,2,0,P|404:76|392:172,1,150,0|4,0:0|0:0,0:0:0:0:
456,248,55259,5,0,0:0:0:0:
356,248,55578,1,0,0:0:0:0:
320,212,55738,1,0,0:0:0:0:
249,282,56057,1,0,0:0:0:0:
149,271,56376,1,0,0:0:0:0:
134,172,56695,1,0,0:0:0:0:
225,131,57015,2,0,P|183:63|134:88,1,150,0|4,0:0|0:0,0:0:0:0:
60,157,57812,5,8,0:0:0:0:
114,241,58132,2,0,L|74:281,1,50
178,276,58610,2,0,L|218:236,1,50
313,240,59089,2,0,L|273:280,2,50
213,240,59727,2,0,L|292:164,1,100
355,99,60366,1,0,0:0:0:0:
216,316,61004,1,8,0:0:0:0:
168,336,61164,1,0,0:0:0:0:
120,332,61323,1,4,0:0:0:0:
360,296,62281,6,0,P|404:256|384:220,1,100,4|4,0:0|0:0,0:0:0:0:
308,172,62919,2,0,P|263:211|283:247,1,100,8|0,0:0|0:0,0:0:0:0:
180,272,63557,2,0,P|149:284|109:240,1,100,8|0,0:0|0:0,0:0:0:0:
184,176,64195,1,0,0:0:0:0:
184,176,64355,2,0,P|144:131|113:144,1,100,0|0,0:0|0:0,0:0:0:0:
100,244,64993,2,0,L|180:104,1,150,0|8,0:0|0:0,0:0:0:0:
245,184,65791,2,0,L|325:44,2,150,0|0|8,0:0|0:0|0:0,0:0:0:0:
245,184,67387,1,8,0:0:0:0:
316,256,67706,5,0,0:0:0:0:
388,184,68025,1,8,0:0:0:0:
316,116,68344,1,0,0:0:0:0:
348,80,68504,1,0,0:0:0:0:
256,40,68823,1,0,0:0:0:0:
164,80,69142,1,0,0:0:0:0:
72,40,69461,1,0,0:0:0:0:
108,132,69781,1,0,0:0:0:0:
144,224,70100,2,0,P|68:240|80:168,1,150,0|8,0:0|0:0,0:0:0:0:
144,224,70898,6,0,P|208:196|214:205,1,100,0|8,0:0|0:0,0:0:0:0:
308,236,71536,2,0,P|244:264|237:254,1,100,0|8,0:0|0:0,0:0:0:0:
308,236,72174,2,0,L|400:328,1,100,0|8,0:0|0:0,0:0:0:0:
440,228,72812,6,0,P|400:168|424:160,1,100,0|8,0:0|0:0,0:0:0:0:
448,88,73451,2,0,L|416:132,1,50
285,103,73929,2,0,P|312:104|356:52,2,100
184,112,74887,2,0,B|123:124|94:163|91:218,1,150,0|4,0:0|0:0,0:0:0:0:
256,216,75685,5,8,0:0:0:0:
256,216,76004,1,0,0:0:0:0:
256,216,76164,1,0,0:0:0:0:
256,192,76483,12,0,77919,0:0:0:0:
427,344,78238,6,0,B|435:296|427:236|427:232,1,100,8|0,0:0|0:0,0:0:0:0:
376,244,78717,1,0,0:0:0:0:
327,244,79036,2,0,P|331:160|327:72,1,150,0|8,0:0|0:0,0:0:0:0:
256,164,79834,2,0,L|256:100,1,50
185,43,80312,2,0,P|179:116|185:215,1,150,0|8,0:0|0:0,0:0:0:0:
185,293,81110,1,0,0:0:0:0:
185,293,81429,1,8,0:0:0:0:
185,293,81589,1,4,0:0:0:0:
256,192,81749,12,4,83025,0:0:0:0:
256,192,92281,12,0,93239,0:0:0:0:
72,304,93557,5,8,0:0:0:0:
172,300,93876,1,0,0:0:0:0:
204,260,94036,1,0,0:0:0:0:
204,160,94355,2,0,P|156:124|136:80,1,100
236,72,94993,2,0,P|284:108|304:151,1,100
380,272,95791,6,0,P|332:235|314:201,1,100,0|8,0:0|0:0,0:0:0:0:
409,231,96429,1,0,0:0:0:0:
380,272,96589,1,0,0:0:0:0:
314,201,96908,2,0,B|338:138|412:171|439:83,1,150,0|8,0:0|0:0,0:0:0:0:
343,56,97706,1,0,0:0:0:0:
427,109,98025,1,8,0:0:0:0:
343,56,98344,6,0,B|335:80|283:84|261:124,1,100,0|8,0:0|0:0,0:0:0:0:
172,148,98983,1,0,0:0:0:0:
200,108,99142,1,0,0:0:0:0:
128,180,99461,2,0,B|96:204|132:272|40:272,4,100,0|0|0|0|4,0:0|0:0|0:0|0:0|0:0,0:0:0:0:
256,192,100898,12,4,102015,0:0:0:0:
256,192,102174,12,4,103451,0:0:0:0:
408,200,103770,6,0,P|408:256|360:296,1,100,8|0,0:0|0:0,0:0:0:0:
340,196,104408,2,0,P|340:140|388:100,1,100,8|0,0:0|0:0,0:0:0:0:
367,108,104887,1,0,0:0:0:0:
268,124,105206,1,0,0:0:0:0:
224,100,105366,2,0,B|176:76|168:72|112:128,1,100,0|8,0:0|0:0,0:0:0:0:
89,196,106004,2,0,B|136:220|144:224|177:189,1,100,0|8,0:0|0:0,0:0:0:0:
148,284,106642,2,0,L|132:152,1,100,0|8,0:0|0:0,0:0:0:0:
132,136,107121,1,0,0:0:0:0:
376,88,107600,5,8,0:0:0:0:
376,88,107919,2,0,P|448:52|448:-4,1,100,0|8,0:0|0:0,0:0:0:0:
452,136,108557,2,0,P|472:213|465:228,1,100,0|8,0:0|0:0,0:0:0:0:
372,196,109195,2,0,P|326:204|288:240,1,100,0|8,0:0|0:0,0:0:0:0:
268,288,109674,2,0,P|224:284|192:228,1,100
156,148,110312,2,0,P|188:168|184:204,1,50
251,245,110791,1,8,0:0:0:0:
332,184,111110,6,0,P|288:148|224:176,1,100,0|8,0:0|0:0,0:0:0:0:
168,216,111749,2,0,P|212:252|251:246,1,100,0|8,0:0|0:0,0:0:0:0:
227,202,112227,2,0,L|165:353,1,150,0|8,0:0|0:0,0:0:0:0:
81,292,113025,1,0,0:0:0:0:
81,292,113344,1,8,0:0:0:0:
81,191,113664,6,0,P|84:136|81:71,2,100,4|8|0,0:0|0:0|0:0,0:0:0:0:
156,124,114621,2,0,P|160:176|156:264,1,100,8|0,0:0|0:0,0:0:0:0:
232,152,115259,2,0,P|233:138|229:102,1,50,8|0,0:0|0:0,0:0:0:0:
324,68,115738,6,0,P|380:44|412:104,1,100
424,112,116217,2,0,P|367:134|362:167,1,100,0|8,0:0|0:0,0:0:0:0:
268,200,116855,2,0,P|211:222|206:255,1,100,0|8,0:0|0:0,0:0:0:0:
112,284,117493,2,0,P|55:306|50:339,1,100,0|8,0:0|0:0,0:0:0:0:
50,339,117972,1,0,0:0:0:0:
300,336,118770,6,0,P|312:288|372:272,1,100,0|8,0:0|0:0,0:0:0:0:
256,256,119408,1,0,0:0:0:0:
256,256,119568,1,0,0:0:0:0:
256,256,119887,2,0,P|335:306|432:336,1,150,0|8,0:0|0:0,0:0:0:0:
444,244,120685,1,0,0:0:0:0:
428,144,121004,1,8,0:0:0:0:
404,100,121164,1,0,0:0:0:0:
160,52,121961,5,0,0:0:0:0:
108,192,122281,1,0,0:0:0:0:
140,228,122440,1,0,0:0:0:0:
175,263,122600,1,4,0:0:0:0:
256,192,122759,12,4,123876,0:0:0:0:
108,192,124195,5,8,0:0:0:0:
108,192,124515,2,0,P|60:248|80:276,1,100,0|8,0:0|0:0,0:0:0:0:
116,260,124993,2,0,P|164:204|144:176,1,100
112,104,125632,1,0,0:0:0:0:
112,104,125791,2,0,P|117:90|190:85,1,100,0|8,0:0|0:0,0:0:0:0:
280,132,126429,2,0,P|274:145|201:150,1,100,0|8,0:0|0:0,0:0:0:0:
260,68,127068,2,0,P|265:54|338:49,1,100,0|8,0:0|0:0,0:0:0:0:
424,104,127547,2,0,P|410:109|428:216,1,150,0|8,0:0|0:0,0:0:0:0:
408,312,128344,6,0,B|312:376|312:248|216:312,1,200
124,320,129302,1,8,0:0:0:0:
144,232,129621,2,0,B|177:203|177:203|169:195|169:195|226:161,1,100,0|8,0:0|0:0,0:0:0:0:
207,172,130100,1,0,0:0:0:0:
132,108,130419,1,0,0:0:0:0:
224,68,130738,1,0,0:0:0:0:
268,88,130898,2,0,P|328:88|346:117,1,100,0|8,0:0|0:0,0:0:0:0:
420,184,131536,6,0,P|360:184|341:213,1,100,0|8,0:0|0:0,0:0:0:0:
268,280,132174,2,0,P|328:280|346:309,1,100,0|8,0:0|0:0,0:0:0:0:
346,309,132653,1,0,0:0:0:0:
124,292,133132,5,8,0:0:0:0:
52,160,133451,1,0,0:0:0:0:
201,163,133770,1,8,0:0:0:0:
124,292,134089,6,0,P|144:244|82:213,1,100,0|8,0:0|0:0,0:0:0:0:
202,164,134727,2,0,P|248:187|281:122,1,100,0|8,0:0|0:0,0:0:0:0:
210,90,135366,2,0,P|164:67|131:132,1,100,0|8,0:0|0:0,0:0:0:0:
87,66,135844,1,0,0:0:0:0:
94,165,136164,6,0,P|110:213|179:191,1,100,0|0,0:0|0:0,0:0:0:0:
186,182,136642,1,0,0:0:0:0:
255,109,136961,1,8,0:0:0:0:
348,72,137281,1,0,0:0:0:0:
447,100,137600,1,8,0:0:0:0:
455,199,137919,2,0,P|437:249|395:262,1,100,0|8,0:0|0:0,0:0:0:0:
345,264,138398,2,0,B|288:267|289:346|189:330,1,150,0|8,0:0|0:0,0:0:0:0:
148,258,139195,6,0,P|164:203|119:151,2,100,0|8|0,0:0|0:0|0:0,0:0:0:0:
109,290,139993,1,0,0:0:0:0:
37,220,140312,1,0,0:0:0:0:
272,132,141110,6,0,B|288:76|368:75|388:155|344:219|256:283|256:283|168:219|124:155|144:75|224:76|240:131,1,600
256,192,143185,12,2,144302,0:0:0:0:
388,268,144940,5,2,0:0:0:0:
332,128,145419,1,2,0:0:0:0:
260,196,145738,2,2,P|240:264|180:276,1,100
180,244,146217,1,2,0:0:0:0:
132,156,146536,1,2,0:0:0:0:
168,64,146855,1,2,0:0:0:0:
96,252,147493,1,2,0:0:0:0:
168,64,147972,1,2,0:0:0:0:
388,60,149089,5,2,0:0:0:0:
448,140,149408,1,2,0:0:0:0:
368,324,150047,1,2,0:0:0:0:
308,244,150366,1,2,0:0:0:0:
248,324,150685,1,2,0:0:0:0:
388,60,151642,5,2,0:0:0:0:
448,140,151961,1,2,0:0:0:0:
368,324,152600,1,2,0:0:0:0:
308,244,152919,1,2,0:0:0:0:
248,324,153238,1,2,0:0:0:0:
116,176,153876,1,2,0:0:0:0:
288,72,154515,6,2,B|356:48|320:116|384:96,5,100
320,184,156429,6,2,B|265:201|301:133|233:157,2,100
372,268,157387,1,2,0:0:0:0:
272,272,157706,1,2,0:0:0:0:
320,184,158025,1,2,0:0:0:0:
380,104,158344,2,2,L|408:64,4,25,2|0|0|2|2,0:0|0:0|0:0|0:0|0:0,0:0:0:0:
332,96,158823,1,2,0:0:0:0:
284,104,158983,2,2,L|192:116,1,50
216,156,159302,2,2,L|124:168,1,50
156,212,159621,2,2,L|44:228,1,100
40,272,160100,6,2,L|100:324,1,50,0|2,0:0|0:0,0:0:0:0:
128,296,160419,2,2,L|188:348,1,50,0|2,0:0|0:0,0:0:0:0:
212,316,160738,2,2,L|272:368,1,50,0|2,0:0|0:0,0:0:0:0:
348,324,161217,1,2,0:0:0:0:
380,284,161376,6,2,L|460:244,1,50
389,226,161695,2,2,L|309:186,1,50
379,167,162015,2,2,L|459:127,1,50
396,104,162334,2,2,L|360:72,5,25,2|0|2|0|2|0,0:0|0:0|0:0|0:0|0:0|0:0,0:0:0:0:
352,87,162812,2,2,L|316:55,5,25,2|0|2|0|2|0,0:0|0:0|0:0|0:0|0:0|0:0,0:0:0:0:
302,77,163291,6,0,P|216:68|92:96,1,200,4|4,0:0|0:0,0:0:0:0:
80,136,164089,1,0,0:0:0:0:
108,180,164249,1,2,0:0:0:0:
80,224,164408,1,0,0:0:0:0:
108,264,164568,1,2,0:0:0:0:
156,268,164727,1,4,0:0:0:0:
256,192,173983,12,0,174940,0:0:0:0:
256,324,175259,5,8,0:0:0:0:
256,224,175578,2,0,L|208:184,1,50
312,160,176057,2,0,L|412:108,1,100
308,76,176695,2,0,L|220:32,1,75
215,42,177015,2,0,L|84:116,1,150
152,192,177812,1,8,0:0:0:0:
85,267,178132,1,0,0:0:0:0:
120,300,178291,1,0,0:0:0:0:
216,332,178610,2,0,P|280:308|312:232,1,150,0|8,0:0|0:0,0:0:0:0:
400,288,179408,2,0,P|404:232|368:192,1,100,0|8,0:0|0:0,0:0:0:0:
300,136,180047,6,0,B|248:132|220:72,1,100,0|8,0:0|0:0,0:0:0:0:
128,108,180685,1,0,0:0:0:0:
128,108,180844,2,0,P|144:160|140:220,1,100
48,168,181483,2,0,P|47:213|63:265,1,100
144,208,182121,2,0,P|160:260|156:320,1,100,0|4,0:0|0:0,0:0:0:0:
256,192,182600,12,4,183717,0:0:0:0:
256,192,183876,12,4,185153,0:0:0:0:
104,200,185472,6,0,P|104:256|152:296,1,100,8|0,0:0|0:0,0:0:0:0:
172,196,186110,2,0,P|172:140|124:100,1,100,8|0,0:0|0:0,0:0:0:0:
145,108,186589,1,0,0:0:0:0:
244,124,186908,1,0,0:0:0:0:
288,100,187068,2,0,B|336:76|344:72|400:128,1,100,0|8,0:0|0:0,0:0:0:0:
423,196,187706,2,0,B|376:220|368:224|335:189,1,100,0|8,0:0|0:0,0:0:0:0:
364,284,188344,2,0,L|380:152,1,100,0|8,0:0|0:0,0:0:0:0:
380,136,188823,1,0,0:0:0:0:
136,88,189621,6,0,P|64:52|64:-4,1,100,0|8,0:0|0:0,0:0:0:0:
60,136,190259,2,0,P|40:213|47:228,1,100,0|8,0:0|0:0,0:0:0:0:
140,196,190897,2,0,P|186:204|224:240,1,100,0|8,0:0|0:0,0:0:0:0:
244,288,191376,2,0,P|288:284|320:228,1,100
356,148,192014,2,0,P|324:168|328:204,1,50
261,245,192493,1,8,0:0:0:0:
180,184,192812,6,0,P|224:148|288:176,1,100,0|8,0:0|0:0,0:0:0:0:
344,216,193451,2,0,P|300:252|261:246,1,100,0|8,0:0|0:0,0:0:0:0:
285,202,193929,2,0,L|347:353,1,150,0|8,0:0|0:0,0:0:0:0:
431,292,194727,1,0,0:0:0:0:
431,292,195046,1,8,0:0:0:0:
431,191,195366,6,0,P|428:136|431:71,2,100,0|8|0,0:0|0:0|0:0,0:0:0:0:
356,124,196323,2,0,P|352:176|356:264,1,100,8|0,0:0|0:0,0:0:0:0:
280,152,196961,2,0,P|279:138|283:102,1,50,8|0,0:0|0:0,0:0:0:0:
188,68,197440,6,0,P|132:44|100:104,1,100
88,112,197919,2,0,P|145:134|150:167,1,100,0|8,0:0|0:0,0:0:0:0:
244,200,198557,2,0,P|301:222|306:255,1,100,0|8,0:0|0:0,0:0:0:0:
400,284,199195,2,0,P|457:306|462:339,1,100,0|8,0:0|0:0,0:0:0:0:
462,339,199674,1,0,0:0:0:0:
212,336,200472,6,0,P|200:288|140:272,1,100,0|8,0:0|0:0,0:0:0:0:
256,256,201110,1,0,0:0:0:0:
256,256,201270,1,0,0:0:0:0:
256,256,201589,2,0,P|177:306|80:336,1,150,0|8,0:0|0:0,0:0:0:0:
68,244,202387,1,0,0:0:0:0:
84,144,202706,1,8,0:0:0:0:
108,100,202866,1,0,0:0:0:0:
352,52,203663,5,0,0:0:0:0:
404,192,204142,1,4,0:0:0:0:
256,192,204302,12,4,205578,0:0:0:0:
404,192,205897,5,8,0:0:0:0:
404,192,206217,2,0,P|452:248|432:276,1,100,0|8,0:0|0:0,0:0:0:0:
396,260,206695,2,0,P|348:204|368:176,1,100
400,104,207334,1,0,0:0:0:0:
400,104,207493,2,0,P|395:90|322:85,1,100,0|8,0:0|0:0,0:0:0:0:
232,132,208131,2,0,P|238:145|311:150,1,100,0|8,0:0|0:0,0:0:0:0:
252,68,208770,2,0,P|247:54|174:49,1,100,0|8,0:0|0:0,0:0:0:0:
88,104,209249,2,0,P|102:109|84:216,1,150,0|8,0:0|0:0,0:0:0:0:
104,312,210047,6,0,B|200:376|200:248|296:312,1,200
388,320,211004,1,8,0:0:0:0:
368,232,211323,2,0,B|335:203|335:203|343:195|343:195|286:161,1,100,0|8,0:0|0:0,0:0:0:0:
305,172,211802,1,0,0:0:0:0:
380,108,212121,1,0,0:0:0:0:
288,68,212440,1,0,0:0:0:0:
244,88,212600,2,0,P|184:88|166:117,1,100,0|8,0:0|0:0,0:0:0:0:
92,184,213238,6,0,P|152:184|171:213,1,100,0|8,0:0|0:0,0:0:0:0:
244,280,213876,2,0,P|184:280|166:309,1,100,0|8,0:0|0:0,0:0:0:0:
166,309,214355,1,0,0:0:0:0:
388,292,214834,5,8,0:0:0:0:
460,160,215153,1,0,0:0:0:0:
311,163,215472,1,8,0:0:0:0:
388,292,215791,6,0,P|368:244|430:213,1,100,4|8,0:0|0:0,0:0:0:0:
310,164,216429,2,0,P|264:187|231:122,1,100,0|8,0:0|0:0,0:0:0:0:
302,90,217068,2,0,P|348:67|381:132,1,100,0|8,0:0|0:0,0:0:0:0:
425,66,217546,1,0,0:0:0:0:
418,165,217866,6,0,P|402:213|333:191,1,100,0|0,0:0|0:0,0:0:0:0:
326,182,218344,1,0,0:0:0:0:
257,109,218663,1,8,0:0:0:0:
164,72,218983,1,0,0:0:0:0:
65,100,219302,1,8,0:0:0:0:
57,199,219621,2,0,P|75:249|117:262,1,100,0|8,0:0|0:0,0:0:0:0:
167,264,220100,2,0,B|224:267|223:346|323:330,1,150,0|8,0:0|0:0,0:0:0:0:
364,258,220897,6,0,P|348:203|393:151,2,100,0|8|0,0:0|0:0|0:0,0:0:0:0:
403,290,221695,1,0,0:0:0:0:
475,220,222014,1,0,0:0:0:0:
240,132,222812,6,0,B|224:76|144:75|124:155|168:219|256:283|256:283|344:219|388:155|368:75|288:76|272:131,1,600
256,192,235259,12,0,236217,0:0:0:0:
136,48,236536,5,8,0:0:0:0:
206,118,236855,1,0,0:0:0:0:
135,47,237174,1,8,0:0:0:0:
205,117,237493,1,0,0:0:0:0:
134,187,237812,1,8,0:0:0:0:
169,222,237972,1,0,0:0:0:0:
239,292,238291,2,0,P|308:332|320:316,1,100
305,333,238770,1,0,0:0:0:0:
404,316,239089,6,0,P|335:276|323:292,3,100,8|0|8|0,0:0|0:0|0:0|0:0,0:0:0:0:
337,173,240366,1,8,0:0:0:0:
337,173,240525,1,0,0:0:0:0:
448,72,241004,1,8,0:0:0:0:
448,72,241323,5,0,0:0:0:0:
348,72,241642,1,8,0:0:0:0:
248,72,241961,1,0,0:0:0:0:
147,72,242281,1,8,0:0:0:0:
97,72,242440,1,4,0:0:0:0:
256,308,243238,6,0,B|198:268|164:224|132:176|180:112|228:128|256:168|256:168|284:128|332:112|380:176|348:224|288:280,1,500
256,192,245153,12,4,246429,0:0:0:0:
80,72,246749,5,8,0:0:0:0:
100,172,247068,1,0,0:0:0:0:
156,256,247387,1,8,0:0:0:0:
240,308,247706,1,0,0:0:0:0:
340,340,248025,1,8,0:0:0:0:
388,344,248185,1,0,0:0:0:0:
388,344,248504,5,0,0:0:0:0:
384,296,248664,1,8,0:0:0:0:
352,196,248983,1,0,0:0:0:0:
300,112,249302,1,8,0:0:0:0:
216,56,249621,1,8,0:0:0:0:
168,36,249781,1,0,0:0:0:0:
68,36,250100,2,0,P|60:108|416:244,1,550
428,228,251935,1,0,0:0:0:0:
440,212,252015,1,0,0:0:0:0:
184,176,252812,6,0,P|180:128|132:84,1,100
88,136,253601,1,0,0:0:0:0:
120,204,253939,1,0,0:0:0:0:
192,284,254390,2,0,P|256:320|320:284,1,150
383,189,255518,2,0,P|256:64|160:160,1,350
152,232,257436,2,0,P|184:296|272:312,1,150
256,192,258225,12,0,261834,0:0:0:0:
