osu file format v14

[General]
AudioFilename: zui qing feng.mp3
AudioLeadIn: 0
PreviewTime: 13178
Countdown: 0
SampleSet: Soft
StackLeniency: 0.7
Mode: 0
LetterboxInBreaks: 0
WidescreenStoryboard: 0

[Editor]
DistanceSpacing: 1
BeatDivisor: 4
GridSize: 4
TimelineZoom: 1.7

[Metadata]
Title:Zui Qing Feng
TitleUnicode:醉清风
Artist:Killer
ArtistUnicode:弦子
Creator:Hollow Wings
Version:Hard
Source:
Tags:张弦子 不爱最大 朱振声 Marko Chu 薛永嘉 VACA 黄立成 Jeffery Huang
BeatmapID:678268
BeatmapSetID:238692

[Difficulty]
HPDrainRate:5
CircleSize:4
OverallDifficulty:5
ApproachRate:7
SliderMultiplier:1.6
SliderTickRate:1

[Events]
//Background and Video events
0,0,"zui qing feng.jpg",0,0
//Break Periods
2,90978,108878
2,250978,252778
//Storyboard Layer 0 (Background)
//Storyboard Layer 1 (Fail)
//Storyboard Layer 2 (Pass)
//Storyboard Layer 3 (Foreground)
//Storyboard Sound Samples

[TimingPoints]
-2022,800,4,2,2,40,1,0
13978,-100,4,2,2,40,0,0
14378,-100,4,2,2,50,0,0
14778,-100,4,2,2,60,0,0
39578,-100,4,2,2,60,0,0
65178,-100,4,2,2,70,0,0
90778,-100,4,2,1,60,0,0
109978,-80,4,2,1,60,0,0
135578,-80,4,2,1,60,0,0
161178,-80,4,2,1,70,0,1
186778,-80,4,2,1,70,0,0
212378,-80,4,2,1,70,0,1
237978,-80,4,2,2,70,0,0
253978,-80,4,2,2,60,0,0
255578,-80,4,2,2,50,0,0
257178,-80,4,2,2,40,0,0
258778,-80,4,2,2,30,0,0
260378,-80,4,2,2,20,0,0

[Colours]
Combo1 : 155,255,81
Combo2 : 218,255,176

[HitObjects]
475,284,13978,5,0,0:0:0:0:
398,305,14378,1,0,0:0:0:0:
320,290,14778,2,0,P|283:276|252:251,1,80,2|0,0:0|0:0,0:0:0:0:
357,215,15578,1,0,0:0:0:0:
356,135,15978,1,0,0:0:0:0:
325,61,16378,1,0,0:0:0:0:
325,61,17178,5,0,0:0:0:0:
276,124,17578,1,0,0:0:0:0:
204,161,17978,2,0,P|166:171|126:170,1,80
51,140,18778,1,0,0:0:0:0:
9,71,19178,1,0,0:0:0:0:
91,70,19578,1,0,0:0:0:0:
157,25,19978,1,0,0:0:0:0:
205,89,20378,5,0,0:0:0:0:
276,124,20778,1,0,0:0:0:0:
332,180,21178,2,0,P|376:180|411:171,1,80,2|0,0:0|0:0,0:0:0:0:
417,132,21778,1,0,0:0:0:0:
417,132,22378,5,0,0:0:0:0:
491,162,22778,1,0,0:0:0:0:
481,241,23178,2,0,P|443:251|401:252,1,80
325,273,23978,1,0,0:0:0:0:
254,234,24378,5,0,0:0:0:0:
237,312,24778,1,0,0:0:0:0:
160,287,25178,1,0,0:0:0:0:
99,339,25578,1,0,0:0:0:0:
20,317,25978,2,0,P|11:279|11:239,1,80
85,208,26778,5,0,0:0:0:0:
124,138,27178,1,0,0:0:0:0:
135,57,27578,2,0,P|173:49|213:49,1,80,2|0,0:0|0:0,0:0:0:0:
285,85,28378,1,0,0:0:0:0:
364,97,28778,1,0,0:0:0:0:
440,74,29178,1,0,0:0:0:0:
440,74,29978,5,0,0:0:0:0:
364,97,30378,1,0,0:0:0:0:
284,84,30778,2,0,P|245:83|206:92,1,80
200,172,31578,1,0,0:0:0:0:
135,124,31978,1,0,0:0:0:0:
118,45,32378,1,0,0:0:0:0:
38,39,32778,1,0,0:0:0:0:
6,112,33178,5,0,0:0:0:0:
23,190,33578,1,0,0:0:0:0:
102,200,33978,2,0,P|141:207|175:228,1,80,2|0,0:0|0:0,0:0:0:0:
215,231,34578,1,0,0:0:0:0:
215,231,35178,5,0,0:0:0:0:
190,307,35578,1,0,0:0:0:0:
109,308,35978,2,0,P|70:304|33:318,1,80
80,382,36778,1,0,0:0:0:0:
109,308,37178,1,0,0:0:0:0:
90,230,37578,1,0,0:0:0:0:
167,248,37978,1,0,0:0:0:0:
479,50,39578,6,0,P|409:81|325:96,1,160,2|0,0:0|0:0,0:0:0:0:
248,85,40778,1,0,0:0:0:0:
262,47,40978,2,0,P|286:101|291:160,1,120
265,236,41978,1,0,0:0:0:0:
105,246,42778,2,0,P|176:212|255:198,1,160
293,268,43978,1,0,0:0:0:0:
363,306,44378,2,0,L|401:295,1,40,2|0,0:0|0:0,0:0:0:0:
123,331,45978,6,0,P|190:363|286:380,1,160,2|0,0:0|0:0,0:0:0:0:
352,367,47178,1,0,0:0:0:0:
311,357,47378,2,0,P|282:306|273:247,1,120
285,168,48378,2,0,L|247:179,1,40,2|0,0:0|0:0,0:0:0:0:
348,115,49178,1,0,0:0:0:0:
362,193,49578,1,0,0:0:0:0:
432,233,49978,1,0,0:0:0:0:
467,161,50378,1,2,0:0:0:0:
467,161,51578,5,0,0:0:0:0:
449,82,51978,2,0,L|411:71,1,40
374,90,52378,2,0,P|335:97|296:96,1,80
219,72,53178,1,0,0:0:0:0:
141,92,53578,2,0,P|128:170|91:241,1,160
139,305,54778,1,2,0:0:0:0:
59,313,55178,2,0,L|27:288,1,40
13,249,55578,6,0,P|51:236|91:241,1,80
139,305,56378,1,0,0:0:0:0:
215,329,56778,1,0,0:0:0:0:
249,309,56978,1,0,0:0:0:0:
132,338,57578,1,0,0:0:0:0:
215,329,57978,2,0,P|253:338|286:360,1,80,0|2,0:0|0:0,0:0:0:0:
361,332,58778,5,0,0:0:0:0:
364,252,59178,1,0,0:0:0:0:
396,179,59578,1,0,0:0:0:0:
363,106,59978,1,0,0:0:0:0:
364,252,60778,1,0,0:0:0:0:
396,179,61178,1,0,0:0:0:0:
363,106,61578,1,0,0:0:0:0:
437,76,61978,1,0,0:0:0:0:
92,71,65178,5,0,0:0:0:0:
146,149,65578,1,0,0:0:0:0:
156,244,65978,2,0,P|176:277|205:305,1,80,2|0,0:0|0:0,0:0:0:0:
246,219,66778,1,0,0:0:0:0:
373,238,67178,1,0,0:0:0:0:
441,111,67578,1,2,0:0:0:0:
280,142,67978,1,0,0:0:0:0:
216,94,68378,2,0,P|174:88|132:90,2,80
216,94,69978,6,0,P|257:101|299:97,1,80
383,60,70778,1,0,0:0:0:0:
462,113,71178,2,0,L|424:124,1,40
385,153,71578,2,0,P|406:189|419:240,1,80
296,331,72378,5,2,0:0:0:0:
456,313,72778,1,0,0:0:0:0:
317,255,73179,1,0,0:0:0:0:
196,300,73579,1,0,0:0:0:0:
101,359,73978,1,0,0:0:0:0:
15,316,74378,1,0,0:0:0:0:
43,147,74778,6,0,P|82:142|123:145,1,80,2|0,0:0|0:0,0:0:0:0:
126,192,75378,2,0,P|165:194|203:183,1,80
245,160,75978,2,0,P|254:198|277:231,1,80
373,230,76778,1,0,0:0:0:0:
456,276,77178,2,0,P|444:314|426:349,1,80
335,379,77978,5,0,0:0:0:0:
283,297,78378,1,0,0:0:0:0:
373,229,78778,2,0,P|372:190|382:151,1,80,2|0,0:0|0:0,0:0:0:0:
466,104,79578,1,0,0:0:0:0:
385,26,79978,1,0,0:0:0:0:
219,21,80378,1,2,0:0:0:0:
114,132,80778,2,0,P|107:171|89:206,1,80
46,186,81378,2,0,P|30:176|18:160,1,40
28,59,81978,1,0,0:0:0:0:
28,59,82778,6,0,P|51:91|84:113,1,80
226,129,83578,1,2,0:0:0:0:
325,206,83978,2,0,L|363:195,1,40
393,146,84378,2,0,P|396:98|386:51,1,80
306,19,85178,1,0,0:0:0:0:
307,115,85578,1,0,0:0:0:0:
325,206,85978,1,0,0:0:0:0:
293,296,86379,1,0,0:0:0:0:
369,353,86778,2,0,P|408:344|448:344,1,80
387,269,87577,5,2,0:0:0:0:
452,198,87977,1,0,0:0:0:0:
502,279,88378,2,0,P|466:292|423:289,1,80
342,272,89178,1,0,0:0:0:0:
260,299,89578,1,0,0:0:0:0:
172,279,89978,2,0,P|157:239|134:204,1,80
49,227,90778,5,0,0:0:0:0:
82,268,109778,5,0,0:0:0:0:
100,260,109878,1,0,0:0:0:0:
124,260,109978,2,0,P|173:274|222:273,1,100,6|0,0:0|0:0,0:0:0:0:
194,176,110778,1,0,0:0:0:0:
281,224,111178,1,2,0:0:0:0:
278,323,111578,2,0,P|327:309|376:310,1,100,0|2,0:0|0:0,0:0:0:0:
465,353,112378,1,0,0:0:0:0:
501,259,112778,1,0,0:0:0:0:
449,173,113178,6,0,P|399:172|351:186,1,100,2|0,0:0|0:0,0:0:0:0:
288,108,113978,2,0,P|244:132|211:169,1,100,0|2,0:0|0:0,0:0:0:0:
117,133,114778,1,0,0:0:0:0:
124,33,115178,1,2,0:0:0:0:
31,72,115578,1,8,0:0:0:0:
31,72,115844,2,0,P|39:122|37:172,1,100,2|0,0:0|0:0,0:0:0:0:
31,204,116378,6,0,P|80:190|129:191,1,100
210,132,117178,1,0,0:0:0:0:
345,89,117578,1,0,0:0:0:0:
357,137,117778,2,0,P|284:148|210:132,1,150
129,190,118778,1,0,0:0:0:0:
144,91,119178,1,0,0:0:0:0:
239,61,119578,5,2,0:0:0:0:
327,13,119978,1,0,0:0:0:0:
426,24,120378,1,0,0:0:0:0:
400,119,120778,2,0,P|447:133|497:133,1,100,2|0,0:0|0:0,0:0:0:0:
497,133,121578,1,2,0:0:0:0:
489,182,121778,1,0,0:0:0:0:
437,211,121978,1,8,0:0:0:0:
424,259,122178,1,2,0:0:0:0:
433,317,122378,1,2,0:0:0:0:
387,338,122578,1,0,0:0:0:0:
339,302,122778,6,0,L|321:306,1,12.5,2|0,0:0|0:0,0:0:0:0:
250,266,123178,1,0,0:0:0:0:
166,321,123578,2,0,P|116:321|68:307,1,100,0|2,0:0|0:0,0:0:0:0:
104,212,124378,2,0,P|55:199|13:172,1,100,0|2,0:0|0:0,0:0:0:0:
52,80,125178,1,0,0:0:0:0:
134,136,125578,2,0,P|183:122|232:123,1,100,0|2,0:0|0:0,0:0:0:0:
246,74,126178,6,0,P|266:88|280:108,1,50
316,202,126778,1,0,0:0:0:0:
359,292,127178,1,2,0:0:0:0:
376,153,127578,1,0,0:0:0:0:
437,231,127978,1,2,0:0:0:0:
392,73,128378,1,8,0:0:0:0:
392,73,128644,2,0,P|440:60|508:61,1,100,2|2,0:0|0:0,0:0:0:0:
492,106,129178,6,0,L|509:118,1,12.5,2|0,0:0|0:0,0:0:0:0:
357,230,129978,2,0,P|307:229|259:243,1,100,0|2,0:0|0:0,0:0:0:0:
281,287,130578,2,0,P|206:294|133:277,1,150,0|2,0:0|0:0,0:0:0:0:
80,192,131578,1,0,0:0:0:0:
45,285,131978,2,0,P|37:317|42:360,1,66.6666666666667,0|2,0:0|0:0,0:0:0:0:
72,341,132378,6,0,P|121:327|170:328,1,100,2|0,0:0|0:0,0:0:0:0:
267,349,133178,1,0,0:0:0:0:
290,251,133578,1,2,0:0:0:0:
381,360,133978,1,0,0:0:0:0:
366,220,134378,1,2,0:0:0:0:
490,351,134778,1,8,0:0:0:0:
490,351,134978,2,0,P|469:296|467:238,1,116.666666666667,2|0,0:0|0:0,0:0:0:0:
474,223,135511,1,0,0:0:0:0:
468,205,135578,6,0,P|402:138|415:27,1,200,6|0,0:0|0:0,0:0:0:0:
309,52,136778,1,0,0:0:0:0:
300,102,136978,2,0,P|226:111|167:156,1,150,2|2,0:0|0:0,0:0:0:0:
68,141,137978,1,0,0:0:0:0:
22,51,138378,1,0,0:0:0:0:
29,211,138778,6,0,P|77:223|127:223,1,100,2|0,0:0|0:0,0:0:0:0:
171,201,139378,1,0,0:0:0:0:
197,158,139578,2,0,P|246:158|294:144,1,100
309,192,140178,2,0,P|358:206|407:205,1,100,2|0,0:0|0:0,0:0:0:0:
402,255,140778,2,0,P|376:266|354:281,1,50,2|0,0:0|0:0,0:0:0:0:
341,325,141178,1,8,0:0:0:0:
387,309,141378,2,0,P|329:303|272:310,1,116.666666666667,2|0,0:0|0:0,0:0:0:0:
255,313,141911,1,0,0:0:0:0:
240,320,141978,6,0,P|190:320|142:306,1,100,2|0,0:0|0:0,0:0:0:0:
162,208,142778,2,0,P|121:235|74:250,1,100
24,239,143378,2,0,P|89:203|163:207,1,150,2|2,0:0|0:0,0:0:0:0:
263,205,144378,1,0,0:0:0:0:
321,124,144778,1,0,0:0:0:0:
413,161,145178,6,0,P|462:160|510:174,1,100,2|0,0:0|0:0,0:0:0:0:
435,240,145978,1,0,0:0:0:0:
343,199,146378,1,2,0:0:0:0:
303,167,146578,2,0,P|322:95|302:23,1,150,0|2,0:0|0:0,0:0:0:0:
146,103,147578,2,0,P|139:77|139:54,1,50,8|2,0:0|0:0,0:0:0:0:
181,28,147978,1,0,0:0:0:0:
227,47,148178,1,0,0:0:0:0:
248,117,148378,5,2,0:0:0:0:
198,171,148578,1,0,0:0:0:0:
117,202,148778,1,0,0:0:0:0:
67,280,148978,2,0,P|140:297|215:292,1,150
257,266,149778,1,2,0:0:0:0:
373,332,149978,2,0,P|324:331|276:345,1,100,0|2,0:0|0:0,0:0:0:0:
276,345,150778,1,0,0:0:0:0:
379,250,151178,1,0,0:0:0:0:
421,223,151378,1,0,0:0:0:0:
427,150,151578,5,2,0:0:0:0:
341,137,151778,1,0,0:0:0:0:
250,160,151978,1,0,0:0:0:0:
207,77,152178,2,0,P|134:60|59:64,1,150
43,168,152978,1,2,0:0:0:0:
134,213,153178,1,0,0:0:0:0:
134,213,153578,6,0,P|158:222|182:227,1,50,2|0,0:0|0:0,0:0:0:0:
74,268,153978,2,0,P|43:278|10:280,1,66.6666666666667,8|0,0:0|0:0,0:0:0:0:
9,280,154778,6,0,P|3:203|23:126,1,150,2|0,0:0|0:0,0:0:0:0:
39,86,155578,2,0,P|69:154|77:228,1,150,0|2,0:0|0:0,0:0:0:0:
115,261,156378,1,0,0:0:0:0:
153,168,156778,1,2,0:0:0:0:
133,69,157178,1,0,0:0:0:0:
171,37,157378,2,0,P|220:23|269:24,1,100
316,40,157978,5,2,0:0:0:0:
328,239,158778,2,0,P|279:253|230:252,1,100,0|2,0:0|0:0,0:0:0:0:
199,347,159578,2,0,P|248:361|297:360,1,100,0|2,0:0|0:0,0:0:0:0:
336,329,160178,1,0,0:0:0:0:
384,342,160378,2,0,L|433:350,1,50,8|2,0:0|0:0,0:0:0:0:
452,303,160778,2,0,L|443:247,1,50
467,173,161178,6,0,P|488:127|499:79,1,100,4|2,0:0|0:0,0:0:0:0:
220,46,161978,2,0,P|241:91|252:139,1,100,8|2,0:0|0:0,0:0:0:0:
221,221,162578,1,2,0:0:0:0:
207,308,162778,2,0,P|158:297|112:277,1,100,0|2,0:0|0:0,0:0:0:0:
319,240,163578,2,0,P|307:288|286:333,1,100,8|0,0:0|0:0,0:0:0:0:
122,196,164378,5,2,0:0:0:0:
122,196,164778,1,2,0:0:0:0:
122,196,165178,2,0,P|94:126|95:52,1,150,8|2,0:0|0:0,0:0:0:0:
182,42,165978,1,0,0:0:0:0:
182,42,166378,1,2,0:0:0:0:
174,126,166578,2,0,P|187:148|207:163,1,50,0|8,0:0|0:0,0:0:0:0:
253,91,166978,2,0,P|327:93|395:124,1,150,2|2,0:0|0:0,0:0:0:0:
424,337,167978,5,2,0:0:0:0:
472,131,168378,2,0,P|484:82|485:32,1,100,8|0,0:0|0:0,0:0:0:0:
400,37,168978,1,2,0:0:0:0:
396,124,169178,2,0,P|407:172|428:217,1,100,0|2,0:0|0:0,0:0:0:0:
266,353,169978,2,0,P|305:322|350:300,1,100,8|0,0:0|0:0,0:0:0:0:
424,337,170578,1,2,0:0:0:0:
339,221,170778,6,0,P|291:235|241:239,1,100,2|2,0:0|0:0,0:0:0:0:
139,214,171378,2,0,L|149:165,1,50,0|8,0:0|0:0,0:0:0:0:
361,152,171978,1,2,0:0:0:0:
155,85,172378,2,0,P|107:99|57:103,1,100,0|2,0:0|0:0,0:0:0:0:
57,103,173178,1,8,0:0:0:0:
9,39,173378,2,0,P|16:113|45:182,1,150,2|2,0:0|0:0,0:0:0:0:
45,182,174378,5,2,0:0:0:0:
392,124,174778,2,0,P|414:170|425:218,1,100,8|0,0:0|0:0,0:0:0:0:
320,201,175378,1,2,0:0:0:0:
226,249,175578,2,0,P|197:289|178:336,1,100,0|2,0:0|0:0,0:0:0:0:
160,122,176378,1,8,0:0:0:0:
118,291,176778,6,0,P|106:239|108:191,1,100,0|2,0:0|0:0,0:0:0:0:
214,177,177378,1,0,0:0:0:0:
320,201,177578,1,2,0:0:0:0:
440,373,177978,2,0,P|407:333|385:289,1,100,8|0,0:0|0:0,0:0:0:0:
451,234,178578,1,2,0:0:0:0:
445,146,178778,2,0,P|467:100|478:52,1,100,0|2,0:0|0:0,0:0:0:0:
303,133,179578,1,8,0:0:0:0:
303,133,179844,2,0,P|305:66|325:2,1,133.333333333333,2|2,0:0|0:0,0:0:0:0:
325,3,180778,5,2,0:0:0:0:
229,100,181178,2,0,P|180:112|130:114,1,100,8|0,0:0|0:0,0:0:0:0:
49,150,181778,1,2,0:0:0:0:
37,238,181978,2,0,P|39:287|31:337,1,100,0|2,0:0|0:0,0:0:0:0:
177,181,182778,2,0,P|206:250|215:325,1,150,8|2,0:0|0:0,0:0:0:0:
283,359,183578,6,0,P|305:313|316:265,1,100,2|2,0:0|0:0,0:0:0:0:
379,141,184378,2,0,P|369:90|349:45,1,100,8|2,0:0|0:0,0:0:0:0:
141,45,185178,1,0,0:0:0:0:
178,181,185578,2,0,P|210:219|232:263,1,100,2|8,0:0|0:0,0:0:0:0:
315,265,186178,2,0,P|304:314|283:359,1,100,2|2,0:0|0:0,0:0:0:0:
373,364,186778,5,6,0:0:0:0:
373,364,187178,2,0,L|423:371,1,50,2|0,0:0|0:0,0:0:0:0:
469,294,187578,2,0,L|454:194,1,100,8|0,0:0|0:0,0:0:0:0:
474,109,188178,1,2,0:0:0:0:
474,109,188578,5,0,0:0:0:0:
402,59,188778,2,0,L|380:13,1,50,2|0,0:0|0:0,0:0:0:0:
310,65,189178,2,0,L|297:114,1,50,8|0,0:0|0:0,0:0:0:0:
228,35,189578,1,0,0:0:0:0:
149,75,189778,1,0,0:0:0:0:
46,43,189978,1,2,0:0:0:0:
46,43,190378,6,0,L|27:104,1,50,2|0,0:0|0:0,0:0:0:0:
98,146,190778,2,0,L|107:201,1,50,8|0,0:0|0:0,0:0:0:0:
192,204,191178,1,0,0:0:0:0:
296,209,191378,2,0,L|282:257,1,50,2|0,0:0|0:0,0:0:0:0:
282,257,191778,5,0,0:0:0:0:
215,314,191978,2,0,L|226:369,1,50,2|0,0:0|0:0,0:0:0:0:
121,339,192378,2,0,L|129:289,1,50,8|2,0:0|0:0,0:0:0:0:
28,315,192778,1,0,0:0:0:0:
10,229,192978,2,0,L|35:186,1,50,0|2,0:0|0:0,0:0:0:0:
35,186,193578,5,2,0:0:0:0:
102,242,193778,1,0,0:0:0:0:
189,254,193978,2,0,L|192:204,1,50,8|0,0:0|0:0,0:0:0:0:
280,213,194378,1,0,0:0:0:0:
328,139,194578,2,0,L|427:124,1,100,2|0,0:0|0:0,0:0:0:0:
412,302,195178,6,0,L|309:295,1,100,2|8,0:0|0:0,0:0:0:0:
280,213,195778,2,0,L|198:155,1,100,0|2,0:0|0:0,0:0:0:0:
63,43,196378,6,0,L|91:138,1,100,2|2,0:0|0:0,0:0:0:0:
137,206,196978,2,0,L|128:308,1,100
223,289,197578,1,2,0:0:0:0:
280,213,197778,6,0,L|339:300,1,100
393,230,198378,1,2,0:0:0:0:
397,141,198578,2,0,L|347:131,1,50,0|8,0:0|0:0,0:0:0:0:
257,79,198978,2,0,L|402:40,1,150,2|2,0:0|0:0,0:0:0:0:
402,40,199978,6,0,L|457:53,1,50,2|0,0:0|0:0,0:0:0:0:
397,141,200378,2,0,L|320:52,1,100,8|0,0:0|0:0,0:0:0:0:
257,79,200978,1,2,0:0:0:0:
257,79,201578,6,0,L|207:69,1,50,2|0,0:0|0:0,0:0:0:0:
132,95,201978,2,0,L|94:55,1,50,8|0,0:0|0:0,0:0:0:0:
6,76,202378,1,0,0:0:0:0:
6,76,202578,1,0,0:0:0:0:
63,147,202778,1,2,0:0:0:0:
63,147,203178,6,0,L|14:156,1,50,2|0,0:0|0:0,0:0:0:0:
59,233,203578,2,0,L|108:242,1,50,8|0,0:0|0:0,0:0:0:0:
28,312,203978,1,0,0:0:0:0:
91,375,204178,2,0,L|190:360,1,100,2|0,0:0|0:0,0:0:0:0:
245,293,204778,6,0,L|286:334,1,50,2|0,0:0|0:0,0:0:0:0:
362,297,205178,2,0,L|357:357,1,50,8|2,0:0|0:0,0:0:0:0:
442,362,205578,1,0,0:0:0:0:
491,288,205778,2,0,L|441:278,1,50,0|2,0:0|0:0,0:0:0:0:
442,278,206378,5,2,0:0:0:0:
442,362,206578,1,0,0:0:0:0:
357,346,206778,2,0,L|362:297,1,50,8|0,0:0|0:0,0:0:0:0:
330,226,207178,1,0,0:0:0:0:
235,122,207378,2,0,L|334:137,1,100,2|0,0:0|0:0,0:0:0:0:
507,166,207978,6,0,L|408:181,1,100,2|8,0:0|0:0,0:0:0:0:
235,215,208578,2,0,L|136:230,1,100
40,272,209178,2,0,L|56:173,1,100,2|2,0:0|0:0,0:0:0:0:
71,17,209778,1,0,0:0:0:0:
45,93,209978,1,8,0:0:0:0:
123,79,210178,1,2,0:0:0:0:
264,86,210378,5,0,0:0:0:0:
414,30,210578,2,0,L|397:129,1,100,2|0,0:0|0:0,0:0:0:0:
374,272,211178,1,0,0:0:0:0:
345,194,211378,2,0,L|314:179,2,25,2|2|2,0:0|0:0|0:0,0:0:0:0:
426,208,211778,2,0,P|456:253|472:297,1,100,2|2,0:0|0:0,0:0:0:0:
375,353,212378,6,0,P|327:369|278:375,1,100,6|2,0:0|0:0,0:0:0:0:
34,249,213178,2,0,P|72:281|117:305,1,100,8|0,0:0|0:0,0:0:0:0:
60,165,213778,1,2,0:0:0:0:
127,108,213978,2,0,P|124:57|132:8,1,100,0|2,0:0|0:0,0:0:0:0:
243,265,214778,2,0,P|265:194|313:131,1,150,8|0,0:0|0:0,0:0:0:0:
392,66,215578,5,2,0:0:0:0:
392,66,215978,1,2,0:0:0:0:
392,66,216378,2,0,P|420:136|419:210,1,150,8|2,0:0|0:0,0:0:0:0:
445,312,217178,1,0,0:0:0:0:
445,312,217578,1,2,0:0:0:0:
343,280,217778,2,0,P|323:295|310:316,1,50,0|8,0:0|0:0,0:0:0:0:
222,335,218178,2,0,P|221:260|250:191,1,150,2|2,0:0|0:0,0:0:0:0:
251,192,219178,5,2,0:0:0:0:
202,23,219578,2,0,P|212:71|242:110,1,100,8|0,0:0|0:0,0:0:0:0:
304,52,220178,1,2,0:0:0:0:
375,101,220378,2,0,P|423:113|473:111,1,100,0|2,0:0|0:0,0:0:0:0:
347,234,221178,2,0,P|302:255|263:286,1,100,8|0,0:0|0:0,0:0:0:0:
201,352,221778,1,2,0:0:0:0:
342,331,221978,6,0,P|389:344|439:349,1,100,2|2,0:0|0:0,0:0:0:0:
480,242,222578,2,0,L|490:291,1,50,0|8,0:0|0:0,0:0:0:0:
347,234,223178,1,2,0:0:0:0:
283,115,223578,2,0,P|332:110|380:96,1,100,0|2,0:0|0:0,0:0:0:0:
208,78,224378,1,8,0:0:0:0:
151,13,224578,2,0,P|180:81|187:156,1,150,2|6,0:0|0:0,0:0:0:0:
75,12,225578,5,2,0:0:0:0:
160,241,225978,2,0,P|138:287|127:335,1,100,8|0,0:0|0:0,0:0:0:0:
80,221,226578,1,2,0:0:0:0:
217,187,226778,2,0,P|246:227|265:274,1,100,0|2,0:0|0:0,0:0:0:0:
302,31,227578,1,8,0:0:0:0:
403,258,227978,6,0,P|404:307|392:356,1,100,0|2,0:0|0:0,0:0:0:0:
329,232,228578,1,0,0:0:0:0:
381,102,228778,1,2,0:0:0:0:
482,245,229178,2,0,P|457:199|444:152,1,100,8|0,0:0|0:0,0:0:0:0:
483,75,229778,1,2,0:0:0:0:
381,102,229978,6,0,P|402:57|413:8,1,100,0|2,0:0|0:0,0:0:0:0:
203,40,230778,1,8,0:0:0:0:
203,40,231044,2,0,P|230:101|240:167,1,133.333333333333,2|2,0:0|0:0,0:0:0:0:
31,145,231978,5,2,0:0:0:0:
105,26,232378,2,0,P|154:28|203:40,1,100,8|0,0:0|0:0,0:0:0:0:
226,119,232978,1,2,0:0:0:0:
294,175,233178,2,0,P|342:166|392:167,1,100,0|2,0:0|0:0,0:0:0:0:
426,342,233978,2,0,P|351:335|281:307,1,150,8|0,0:0|0:0,0:0:0:0:
206,350,234778,6,0,P|194:301|173:256,1,100,2|2,0:0|0:0,0:0:0:0:
421,126,235578,2,0,P|375:102|327:91,1,100,8|2,0:0|0:0,0:0:0:0:
303,175,236178,1,0,0:0:0:0:
242,112,236378,1,0,0:0:0:0:
173,256,236778,2,0,P|194:301|206:350,1,100,2|8,0:0|0:0,0:0:0:0:
119,358,237378,1,2,0:0:0:0:
119,358,237978,5,0,0:0:0:0:
71,283,238378,1,0,0:0:0:0:
77,192,238778,2,0,P|123:175|173:173,1,100,2|0,0:0|0:0,0:0:0:0:
251,219,239578,1,0,0:0:0:0:
248,130,239978,1,0,0:0:0:0:
300,56,240378,2,0,P|348:65|392:89,1,100
417,181,241178,6,0,P|413:230|424:279,2,100,0|0|2,0:0|0:0|0:0,0:0:0:0:
342,233,242378,1,0,0:0:0:0:
342,278,242578,2,0,P|356:325|381:369,1,100
337,357,243178,2,0,P|287:355|239:371,1,100
176,307,243978,1,0,0:0:0:0:
120,310,244178,1,0,0:0:0:0:
71,283,244378,5,0,0:0:0:0:
119,358,244778,1,0,0:0:0:0:
241,254,245178,2,0,P|194:236|144:234,1,100
63,195,245978,1,0,0:0:0:0:
45,106,246378,2,0,P|48:56|71:12,2,100,2|0|0,0:0|0:0|0:0,0:0:0:0:
126,115,247378,5,0,0:0:0:0:
146,104,247478,1,0,0:0:0:0:
168,103,247578,2,0,L|223:93,2,50
166,176,248178,2,0,L|196:234,1,50
251,168,248578,2,0,P|325:171|392:202,1,150
405,293,250778,5,0,0:0:0:0:
256,192,253978,12,0,260378,0:0:0:0:
