osu file format v12

[General]
AudioFilename: Fire Away.mp3
AudioLeadIn: 0
PreviewTime: 92568
Countdown: 1
SampleSet: Normal
StackLeniency: 0.7
Mode: 0
LetterboxInBreaks: 1
WidescreenStoryboard: 1

[Editor]
Bookmarks: 3107,12089,14964,60952,104065,121311,141431,144305
DistanceSpacing: 1
BeatDivisor: 4
GridSize: 8
TimelineZoom: 1

[Metadata]
Title:Fire Away
TitleUnicode:Fire Away
Artist:Kill the Alarm
ArtistUnicode:Kill the Alarm
Creator:hanyuu_nanodesu
Version:Easy
Source:
Tags:Rock English
BeatmapID:357245
BeatmapSetID:143655

[Difficulty]
HPDrainRate:2
CircleSize:3
OverallDifficulty:2
ApproachRate:3
SliderMultiplier:0.9
SliderTickRate:1

[Events]
//Background and Video events
0,0,"Fire Away BG.jpg",0,0
//Break Periods
2,12289,13524
2,57379,59512
2,115762,119871
2,141631,142865
//Storyboard Layer 0 (Background)
//Storyboard Layer 1 (Fail)
//Storyboard Layer 2 (Pass)
//Storyboard Layer 3 (Foreground)
//Storyboard Sound Samples
//Background Colour Transformations
3,100,163,162,255

[TimingPoints]
3467,359.281437125748,4,1,0,80,1,0
14964,-100,4,2,0,80,0,0
34005,-100,4,2,0,5,0,0
34185,-100,4,2,0,80,0,0
34275,-100,4,2,0,5,0,0
34455,-100,4,2,0,80,0,0
35083,-133.333333333333,4,2,0,80,0,0
45502,-133.333333333333,4,2,0,5,0,0
45682,-133.333333333333,4,2,0,80,0,0
45772,-133.333333333333,4,2,0,5,0,0
45952,-133.333333333333,4,2,0,80,0,0
46580,-100,4,1,0,80,0,1
56281,-133.333333333333,4,1,0,80,0,1
57179,-100,4,1,0,5,0,1
58077,-100,4,2,0,80,0,0
81071,-133.333333333333,4,2,0,80,0,0
92568,-100,4,1,0,80,0,1
115562,-100,4,1,0,60,0,0
144305,-100,4,2,0,60,0,0
150053,-100,4,1,0,70,0,1
155712,-100,4,1,0,100,0,0
155802,-100,4,1,0,80,0,1
166041,-90.9090909090909,4,1,0,80,0,1
168916,-83.3333333333333,4,1,0,80,0,1
171610,-76.9230769230769,4,1,0,80,0,1
174125,-100,4,1,0,80,0,1
178796,-100,4,1,0,80,0,0

[Colours]
Combo1 : 255,121,0
Combo2 : 255,0,0
Combo3 : 174,0,0
Combo4 : 255,168,6
Combo5 : 255,255,15

[HitObjects]
256,192,3107,5,0,0:0:0:0:
256,192,3466,6,0,P|188:118|113:131,1,180
168,208,4544,2,0,B|152:272|88:312|88:312|128:360,2,180
184,104,6341,1,0,0:0:0:0:
279,61,6700,2,0,P|384:56|431:115,1,180
336,144,7778,6,0,B|272:208|272:208|320:296,2,180
424,192,9574,2,0,P|424:96|264:80,1,270
256,162,11011,2,0,P|181:91|192:23,1,180
277,67,12089,1,0,0:0:0:0:
312,216,14964,6,0,B|256:208|240:168|240:168|152:184,1,180
40,199,16041,2,0,P|65:111|157:69,2,180
152,184,17838,2,0,B|192:216|208:256|208:256|256:216|296:208,1,180
320,112,18916,2,0,P|376:152|376:184,2,90
280,216,19993,2,0,P|320:264|360:264,1,90
456,272,20712,5,0,0:0:0:0:
320,112,21431,1,0,0:0:0:0:
146,245,22149,2,0,P|80:208|63:106,2,180
168,136,23946,2,0,B|256:64|336:192|424:120,1,270
432,248,25383,2,0,B|344:320|264:192|176:264,1,270
88,192,26820,2,0,P|144:128|112:40,1,180
48,112,27898,5,0,0:0:0:0:
0,192,28257,2,0,P|16:256|48:280,2,90
128,208,29335,2,0,B|152:288|272:288|272:288|328:208,1,270
370,122,30772,2,0,P|424:184|397:285,1,180
325,211,31850,1,0,0:0:0:0:
216,192,32209,6,0,B|160:160|192:88|192:88|112:96,1,180
32,104,33287,1,0,0:0:0:0:
57,207,33646,2,0,P|95:278|146:296,2,135
160,192,35083,6,0,B|224:152|280:224|360:176,1,202.500007724762
432,112,36520,1,0,0:0:0:0:
478,208,36880,2,0,P|480:272|370:340,2,202.500007724762
381,245,39395,2,0,P|320:184|354:76,1,202.500007724762
416,152,40832,6,0,P|344:200|232:176,1,202.500007724762
136,120,42269,1,0,0:0:0:0:
64,188,42628,2,0,P|45:254|78:320,1,135.000005149842
144,248,43706,2,0,B|176:192|256:176|256:176|264:112,1,202.500007724762
240,24,45143,2,0,P|320:40|336:56,2,101.250003862381
120,48,46580,6,0,P|160:128|256:136,1,180
352,104,47658,1,0,0:0:0:0:
464,120,48017,2,0,P|424:208|344:216,2,180
352,104,49814,2,0,P|304:120|280:168,2,90
352,216,50892,2,0,P|320:312|240:312,1,180
256,224,51969,1,0,0:0:0:0:
256,224,52688,6,0,B|176:184|176:184|216:136|176:88,2,180
352,272,54484,1,0,0:0:0:0:
432,208,54844,2,0,P|448:120|376:64,1,180
336,160,55922,1,0,0:0:0:0:
224,136,56281,6,0,P|128:144|80:208,1,168.750006437302
256,184,60952,6,0,P|312:136|272:48,1,180
192,112,62029,2,0,P|128:152|128:264,2,180
256,184,63826,2,0,P|280:224|320:248,2,90
352,160,64904,2,0,P|408:112|376:16,1,180
304,80,65981,2,0,L|200:80,1,90
104,80,66700,5,0,0:0:0:0:
160,248,67419,1,0,0:0:0:0:
272,112,68137,1,0,0:0:0:0:
104,80,68856,1,0,0:0:0:0:
272,112,69574,2,0,P|368:168|440:152,1,180
392,64,70652,6,0,P|448:56|488:80,2,90
431,155,71730,1,0,0:0:0:0:
384,248,72089,2,0,B|312:304|312:304|232:240,1,180
312,176,73167,2,0,P|264:96|184:104,2,180
224,184,74964,2,0,P|168:224|128:224,1,90
56,248,75682,2,0,P|72:136|208:96,1,270
328,112,77119,1,0,0:0:0:0:
416,176,77478,6,0,P|400:200|336:216,1,90
304,208,78017,2,0,P|256:184|208:200,2,90
240,280,79095,2,0,P|200:288|168:328,2,90
288,368,80173,2,0,P|344:328|344:256,1,135
240,280,81071,6,0,B|176:216|280:160|176:96,1,202.500007724762
88,56,82508,1,0,0:0:0:0:
160,144,82868,2,0,P|240:184|336:128,1,202.500007724762
272,72,84305,2,0,P|224:144|272:240,1,202.500007724762
328,160,85742,1,0,0:0:0:0:
416,112,86101,2,0,P|432:176|392:240,2,135.000005149842
328,160,87898,6,0,B|256:120|184:216|128:152,1,202.500007724762
112,72,89335,2,0,P|48:120|80:232,1,202.500007724762
160,200,90772,2,0,P|168:264|112:312,2,135.000005149842
80,128,92568,6,0,P|144:88|232:144,1,180
272,224,93646,1,0,0:0:0:0:
384,208,94005,2,0,P|448:176|472:64,2,180
304,144,95802,2,0,P|336:112|384:104,2,90
384,208,96880,2,0,P|344:296|264:304,1,180
288,208,97958,1,0,0:0:0:0:
288,208,98676,6,0,L|224:144,2,90
368,272,99754,2,0,B|408:232|384:184|384:184|480:152,1,180
432,72,100832,2,0,B|336:104|336:104|288:80|248:112,1,180
288,184,101910,1,0,0:0:0:0:
248,272,102269,2,0,P|184:320|88:272,2,180
168,224,104065,6,0,P|208:144|296:136,1,180
384,168,105143,1,0,0:0:0:0:
352,72,105502,2,0,P|416:64|440:88,2,90
288,136,106580,2,0,B|232:64|232:64|160:128|56:72,1,270
40,160,108017,2,0,P|128:192|224:168,1,180
256,88,109095,2,0,P|296:112|288:232,2,180
216,168,110892,2,0,P|168:216|208:328,1,180
272,256,111969,6,0,P|328:288|368:288,1,90
464,296,112688,1,0,0:0:0:0:
408,208,113047,2,0,P|384:168|392:120,1,90
387,127,113766,2,0,P|307:191|227:183,2,180
424,32,115562,1,0,0:0:0:0:
256,104,121311,6,0,P|176:120|168:224,2,180
248,192,123107,1,0,0:0:0:0:
312,272,123466,2,0,P|360:312|392:312,1,90
256,192,124185,12,0,127059,0:0:0:0:
344,160,127778,6,0,P|424:176|448:272,1,180
352,272,128856,2,0,P|302:342|216:337,2,180
256,256,130652,1,0,0:0:0:0:
208,176,131011,2,0,P|200:80|272:48,1,180
288,128,132089,2,0,P|352:176|448:136,1,180
368,80,133167,1,0,0:0:0:0:
280,40,133526,6,0,P|200:72|208:160,1,180
288,128,134604,1,0,0:0:0:0:
296,232,134964,2,0,P|256:312|160:296,2,180
208,216,136760,1,0,0:0:0:0:
120,165,137119,2,0,P|142:126|184:112,2,90
104,264,138197,1,0,0:0:0:0:
256,192,138556,12,0,141431,0:0:0:0:
376,120,144305,6,0,B|304:72|304:72|216:120,2,180
296,176,146101,2,0,B|376:223|376:223|450:178,2,180
200,128,147898,2,0,P|104:136|64:216,1,180
160,224,148975,1,0,0:0:0:0:
216,312,149335,2,0,P|280:352|376:312,1,180
440,184,150413,6,0,P|504:248|480:336,1,180
400,280,151490,1,0,0:0:0:0:
344,200,151850,2,0,B|280:136|280:136|248:184|184:160,1,180
200,72,152928,2,0,P|128:104|112:200,1,180
202,166,154005,1,0,0:0:0:0:
224,256,154365,2,0,P|304:200|296:120,2,180
128,256,156161,6,0,P|160:336|248:344,1,180
224,256,157239,1,0,0:0:0:0:
304,192,157598,2,0,P|368:168|456:232,2,180
376,256,159395,2,0,P|392:200|312:112,1,180
272,192,160472,2,0,P|232:160|232:104,2,90
320,112,161550,1,0,0:0:0:0:
360,216,161910,2,0,P|352:296|248:328,1,180
264,240,162987,1,0,0:0:0:0:
218,164,163347,6,0,P|290:148|362:228,1,180
264,240,164425,1,0,0:0:0:0:
168,224,164784,2,0,P|112:152|152:72,1,180
224,136,165862,1,0,0:0:0:0:
328,136,166221,6,0,P|392:192|360:304,1,198.000006042481
288,232,167299,1,0,0:0:0:0:
184,232,167658,2,0,L|72:232,2,99.0000030212403
288,232,168736,1,0,0:0:0:0:
216,160,169095,6,0,P|272:120|320:136,1,107.999996704102
288,232,169814,2,0,P|280:104|200:72,1,215.999993408203
216,160,170892,2,0,P|152:200|104:192,2,107.999996704102
152,104,171969,2,0,P|72:120|56:264,1,233.999989288331
124,198,173047,1,0,0:0:0:0:
208,264,173407,2,0,P|272:280|320:248,1,116.999994644165
256,192,174125,6,0,B|272:136|208:80|208:80|352:16,1,270
352,120,175562,2,0,P|344:192|424:248,2,180
464,168,177359,2,0,P|520:240|480:320,2,180
