osu file format v5

[General]
AudioFilename: 59 - Killswitch Engage - My Curse.mp3
AudioLeadIn: 0
PreviewTime: -1
Countdown: 1
SampleSet: Normal
StackLeniency: 0.7
Mode: 0
LetterboxInBreaks: 1
EditorDistanceSpacing: 0.800000011920929

[Metadata]
Title:My Curse
Artist:Kill SwitchEngage
Creator:SacroiD
Version:Insane
Source:
Tags:

[Difficulty]
HPDrainRate:7
CircleSize:6
OverallDifficulty:8
SliderMultiplier:2.1
SliderTickRate:4

[Events]
//Background and Video events
//Break Periods
2,33476,40729
2,81888,96879
2,131697,147280
//Storyboard Layer 0 (Background)
//Storyboard Layer 1 (Failing)
//Storyboard Layer 2 (Passing)
//Storyboard Layer 3 (Foreground)
//Storyboard Sound Samples
//Background Colour Transformations
3,100,0,0,0

[TimingPoints]
3510,676.513699402413,4,1,0,100,1,0
41479,-100,4,1,0,100,0,1
48492,-100,4,1,0,100,0,0
63804,-100,4,1,0,100,0,1
79448,-100,4,1,0,100,0,1
81618,-100,4,1,0,100,0,0
98804,-100,4,1,0,100,0,1
103201,-100,4,1,0,100,0,0
113358,-100,4,1,0,100,0,1
147952,-100,4,2,0,100,0,0
164069,-100,4,1,0,100,0,1
180974,-100,4,2,0,100,0,0
196570,-50,4,1,0,100,0,0

[HitObjects]
160,96,16955,1,0
192,96,17124,1,2
160,64,17293,1,0
128,96,17463,1,2
160,128,17632,1,8
160,160,18055,2,2,B|192:192|192:192|192:256,2,105
288,96,19069,5,0
256,96,19238,1,2
288,64,19408,1,0
320,96,19577,1,2
288,128,19746,1,8
288,160,20084,2,2,B|256:192|256:192|256:272,2,105
160,160,21099,5,0
128,128,21268,1,2
192,128,21437,1,0
192,160,21606,1,2
128,160,21775,1,8
160,224,22198,2,2,B|192:256|192:256|192:320,2,105
320,160,23213,5,0
320,192,23382,1,2
320,128,23551,1,0
288,160,23720,1,2
352,160,23889,1,8
320,224,24228,2,2,B|352:256|352:256|352:320,2,105
320,32,25243,5,0
288,64,25412,1,2
320,96,25581,1,0
288,128,25750,1,2
320,160,25919,1,8
320,224,26257,2,2,B|256:320|256:320|352:320,1,210
128,32,27357,5,0
160,64,27526,1,2
128,96,27695,1,0
160,128,27864,1,2
128,160,28033,1,8
128,224,28371,2,2,B|192:320|192:320|96:320,1,210
256,193,29386,5,0
288,225,29555,1,2
303,161,29724,1,0
352,193,29894,1,2
333,233,30063,1,8
384,257,30401,2,2,B|448:353|448:353|352:353,1,210
131,69,31416,6,8,B|187:69,4,52.5
183,70,32515,2,2,B|247:166|247:166|151:166,1,210
456,236,41479,6,6,B|388:18|388:18|457:16|0:28|118:24|118:24|173:143|173:143|370:211|370:211|19:261|390:260|390:260|285:22|285:22|21:330|113:332|113:332|383:338,1,2100
406,194,50527,5,2
309,104,50865,1,0
276,206,51204,1,8
187,162,51542,1,0
112,116,51880,1,8
108,209,52218,5,2
108,210,52388,1,2
108,210,52557,1,2
108,210,52726,1,2
108,210,52895,1,2
160,224,53064,1,12
160,192,53233,1,12
256,128,53572,5,0
256,32,53910,1,4
256,128,54502,5,8
256,224,54840,1,0
256,128,55178,1,8
256,224,55516,1,6
256,192,56108,12,0,57123
288,160,58476,5,0
256,256,58814,1,2
192,128,59152,1,2
128,192,59491,2,8,B|96:128|96:128|224:320,1,288.75
216,243,60844,5,0
216,307,61013,1,0
216,275,61182,1,0
320,320,61521,5,0
128,320,61859,1,4
224,224,62451,1,0
352,224,62874,1,8
288,128,63212,1,0
128,128,63550,1,10
128,192,63804,2,6,B|320:192|320:192|384:320|384:320|306:324,1,400
138,302,65495,5,0
138,278,65580,1,0
139,247,65664,1,12
256,224,66002,5,0
256,200,66087,1,0
257,169,66171,1,12
480,224,66510,5,0
480,200,66595,1,0
481,169,66679,1,12
352,320,67017,5,0
352,296,67102,1,0
353,265,67186,1,12
160,160,68117,6,0,B|288:160,3,105
178,10,69470,5,0
202,10,69555,1,0
233,11,69639,1,12
256,128,69977,5,0
280,128,70062,1,0
311,129,70146,1,12
256,352,70485,5,0
280,352,70570,1,0
311,353,70654,1,12
160,224,70992,5,0
184,224,71077,1,0
215,225,71161,1,12
256,192,72091,12,4,73106
334,10,73529,5,0
310,10,73614,1,0
279,11,73698,1,12
256,128,74036,5,0
232,128,74121,1,0
201,129,74205,1,12
256,352,74544,5,0
232,352,74629,1,0
201,353,74713,1,12
352,224,75051,5,0
328,224,75136,1,0
297,225,75220,1,12
160,160,76150,6,0,B|288:160,3,105
438,114,77503,5,0
438,138,77588,1,0
437,169,77672,1,12
320,192,78010,5,0
320,216,78095,1,0
319,247,78179,1,12
96,192,78518,5,0
96,216,78603,1,0
95,247,78687,1,12
224,96,79025,5,0
224,120,79110,1,0
223,151,79194,1,12
512,192,79617,6,6,B|256:128|256:128|352:160|352:160|224:320,1,551.25
192,96,97629,5,8
320,96,97968,1,8
256,160,98306,1,8
384,224,98644,6,6,B|288:64|288:64|-32:224|-32:224|448:128|448:128|288:224,1,1207.5
416,224,103803,5,0
288,128,104310,1,10
256,256,104733,1,4
128,256,105071,1,0
128,192,105409,1,10
130,170,105579,1,0
154,180,105748,1,10
98,180,105917,1,0
131,146,106086,1,10
130,210,106255,1,0
153,177,106424,1,14
386,210,107693,5,0
333,129,108031,1,2
283,209,108369,1,12
219,130,108707,1,0
176,207,109046,1,4
252,255,109384,5,10
280,256,109554,1,0
303,227,109723,1,10
303,198,109892,1,0
273,164,110061,1,10
272,125,110230,1,0
301,99,110399,1,14
384,192,110737,5,0
192,192,111075,1,0
288,288,111413,1,0
160,288,111752,1,0
160,128,112344,1,0
416,96,113358,6,0,B|224:224|224:224|288:96|288:96|416:320,1,603.75
415,297,115726,5,0
415,273,115811,1,0
416,242,115895,1,12
415,233,116233,5,0
415,257,116318,1,0
416,288,116402,1,12
160,160,117417,6,0,B|288:160,3,105
178,10,118770,5,0
202,10,118855,1,0
233,11,118939,1,12
256,128,119277,5,0
280,128,119362,1,0
311,129,119446,1,12
256,352,119785,5,0
280,352,119870,1,0
311,353,119954,1,12
160,224,120292,5,0
184,224,120377,1,0
215,225,120461,1,12
256,192,121391,12,4,122238
334,10,122745,5,0
310,10,122830,1,0
279,11,122914,1,12
256,128,123252,5,0
232,128,123337,1,0
201,129,123421,1,12
256,352,123760,5,0
232,352,123845,1,0
201,353,123929,1,12
352,224,124267,5,0
328,224,124352,1,0
297,225,124436,1,12
160,160,125450,6,0,B|288:160,3,105
438,114,126803,5,0
438,138,126888,1,0
437,169,126972,1,12
320,192,127310,5,0
320,216,127395,1,0
319,247,127479,1,12
96,192,127818,5,0
96,216,127903,1,0
95,247,127987,1,12
224,96,128325,5,0
224,120,128410,1,0
223,151,128494,1,12
512,192,129426,6,6,B|256:128|256:128|352:160|352:160|224:320,1,551.25
384,32,148030,6,0,B|384:160|288:160,1,157.5
320,160,148875,1,0
320,160,149045,6,0,B|192:160|192:256,1,157.5
192,235,149890,1,0
3,29,150059,6,0,B|3:157|99:157,1,157.5
67,157,150905,1,0
67,157,151074,6,0,B|195:157|195:253,1,157.5
195,232,151920,1,0
384,32,152089,6,0,B|384:160|288:160,1,157.5
320,160,152934,1,0
320,160,153104,6,0,B|192:160|192:256,1,157.5
192,235,153949,1,0
384,32,154203,6,0,B|384:160|288:160,1,157.5
320,160,155048,1,0
320,160,155218,6,0,B|192:160|192:256,1,157.5
192,235,156063,1,0
386,339,156232,6,0,B|386:211|290:211,1,157.5
322,211,157077,1,0
322,211,157247,6,0,B|194:211|194:115,1,157.5
194,136,158092,1,0
126,339,158347,6,0,B|126:211|222:211,1,157.5
190,211,159192,1,0
190,211,159362,6,0,B|318:211|318:115,1,157.5
318,136,160207,1,0
256,192,160292,12,4,164266
248,136,164520,5,0
248,136,164604,1,0
248,136,164689,1,0
248,136,164773,1,0
248,136,164858,1,0
248,136,164943,1,0
248,136,165027,1,0
248,136,165112,1,0
248,136,165196,1,0
248,136,165281,1,0
320,224,165535,1,8
448,160,165704,1,8
448,256,165873,1,8
352,320,166042,1,8
224,320,166211,1,8
160,224,166380,1,8
248,136,166549,5,0
248,136,166633,1,0
248,136,166718,1,0
248,136,166802,1,0
248,136,166887,1,0
248,136,166972,1,0
248,136,167056,1,0
248,136,167141,1,0
248,136,167225,1,0
248,136,167310,1,0
320,224,167564,1,8
448,160,167733,1,8
448,256,167902,1,8
352,320,168071,1,8
224,320,168240,1,8
160,224,168409,1,8
243,233,168579,5,0
243,233,168663,1,0
243,233,168748,1,0
243,233,168832,1,0
243,233,168917,1,0
243,233,169002,1,0
243,233,169086,1,0
243,233,169171,1,0
243,233,169255,1,0
243,233,169340,1,0
331,161,169679,1,2
267,33,169848,1,2
363,33,170017,1,2
427,129,170186,1,2
427,257,170355,1,4
331,321,170524,1,4
292,258,170778,5,2
292,258,170862,1,2
292,258,170947,1,2
292,258,171031,1,2
292,258,171116,1,2
292,258,171201,1,2
292,258,171285,1,2
293,259,171370,1,2
293,259,171454,1,2
293,259,171539,1,2
197,209,171793,1,0
261,337,171962,1,0
165,337,172131,1,0
101,241,172300,1,0
101,113,172469,1,0
199,81,172638,1,0
250,168,172807,5,4
250,168,172891,1,4
250,168,172976,1,4
250,168,173060,1,4
250,168,173145,1,4
250,168,173230,1,4
250,168,173314,1,4
250,168,173399,1,4
250,168,173483,1,4
250,168,173568,1,0
320,224,173737,1,0
448,160,173906,1,0
448,256,174075,1,0
352,320,174244,1,0
224,320,174413,1,0
160,224,174582,1,0
73,312,174837,5,0
73,312,174921,1,0
73,312,175006,1,0
73,312,175090,1,0
73,312,175175,1,0
73,312,175260,1,0
73,312,175344,1,0
73,312,175429,1,0
73,312,175513,1,0
73,312,175598,1,0
86,160,175852,1,10
266,161,176021,1,10
269,59,176190,1,10
263,160,176359,1,10
84,159,176528,1,10
245,135,176697,1,10
248,136,176866,5,0
248,136,176950,1,0
248,136,177035,1,0
248,136,177119,1,0
248,136,177204,1,0
248,136,177289,1,0
248,136,177373,1,0
248,136,177458,1,0
248,136,177542,1,0
248,136,177627,1,0
320,224,177881,1,10
448,160,178050,1,10
448,256,178219,1,10
352,320,178388,1,10
224,320,178557,1,10
160,224,178726,1,10
349,77,178980,5,14
349,77,179064,1,14
349,77,179149,1,14
349,77,179233,1,14
349,77,179318,1,14
349,77,179403,1,14
349,77,179487,1,14
349,77,179572,1,14
349,77,179656,1,14
349,77,179741,1,14
277,165,179995,1,14
149,101,180164,1,14
149,197,180333,1,14
245,261,180502,1,14
373,261,180671,1,14
437,165,180840,1,14
373,192,181094,5,2
180,196,181602,1,8
182,320,182109,1,0
331,198,182617,1,8
335,312,183124,1,0
112,196,183631,1,8
250,78,184223,1,0
481,190,184731,1,8
263,308,185238,1,0
257,189,185745,1,8
181,109,186253,1,0
357,102,186760,1,8
354,256,187268,1,0
256,194,187775,1,8
356,258,188282,1,0
147,114,188790,1,8
350,106,189297,1,0
258,193,189804,1,8
149,114,190312,1,0
353,273,190904,1,8
257,193,191411,1,0
257,193,191919,1,8
256,192,192426,12,4,195809
149,231,196570,6,0,B|227:186|322:240,2,180
256,64,197584,5,8
256,96,197753,1,8
288,128,197923,1,8
320,160,198092,1,8
288,192,198261,1,8
234,153,198641,5,8
234,185,198810,1,8
202,217,198980,1,8
170,249,199149,1,8
202,281,199318,1,8
256,64,199698,5,8
256,96,199867,1,8
288,128,200037,1,8
320,160,200206,1,8
288,192,200375,1,8
382,205,200713,5,8
382,237,200882,1,8
350,269,201052,1,8
318,301,201221,1,8
350,333,201390,1,8
256,64,201770,5,8
256,96,201939,1,8
288,128,202109,1,8
320,160,202278,1,8
288,192,202447,1,8
234,153,202827,5,8
234,185,202996,1,8
202,217,203166,1,8
170,249,203335,1,8
202,281,203504,1,8
256,64,203884,5,8
256,96,204053,1,8
288,128,204223,1,8
320,160,204392,1,8
288,192,204561,1,8
382,205,204899,5,8
382,237,205068,1,8
350,269,205238,1,8
318,301,205407,1,8
350,333,205576,1,8
256,64,205956,5,8
256,96,206125,1,8
288,128,206295,1,8
320,160,206464,1,8
288,192,206633,1,8
234,153,207013,5,8
234,185,207182,1,8
202,217,207352,1,8
170,249,207521,1,8
202,281,207690,1,8
256,64,208070,5,8
256,96,208239,1,8
288,128,208409,1,8
320,160,208578,1,8
288,192,208747,1,8
382,205,209085,5,8
382,237,209254,1,8
350,269,209424,1,8
318,301,209593,1,8
350,333,209762,1,8
256,64,210142,5,8
256,96,210311,1,8
288,128,210481,1,8
320,160,210650,1,8
288,192,210819,1,8
234,153,211199,5,8
234,185,211368,1,8
202,217,211538,1,8
170,249,211707,1,8
202,281,211876,1,8
256,64,212256,5,8
256,96,212425,1,8
288,128,212595,1,8
320,160,212764,1,8
288,192,212933,1,8
382,205,213271,5,8
382,237,213440,1,8
350,269,213610,1,8
318,301,213779,1,8
350,333,213948,1,8
256,64,214328,5,8
256,96,214497,1,8
288,128,214667,1,8
320,160,214836,1,8
288,192,215005,1,8
234,153,215385,5,8
234,185,215554,1,8
202,217,215724,1,8
170,249,215893,1,8
202,281,216062,1,8
256,64,216442,5,8
256,96,216611,1,8
288,128,216781,1,8
320,160,216950,1,8
288,192,217119,1,8
382,205,217457,5,8
382,237,217626,1,8
350,269,217796,1,8
318,301,217965,1,8
350,333,218134,1,8
256,64,218514,5,8
256,96,218683,1,8
288,128,218853,1,8
320,160,219022,1,8
288,192,219191,1,8
234,153,219571,5,8
234,185,219740,1,8
202,217,219910,1,8
170,249,220079,1,8
202,281,220248,1,8
256,64,220628,5,8
256,96,220797,1,8
288,128,220967,1,8
320,160,221136,1,8
288,192,221305,1,8
382,205,221643,5,8
382,237,221812,1,8
350,269,221982,1,8
318,301,222151,1,14
350,333,222320,1,14
