osu file format v9

[General]
AudioFilename: Green Hornet.mp3
AudioLeadIn: 0
PreviewTime: -1
Countdown: 1
SampleSet: Soft
StackLeniency: 0.7
Mode: 0
LetterboxInBreaks: 1

[Editor]
DistanceSpacing: 1.4
BeatDivisor: 6
GridSize: 8

[Metadata]
Title:The Green Hornet
Artist:Kill Bill Vol.1
Creator:Kakuzu4ever
Version:Normal
Source:
Tags:

[Difficulty]
HPDrainRate:3
CircleSize:3
OverallDifficulty:4
ApproachRate:4
SliderMultiplier:3.59999990463257
SliderTickRate:4

[Events]
//Background and Video events
0,0,"T-GreenHornet1024x768.jpg"
//Break Periods
//Storyboard Layer 0 (Background)
//Storyboard Layer 1 (Fail)
//Storyboard Layer 2 (Pass)
//Storyboard Layer 3 (Foreground)
//Storyboard Sound Samples
//Background Colour Transformations
3,100,163,162,255

[TimingPoints]
0,669.568128557081,6,2,0,100,1,0

[HitObjects]
56,336,3682,1,2
112,288,3849,1,2
176,240,4017,1,2
240,192,4184,1,0
296,240,4351,1,8
304,304,4686,6,0,B|400:304,3,89.9999976158143
384,224,5356,1,8
320,168,5523,1,4
176,72,5691,6,2,B|272:136,1,89.9999976158143
50,157,6026,2,4,B|146:93,1,89.9999976158143
151,165,6360,2,2,B|79:221,1,89.9999976158143
201,136,6695,2,4,B|297:208,1,89.9999976158143
290,251,7030,6,6,B|378:251,1,89.9999976158143
382,312,7365,2,8,B|494:312,1,89.9999976158143
475,251,7700,2,2,B|476:124,1,119.999996821086
406,128,8034,1,8
249,128,8202,6,2,B|369:128,1,89.9999976158143
97,131,8536,2,4,B|201:131,1,89.9999976158143
98,197,8871,2,2,B|194:197,1,89.9999976158143
255,200,9206,2,4,B|359:200,1,89.9999976158143
109,278,9541,1,8
179,280,9708,6,0,B|267:344,1,89.9999976158143
320,272,10043,2,2,B|240:344,1,89.9999976158143
369,224,10378,2,4,B|473:144,1,89.9999976158143
440,168,10713,2,4,B|328:88,1,89.9999976158143
272,96,11047,1,8
64,96,11215,6,4,B|176:96,1,89.9999976158143
112,168,11550,1,8
160,232,11717,2,2,B|56:232,1,89.9999976158143
256,168,12052,1,8
448,96,12219,2,2,B|344:96,1,89.9999976158143
448,192,12554,2,6,B|336:192,1,89.9999976158143
264,224,12889,5,10
168,248,13056,2,2,B|272:336,1,89.9999976158143
288,336,13391,2,6,B|376:272,1,89.9999976158143
416,248,13726,1,10
360,200,13893,2,4,B|448:144,1,89.9999976158143
400,96,14228,2,4,B|304:32,1,89.9999976158143
240,48,14563,1,8
136,72,14730,1,8
72,128,14897,5,8
48,240,15065,1,8
152,272,15232,1,8
240,248,15400,5,8
264,176,15567,1,8
288,112,15734,1,8
344,48,15902,1,8
432,64,16069,1,8
432,144,16237,1,8
416,224,16404,1,8
384,304,16571,1,8
392,352,16739,6,2,B|496:352,1,89.9999976158143
480,288,17073,2,4,B|376:288,1,89.9999976158143
480,216,17408,2,6,B|392:216,1,89.9999976158143
256,208,17743,1,8
112,208,17910,1,8
112,128,18078,2,2,B|24:128,1,89.9999976158143
24,56,18413,2,4,B|136:56,1,89.9999976158143
184,56,18747,2,6,B|272:56,1,89.9999976158143
480,56,19082,1,8
480,128,19250,1,8
328,128,19417,2,4,B|416:128,1,89.9999976158143
256,128,19752,2,14,B|168:128,1,89.9999976158143
32,200,20087,6,2,B|136:200,1,89.9999976158143
200,200,20421,1,8
288,200,20589,1,8
368,200,20756,2,2,B|480:200,1,89.9999976158143
456,272,21091,2,4,B|368:272,1,89.9999976158143
32,272,21426,2,4,B|128:272,1,89.9999976158143
192,272,21760,1,8
288,272,21928,1,8
152,184,22095,6,2,B|48:184,1,89.9999976158143
288,184,22430,1,8
384,184,22597,2,4,B|488:184,1,89.9999976158143
208,184,22932,1,8
152,112,23100,1,8
152,184,23267,2,2,B|48:184,1,89.9999976158143
64,256,23602,2,2,B|152:256,1,89.9999976158143
240,256,23937,1,8
152,184,24104,2,2,B|40:184,1,89.9999976158143
56,344,24439,5,8
224,344,24606,2,2,B|136:344,1,89.9999976158143
304,344,24941,2,4,B|400:344,1,89.9999976158143
472,344,25276,1,8
472,272,25443,2,2,B|376:272,2,89.9999976158143
224,272,25945,2,0,B|320:272,1,89.9999976158143
128,272,26224,1,8
48,272,26447,5,8
40,184,26615,1,8
144,72,26782,1,8
280,40,26950,1,8
384,88,27117,1,8
448,176,27284,1,8
272,184,27452,1,8
144,184,27619,6,2,B|48:184,1,89.9999976158143
54,184,27954,2,2,B|144:184,1,89.9999976158143
384,184,28289,2,2,B|480:184,1,89.9999976158143
474,184,28624,2,4,B|376:184,1,89.9999976158143
144,184,28958,2,2,B|48:184,1,89.9999976158143
48,96,29293,6,2,B|144:96,1,89.9999976158143
208,96,29628,1,2
296,96,29795,1,4
376,96,29963,1,2
456,96,30130,1,2
456,176,30297,1,4
336,192,30465,2,2,B|440:272,1,89.9999976158143
352,288,30800,2,2,B|256:368,1,89.9999976158143
216,296,31134,2,2,B|336:208,1,89.9999976158143
240,192,31469,2,4,B|136:120,1,89.9999976158143
104,104,31804,5,8
64,168,31971,1,8
56,248,32138,1,4
96,312,32306,1,2
176,320,32473,1,4
272,312,32640,1,2
352,288,32808,1,8
432,224,32976,1,0
448,136,33143,1,2
448,56,33311,1,6
360,48,33478,5,8
272,48,33645,1,0
360,120,33813,1,8
272,120,33980,1,2
360,184,34147,1,4
272,184,34315,1,2
360,256,34482,1,8
272,256,34650,1,8
272,336,34817,1,8
144,184,35152,6,2,B|40:184,1,89.9999976158143
54,184,35487,2,4,B|144:184,1,89.9999976158143
144,184,35821,2,2,B|40:184,1,89.9999976158143
128,192,36156,1,8
40,40,36324,6,2,B|128:40,1,89.9999976158143
128,112,36658,2,2,B|32:112,1,89.9999976158143
32,192,36993,2,2,B|120:192,1,89.9999976158143
256,176,37328,1,4
448,176,37495,2,2,B|348:176,1,89.9999976158143
360,256,37830,2,2,B|454:257,1,89.9999976158143
448,344,38165,2,2,B|357:342,2,89.9999976158143
264,336,38667,5,4
168,336,38834,2,2,B|72:336,1,89.9999976158143
72,256,39169,2,2,B|168:256,1,89.9999976158143
160,176,39504,2,2,B|72:176,2,89.9999976158143
264,184,40006,5,4
360,184,40174,2,2,B|472:184,1,89.9999976158143
448,104,40508,2,2,B|352:104,2,89.9999976158143
448,32,41011,2,2,B|344:32,1,89.9999976158143
256,32,41345,5,4
56,32,41513,2,2,B|160:32,1,89.9999976158143
144,112,41848,2,2,B|48:112,2,89.9999976158143
56,192,42350,2,2,B|152:192,1,89.9999976158143
248,192,42684,5,12
344,192,42852,2,2,B|432:192,1,89.9999976158143
336,272,43187,2,4,B|424:272,2,89.9999976158143
248,320,43689,1,8
248,192,43856,1,8
264,88,44024,1,8
432,32,44358,6,2,B|344:80,1,89.9999976158143
216,160,44693,2,2,B|296:112,1,89.9999976158143
152,200,45028,2,4,B|72:248,2,89.9999976158143
16,288,45530,1,8
8,360,45698,6,0,B|72:0|80:0|88:0|96:0|120:368|128:368|136:376|144:384|152:384|160:384|168:384|192:0|208:0|200:0|216:0|272:376|280:376|344:352|232:192|192:80|256:152|312:328|488:288,1,1169.99996900559
464,208,48041,1,8
208,208,48208,6,4,B|400:208,2,179.999995231629
272,144,49045,1,2
352,144,49213,1,14
256,192,49380,12,14,50887
248,192,51054,5,2
248,192,51221,1,4
256,192,52226,5,2
256,192,52561,12,14,53733
264,192,53900,5,8
256,192,54067,1,8
256,192,54904,5,2
256,192,55239,12,10,56243
192,192,56578,5,8
320,192,56913,1,8
256,192,57582,1,8
256,192,57917,12,8,58587
32,192,58754,6,2,B|160:288,2,89.9999976158143
160,192,59256,2,2,B|32:88,2,89.9999976158143
232,160,59758,5,2
256,88,59926,1,2
304,24,60093,1,2
224,16,60261,1,2
176,72,60428,1,2
104,32,60595,1,2
24,32,60763,6,2,B|272:200,1,269.999992847443
312,240,61432,2,2,B|312:152,1,89.9999976158143
384,152,61767,2,2,B|384:256,1,89.9999976158143
464,232,62102,2,2,B|464:136,2,89.9999976158143
424,304,62604,1,12
344,304,63274,1,2
488,16,63441,6,2,B|208:192,1,269.999992847443
160,176,64111,2,2,B|240:264,1,89.9999976158143
248,288,64445,2,2,B|368:216,1,89.9999976158143
376,184,64780,2,2,B|480:280,3,89.9999976158143
352,304,65952,5,2
288,256,66119,2,2,B|448:112,2,179.999995231629
400,24,66956,2,2,B|488:112,1,89.9999976158143
352,64,67291,2,2,B|280:120,1,89.9999976158143
232,168,67626,2,2,B|144:80,2,89.9999976158143
80,232,68798,5,2
80,232,68965,2,2,B|448:232,1,359.999990463257
352,160,69802,2,2,B|488:160,1,89.9999976158143
192,160,70137,2,2,B|288:160,1,89.9999976158143
440,96,70472,2,2,B|328:96,1,89.9999976158143
280,80,70806,6,2,B|280:176,1,89.9999976158143
288,240,71141,2,2,B|376:176,1,89.9999976158143
336,88,71476,2,2,B|432:144,1,89.9999976158143
440,232,72145,1,2
376,176,72480,1,2
312,144,72648,6,2,B|248:224,2,89.9999976158143
208,264,73150,1,2
96,256,73317,2,2,B|184:328,1,89.9999976158143
120,176,73652,1,2
144,80,74154,6,2,B|32:112,1,89.9999976158143
208,64,74489,2,2,B|304:32,1,89.9999976158143
240,136,74824,2,2,B|360:80,1,89.9999976158143
248,208,75159,2,2,B|440:200,1,179.999995231629
360,272,75661,2,2,B|440:176,1,89.9999976158143
408,112,75995,2,2,B|280:256,1,179.999995231629
256,32,76498,6,2,B|344:88,1,89.9999976158143
208,80,76832,2,2,B|296:152,1,89.9999976158143
200,176,77167,1,2
224,248,77335,2,2,B|320:200,1,89.9999976158143
272,88,77669,2,2,B|472:200,1,179.999995231629
408,264,78172,1,2
256,336,78339,2,2,B|344:288,1,89.9999976158143
80,208,78674,2,2,B|208:360,1,179.999995231629
224,248,79176,1,2
248,160,79343,6,2,B|128:216,1,89.9999976158143
136,264,79678,1,2
96,320,79845,2,2,B|40:216,1,89.9999976158143
104,200,80180,2,2,B|64:96,1,89.9999976158143
168,80,80515,1,2
240,64,80682,2,2,B|376:112,2,89.9999976158143
376,152,81185,1,2
320,192,81352,2,2,B|168:304,1,179.999995231629
128,264,81854,5,2
104,216,82022,2,2,B|200:176,1,89.9999976158143
163,125,82356,2,2,B|72:168,1,89.9999976158143
81,163,82691,2,2,B|168:120,1,89.9999976158143
88,80,83026,1,14
144,56,83361,5,2
208,64,83528,2,2,B|320:176,1,89.9999976158143
320,176,84030,1,2
344,112,84365,2,2,B|440:112|472:240|480:240,1,179.999995231629
408,264,84867,1,2
312,264,85035,1,2
224,256,85369,2,2,B|288:176,1,89.9999976158143
464,40,85704,5,2
288,40,85872,2,2,B|384:40,1,89.9999976158143
128,40,86206,2,2,B|216:40,2,89.9999976158143
24,112,86709,2,2,B|112:112,1,89.9999976158143
176,112,87043,2,2,B|264:112,2,89.9999976158143
336,112,87546,2,2,B|424:112,2,89.9999976158143
384,176,88048,2,2,B|480:176,2,89.9999976158143
224,176,88550,2,2,B|320:176,2,89.9999976158143
256,192,89052,12,2,92735
152,184,92902,5,2
224,184,93237,6,2,B|320:184,3,89.9999976158143
392,184,93907,1,2
320,256,94074,1,2
184,240,94242,6,2,B|280:304,1,89.9999976158143
280,216,94577,2,2,B|376:152,1,89.9999976158143
304,104,94911,2,2,B|232:160,1,89.9999976158143
112,144,95246,2,2,B|208:216,1,89.9999976158143
192,256,95581,6,2,B|280:256,1,89.9999976158143
296,312,95916,2,2,B|408:312,1,89.9999976158143
384,256,96251,2,2,B|488:256,1,89.9999976158143
464,192,96585,1,2
368,104,96753,6,2,B|488:104,1,89.9999976158143
208,104,97087,2,2,B|312:104,1,89.9999976158143
40,104,97422,2,2,B|136:104,1,89.9999976158143
40,184,97757,2,2,B|144:184,1,89.9999976158143
232,184,98092,1,2
272,128,98259,6,2,B|360:192,1,89.9999976158143
456,72,98594,2,2,B|376:144,1,89.9999976158143
400,208,98929,2,2,B|504:128,1,89.9999976158143
400,296,99264,2,2,B|288:216,1,89.9999976158143
256,288,99598,1,2
48,304,99765,6,2,B|160:304,1,89.9999976158143
136,240,100100,1,2
232,176,100267,2,2,B|128:176,1,89.9999976158143
144,112,100602,1,2
136,40,100769,2,2,B|32:40,1,89.9999976158143
288,40,101104,2,2,B|176:40,1,89.9999976158143
336,104,101439,5,2
392,152,101606,2,2,B|496:240,1,89.9999976158143
344,312,101941,2,2,B|432:248,1,89.9999976158143
264,328,102276,1,2
184,296,102443,2,2,B|272:240,1,89.9999976158143
224,184,102778,2,2,B|128:120,1,89.9999976158143
80,112,103113,1,2
48,192,103280,1,2
56,272,103447,5,2
112,320,103615,1,2
184,304,103782,1,2
240,264,103950,5,2
280,248,104117,1,2
320,256,104284,1,2
360,272,104452,1,2
392,256,104619,1,2
408,216,104787,1,2
392,176,104954,1,2
360,152,105121,1,2
208,120,105289,6,2,B|312:120,1,89.9999976158143
304,56,105623,2,2,B|200:56,1,89.9999976158143
456,56,105958,2,2,B|368:56,1,89.9999976158143
456,128,106293,1,2
360,128,106460,1,2
448,192,106628,2,2,B|360:192,1,89.9999976158143
192,192,106963,2,2,B|304:192,1,89.9999976158143
184,264,107297,2,2,B|272:264,1,89.9999976158143
360,272,107632,1,2
456,272,107800,1,2
360,344,107967,2,2,B|448:344,1,89.9999976158143
280,344,108302,2,2,B|192:344,1,89.9999976158143
40,344,108637,6,2,B|128:344,1,89.9999976158143
120,272,108971,2,2,B|24:272,1,89.9999976158143
184,264,109306,2,2,B|272:264,1,89.9999976158143
272,200,109641,1,2
456,192,109808,2,2,B|356:192,1,89.9999976158143
368,128,110143,2,2,B|462:129,1,89.9999976158143
456,64,110478,2,2,B|365:62,2,89.9999976158143
280,56,110980,5,2
200,56,111147,2,2,B|104:56,1,89.9999976158143
112,128,111482,2,2,B|208:128,1,89.9999976158143
376,128,111817,2,2,B|288:128,2,89.9999976158143
456,128,112319,5,2
368,200,112487,2,2,B|480:200,1,89.9999976158143
304,200,112821,2,2,B|208:200,2,89.9999976158143
152,200,113324,2,2,B|48:200,1,89.9999976158143
56,128,113658,5,2
56,48,113826,2,2,B|160:48,1,89.9999976158143
232,48,114161,2,2,B|136:48,2,89.9999976158143
232,48,114663,2,2,B|328:48,1,89.9999976158143
416,48,114997,5,2
376,112,115165,2,2,B|464:112,1,89.9999976158143
376,184,115500,2,2,B|464:184,2,89.9999976158143
416,256,116002,1,2
344,256,116169,1,2
272,256,116337,1,2
192,256,116504,6,2,B|96:256,1,89.9999976158143
96,184,116839,2,2,B|186:184,1,89.9999976158143
96,120,117174,2,2,B|192:120,1,89.9999976158143
176,56,117509,2,2,B|78:56,1,89.9999976158143
344,56,117843,2,2,B|248:56,1,89.9999976158143
256,120,118178,6,2,B|352:120,1,89.9999976158143
296,184,118513,1,2
320,216,118680,1,2
328,256,118848,1,2
304,296,119015,1,2
256,288,119182,1,2
128,192,119350,2,2,B|232:272,1,89.9999976158143
104,248,119685,2,2,B|8:328,1,89.9999976158143
32,176,120019,2,2,B|152:88,1,89.9999976158143
232,144,120354,2,2,B|128:72,1,89.9999976158143
224,56,120689,5,2
264,40,120856,1,2
304,56,121023,1,2
336,88,121191,1,2
360,136,121358,1,2
368,176,121525,1,2
352,224,121693,1,2
312,248,121861,1,2
264,232,122028,1,2
376,184,122196,1,2
224,216,122363,5,2
208,176,122530,1,2
176,144,122698,1,2
144,112,122865,1,2
104,128,123032,1,2
80,160,123200,1,2
80,200,123367,1,2
80,248,123535,1,2
120,280,123702,1,2
272,280,124037,6,2,B|168:280,1,89.9999976158143
336,280,124372,2,2,B|426:280,1,89.9999976158143
416,216,124706,2,2,B|312:216,1,89.9999976158143
400,136,125041,1,2
400,56,125209,2,2,B|488:56,1,89.9999976158143
336,56,125544,2,2,B|240:56,1,89.9999976158143
240,128,125878,2,2,B|336:128,1,89.9999976158143
240,200,126213,2,2,B|344:200,1,89.9999976158143
288,264,126548,2,2,B|504:264,1,179.999995231629
288,328,127050,2,2,B|480:328,1,179.999995231629
224,304,127552,1,2
168,272,127720,1,2
56,208,127887,6,2,B|144:208,1,89.9999976158143
304,208,128222,6,2,B|208:208,1,89.9999976158143
368,208,128556,6,2,B|464:208,1,89.9999976158143
360,136,128891,6,2,B|464:136,1,89.9999976158143
112,144,129226,6,2,B|328:144,1,179.999995231629
32,80,129728,6,2,B|224:80,1,179.999995231629
256,192,130231,12,2,135754
256,192,135922,5,2
