osu file format v9

[General]
AudioFilename: Green Hornet.mp3
AudioLeadIn: 0
PreviewTime: -1
Countdown: 1
SampleSet: Soft
StackLeniency: 0.7
Mode: 0
LetterboxInBreaks: 1

[Editor]
DistanceSpacing: 1.4
BeatDivisor: 6
GridSize: 8

[Metadata]
Title:The Green Hornet
Artist:Kill Bill Vol.1
Creator:Kakuzu4ever
Version:Kakuzu hard mode
Source:
Tags:

[Difficulty]
HPDrainRate:6
CircleSize:3
OverallDifficulty:7
ApproachRate:7
SliderMultiplier:3.59999990463257
SliderTickRate:4

[Events]
//Background and Video events
0,0,"T-GreenHornet1024x768.jpg"
//Break Periods
//Storyboard Layer 0 (Background)
//Storyboard Layer 1 (Fail)
//Storyboard Layer 2 (Pass)
//Storyboard Layer 3 (Foreground)
//Storyboard Sound Samples
//Background Colour Transformations
3,100,163,162,255

[TimingPoints]
0,669.568128557081,6,2,0,100,1,0

[HitObjects]
32,352,3682,1,2
88,304,3849,1,2
144,264,4017,1,2
200,224,4184,1,0
384,192,4351,1,8
384,192,4686,6,0,B|480:192,3,89.9999976158143
416,272,5356,1,8
288,200,5523,1,4
104,80,5691,6,2,B|200:144,1,89.9999976158143
176,128,6026,2,4,B|272:64,1,89.9999976158143
176,128,6360,2,2,B|104:184,1,89.9999976158143
176,128,6695,2,4,B|272:200,1,89.9999976158143
24,24,7030,6,6,B|112:24,1,89.9999976158143
112,80,7365,2,8,B|224:80,1,89.9999976158143
208,144,7700,2,2,B|312:144,1,89.9999976158143
312,200,8034,1,8
376,24,8202,6,2,B|496:24,1,89.9999976158143
272,88,8536,2,4,B|376:88,1,89.9999976158143
176,152,8871,2,2,B|272:152,1,89.9999976158143
80,216,9206,2,4,B|184:216,1,89.9999976158143
400,216,9541,1,8
176,136,9708,6,0,B|264:200,1,89.9999976158143
312,128,10043,2,2,B|232:200,1,89.9999976158143
176,240,10378,2,4,B|280:160,1,89.9999976158143
320,240,10713,2,4,B|208:160,1,89.9999976158143
248,192,11047,1,8
72,136,11215,6,4,B|184:136,1,89.9999976158143
320,168,11550,1,8
160,200,11717,2,2,B|56:200,1,89.9999976158143
128,176,12052,1,8
408,136,12219,2,2,B|304:136,1,89.9999976158143
408,200,12554,2,6,B|296:200,1,89.9999976158143
192,160,12889,5,10
288,160,13056,2,2,B|392:248,1,89.9999976158143
416,176,13391,2,6,B|504:112,1,89.9999976158143
416,64,13726,1,10
296,144,13893,2,4,B|384:88,1,89.9999976158143
152,192,14228,2,4,B|56:128,1,89.9999976158143
248,192,14563,1,8
144,288,14730,1,8
256,264,14897,5,8
336,224,15065,1,8
400,184,15232,1,8
176,184,15400,5,8
336,184,15567,1,8
176,184,15734,1,8
336,184,15902,1,8
176,184,16069,1,8
336,184,16237,1,8
176,184,16404,1,8
336,184,16571,1,8
32,40,16739,6,2,B|136:40,1,89.9999976158143
480,40,17073,2,4,B|376:40,1,89.9999976158143
480,112,17408,2,6,B|392:112,1,89.9999976158143
240,112,17743,1,8
32,112,17910,1,8
480,192,18078,2,2,B|392:192,1,89.9999976158143
32,192,18413,2,4,B|144:192,1,89.9999976158143
32,272,18747,2,6,B|120:272,1,89.9999976158143
272,272,19082,1,8
480,280,19250,1,8
32,360,19417,2,4,B|120:360,1,89.9999976158143
480,360,19752,2,14,B|392:360,1,89.9999976158143
104,144,20087,6,2,B|208:144,1,89.9999976158143
256,184,20421,1,8
328,232,20589,1,8
360,160,20756,2,2,B|472:160,1,89.9999976158143
448,96,21091,2,4,B|360:96,1,89.9999976158143
184,96,21426,2,4,B|280:96,1,89.9999976158143
184,176,21760,1,8
280,176,21928,1,8
272,248,22095,6,2,B|168:248,1,89.9999976158143
104,200,22430,1,8
144,104,22597,2,4,B|248:104,1,89.9999976158143
320,112,22932,1,8
384,184,23100,1,8
368,288,23267,2,2,B|264:288,1,89.9999976158143
384,184,23602,2,2,B|472:184,1,89.9999976158143
384,184,23937,1,8
320,184,24104,2,2,B|208:184,1,89.9999976158143
384,184,24439,5,8
152,184,24606,2,2,B|64:184,1,89.9999976158143
384,184,24941,2,4,B|480:184,1,89.9999976158143
384,184,25276,1,8
152,184,25443,2,2,B|56:184,2,89.9999976158143
384,184,25945,2,0,B|480:184,1,89.9999976158143
168,184,26224,1,8
344,184,26447,5,8
168,184,26615,1,8
344,184,26782,1,8
168,184,26950,1,8
344,184,27117,1,8
168,184,27284,1,8
384,184,27452,1,8
144,184,27619,6,2,B|48:184,1,89.9999976158143
54,184,27954,2,2,B|144:184,1,89.9999976158143
384,184,28289,2,2,B|480:184,1,89.9999976158143
474,184,28624,2,4,B|376:184,1,89.9999976158143
144,184,28958,2,2,B|48:184,1,89.9999976158143
384,184,29293,6,2,B|480:184,1,89.9999976158143
184,184,29628,1,2
352,184,29795,1,4
184,184,29963,1,2
352,184,30130,1,2
184,184,30297,1,4
384,184,30465,2,2,B|488:264,1,89.9999976158143
344,184,30800,2,2,B|248:264,1,89.9999976158143
384,184,31134,2,2,B|504:96,1,89.9999976158143
352,184,31469,2,4,B|248:112,1,89.9999976158143
88,80,31804,5,8
168,64,31971,1,8
240,64,32138,1,4
304,88,32306,1,2
360,128,32473,1,4
392,192,32640,1,2
376,272,32808,1,8
312,304,32976,1,0
248,288,33143,1,2
384,192,33311,1,6
168,248,33478,5,8
384,184,33645,1,0
288,184,33813,1,8
384,184,33980,1,2
464,128,34147,1,4
384,184,34315,1,2
336,112,34482,1,8
384,184,34650,1,8
464,240,34817,1,8
144,184,35152,6,2,B|40:184,1,89.9999976158143
54,184,35487,2,4,B|144:184,1,89.9999976158143
144,184,35821,2,2,B|40:184,1,89.9999976158143
128,192,36156,1,8
40,40,36324,6,2,B|128:40,1,89.9999976158143
128,112,36658,2,2,B|32:112,1,89.9999976158143
40,192,36993,2,2,B|128:192,1,89.9999976158143
464,184,37328,1,4
128,192,37495,2,2,B|28:192,1,89.9999976158143
39,266,37830,2,2,B|133:267,1,89.9999976158143
123,344,38165,2,2,B|32:342,2,89.9999976158143
464,312,38667,5,4
128,48,38834,2,2,B|32:48,1,89.9999976158143
40,120,39169,2,2,B|136:120,1,89.9999976158143
128,192,39504,2,2,B|40:192,2,89.9999976158143
464,160,40006,5,4
32,120,40174,2,2,B|144:120,1,89.9999976158143
132,195,40508,2,2,B|36:195,2,89.9999976158143
136,272,41011,2,2,B|32:272,1,89.9999976158143
472,200,41345,5,4
40,40,41513,2,2,B|144:40,1,89.9999976158143
136,112,41848,2,2,B|40:112,2,89.9999976158143
48,184,42350,2,2,B|144:184,1,89.9999976158143
464,336,42684,5,12
32,352,42852,2,2,B|120:352,1,89.9999976158143
32,280,43187,2,4,B|120:280,2,89.9999976158143
32,200,43689,1,8
128,200,43856,1,8
464,256,44024,1,8
480,32,44358,6,2,B|392:80,1,89.9999976158143
352,176,44693,2,2,B|432:128,1,89.9999976158143
288,216,45028,2,4,B|208:264,2,89.9999976158143
96,320,45530,1,8
16,352,45698,6,0,B|80:-8|88:-8|96:-8|104:-8|128:360|136:360|144:368|152:376|160:376|168:376|176:376|200:-8|216:-8|208:-8|224:-8|280:368|288:368|352:344|240:184|200:72|264:144|320:320|496:280,1,1169.99996900559
480,224,48041,1,8
160,192,48208,6,4,B|352:192,2,179.999995231629
160,192,49045,1,2
256,256,49213,1,14
256,192,49380,12,14,50887
216,192,51054,5,2
288,192,51221,1,4
256,192,52226,5,2
256,192,52561,12,14,53733
256,192,53900,5,8
256,192,54067,1,8
256,192,54904,5,2
256,192,55239,12,10,56243
192,192,56578,5,8
320,192,56913,1,8
416,192,57582,1,8
256,192,57917,12,8,58587
368,184,58754,6,2,B|496:280,2,89.9999976158143
488,192,59256,2,2,B|360:88,2,89.9999976158143
96,192,59758,5,2
448,200,59926,1,2
192,88,60093,1,2
352,96,60261,1,2
336,304,60428,1,2
184,304,60595,1,2
24,32,60763,6,2,B|272:200,1,269.999992847443
312,240,61432,2,2,B|312:152,1,89.9999976158143
384,152,61767,2,2,B|384:256,1,89.9999976158143
448,248,62102,2,2,B|448:152,2,89.9999976158143
448,312,62604,1,12
448,160,63274,1,2
448,40,63441,6,2,B|168:216,1,269.999992847443
96,120,64111,2,2,B|176:208,1,89.9999976158143
64,304,64445,2,2,B|184:232,1,89.9999976158143
208,256,64780,2,2,B|312:352,3,89.9999976158143
80,192,65952,5,2
120,160,66119,2,2,B|280:16,2,179.999995231629
288,96,66956,2,2,B|376:184,1,89.9999976158143
272,160,67291,2,2,B|200:216,1,89.9999976158143
264,280,67626,2,2,B|176:192,2,89.9999976158143
80,232,68798,5,2
80,232,68965,2,2,B|448:232,1,359.999990463257
160,144,69802,2,2,B|296:144,1,89.9999976158143
336,144,70137,2,2,B|432:144,1,89.9999976158143
432,80,70472,2,2,B|320:80,1,89.9999976158143
248,56,70806,6,2,B|248:152,1,89.9999976158143
280,232,71141,2,2,B|368:168,1,89.9999976158143
144,160,71476,2,2,B|240:216,1,89.9999976158143
296,160,72145,1,2
368,184,72480,1,2
312,144,72648,6,2,B|248:224,2,89.9999976158143
288,176,73150,1,2
256,144,73317,2,2,B|344:216,1,89.9999976158143
288,176,73652,1,2
152,208,74154,6,2,B|40:240,1,89.9999976158143
136,144,74489,2,2,B|232:112,1,89.9999976158143
168,264,74824,2,2,B|288:224,1,119.999996821086
272,160,75159,2,2,B|464:152,1,179.999995231629
392,280,75661,2,2,B|472:184,1,89.9999976158143
328,208,75995,2,2,B|200:352,1,179.999995231629
136,136,76498,6,2,B|224:192,1,89.9999976158143
168,72,76832,2,2,B|256:144,1,89.9999976158143
128,216,77167,1,2
128,288,77335,2,2,B|224:240,1,89.9999976158143
248,208,77669,2,2,B|448:320,1,179.999995231629
432,232,78172,1,2
320,160,78339,2,2,B|408:112,1,89.9999976158143
256,184,78674,2,2,B|384:336,1,179.999995231629
168,224,79176,1,2
120,160,79343,6,2,B|0:216,1,89.9999976158143
184,136,79678,1,2
288,192,79845,2,2,B|232:88,1,89.9999976158143
352,176,80180,2,2,B|312:72,1,89.9999976158143
392,112,80515,1,2
360,240,80682,2,2,B|496:288,2,89.9999976158143
312,184,81185,1,2
232,192,81352,2,2,B|80:304,1,179.999995231629
264,120,81854,5,2
80,160,82022,2,2,B|176:120,1,89.9999976158143
163,125,82356,2,2,B|72:168,1,89.9999976158143
81,163,82691,2,2,B|168:120,1,89.9999976158143
208,184,83026,1,14
96,256,83361,5,2
184,216,83528,2,2,B|296:328,1,89.9999976158143
256,184,84030,1,2
344,168,84365,2,2,B|440:168|472:296|480:296,1,179.999995231629
360,248,84867,1,2
272,288,85035,1,2
112,288,85369,2,2,B|176:208,1,89.9999976158143
448,128,85704,5,2
24,32,85872,2,2,B|120:32,1,89.9999976158143
24,96,86206,2,2,B|112:96,2,89.9999976158143
24,160,86709,2,2,B|112:160,1,89.9999976158143
32,224,87043,2,2,B|120:224,2,89.9999976158143
32,288,87546,2,2,B|120:288,2,89.9999976158143
32,352,88048,2,2,B|128:352,2,89.9999976158143
200,192,88550,2,2,B|296:192,2,89.9999976158143
256,192,89052,12,2,92735
256,192,92902,5,2
64,96,93237,6,2,B|160:96,3,89.9999976158143
224,96,93907,1,2
136,168,94074,1,2
352,112,94242,6,2,B|448:176,1,89.9999976158143
96,160,94577,2,2,B|192:96,1,89.9999976158143
432,232,94911,2,2,B|360:288,1,89.9999976158143
96,216,95246,2,2,B|192:288,1,89.9999976158143
40,40,95581,6,2,B|128:40,1,89.9999976158143
368,312,95916,2,2,B|480:312,1,89.9999976158143
32,312,96251,2,2,B|136:312,1,89.9999976158143
256,184,96585,1,2
368,40,96753,6,2,B|488:40,1,89.9999976158143
32,352,97087,2,2,B|136:352,1,89.9999976158143
32,32,97422,2,2,B|128:32,1,89.9999976158143
384,352,97757,2,2,B|488:352,1,89.9999976158143
256,184,98092,1,2
32,32,98259,6,2,B|120:96,1,89.9999976158143
480,32,98594,2,2,B|400:104,1,89.9999976158143
32,352,98929,2,2,B|136:272,1,89.9999976158143
480,352,99264,2,2,B|368:272,1,89.9999976158143
64,192,99598,1,2
64,96,99765,6,2,B|176:96,1,89.9999976158143
208,160,100100,1,2
160,232,100267,2,2,B|56:232,1,89.9999976158143
272,160,100602,1,2
160,160,100769,2,2,B|56:160,1,89.9999976158143
304,160,101104,2,2,B|192:160,1,89.9999976158143
240,48,101439,5,2
296,48,101606,2,2,B|400:136,1,89.9999976158143
112,104,101941,2,2,B|200:40,1,89.9999976158143
248,120,102276,1,2
280,208,102443,2,2,B|368:152,1,89.9999976158143
216,216,102778,2,2,B|120:152,1,89.9999976158143
416,192,103113,1,2
88,192,103280,1,2
384,184,103447,5,2
256,176,103615,1,2
96,176,103782,1,2
96,296,103950,5,2
192,296,104117,1,2
296,296,104284,1,2
392,296,104452,1,2
464,296,104619,1,2
464,216,104787,1,2
392,216,104954,1,2
304,216,105121,1,2
32,40,105289,6,2,B|136:40,1,89.9999976158143
480,40,105623,2,2,B|376:40,1,89.9999976158143
480,112,105958,2,2,B|392:112,1,89.9999976158143
240,112,106293,1,2
32,112,106460,1,2
480,192,106628,2,2,B|392:192,1,89.9999976158143
32,192,106963,2,2,B|144:192,1,89.9999976158143
32,272,107297,2,2,B|120:272,1,89.9999976158143
272,272,107632,1,2
480,280,107800,1,2
32,360,107967,2,2,B|120:360,1,89.9999976158143
480,360,108302,2,2,B|392:360,1,89.9999976158143
400,40,108637,6,2,B|488:40,1,89.9999976158143
488,112,108971,2,2,B|392:112,1,89.9999976158143
400,192,109306,2,2,B|488:192,1,89.9999976158143
64,104,109641,1,2
488,192,109808,2,2,B|388:192,1,89.9999976158143
392,256,110143,2,2,B|486:257,1,89.9999976158143
476,334,110478,2,2,B|385:332,2,89.9999976158143
464,312,110980,5,2
128,48,111147,2,2,B|32:48,1,89.9999976158143
40,120,111482,2,2,B|136:120,1,89.9999976158143
128,192,111817,2,2,B|40:192,2,89.9999976158143
464,160,112319,5,2
32,120,112487,2,2,B|144:120,1,89.9999976158143
132,195,112821,2,2,B|36:195,2,89.9999976158143
136,272,113324,2,2,B|32:272,1,89.9999976158143
472,200,113658,5,2
40,40,113826,2,2,B|144:40,1,89.9999976158143
136,112,114161,2,2,B|40:112,2,89.9999976158143
48,184,114663,2,2,B|144:184,1,89.9999976158143
464,336,114997,5,2
32,352,115165,2,2,B|120:352,1,89.9999976158143
32,280,115500,2,2,B|120:280,2,89.9999976158143
32,200,116002,1,2
128,200,116169,1,2
464,256,116337,1,2
144,184,116504,6,2,B|48:184,1,89.9999976158143
54,184,116839,2,2,B|144:184,1,89.9999976158143
384,184,117174,2,2,B|480:184,1,89.9999976158143
474,184,117509,2,2,B|376:184,1,89.9999976158143
144,184,117843,2,2,B|48:184,1,89.9999976158143
384,184,118178,6,2,B|480:184,1,89.9999976158143
184,184,118513,1,2
352,184,118680,1,2
184,184,118848,1,2
352,184,119015,1,2
184,184,119182,1,2
384,184,119350,2,2,B|488:264,1,89.9999976158143
144,184,119685,2,2,B|48:264,1,89.9999976158143
384,184,120019,2,2,B|504:96,1,89.9999976158143
144,184,120354,2,2,B|40:112,1,89.9999976158143
296,184,120689,5,2
144,184,120856,1,2
296,184,121023,1,2
144,184,121191,1,2
296,184,121358,1,2
144,184,121525,1,2
144,184,121693,1,2
296,184,121861,1,2
144,184,122028,1,2
296,184,122196,1,2
144,184,122363,5,2
296,184,122530,1,2
144,184,122698,1,2
296,184,122865,1,2
144,184,123032,1,2
296,184,123200,1,2
144,184,123367,1,2
296,184,123535,1,2
144,184,123702,1,2
144,184,124037,6,2,B|40:184,1,89.9999976158143
54,184,124372,2,2,B|144:184,1,89.9999976158143
144,184,124706,2,2,B|40:184,1,89.9999976158143
128,192,125041,1,2
408,32,125209,2,2,B|496:32,1,89.9999976158143
120,32,125544,2,2,B|24:32,1,89.9999976158143
408,104,125878,2,2,B|504:104,1,89.9999976158143
24,104,126213,2,2,B|128:104,1,89.9999976158143
144,192,126548,2,2,B|360:192,1,179.999995231629
144,256,127050,2,2,B|336:256,1,179.999995231629
424,208,127552,1,2
56,200,127720,1,2
408,32,127887,6,2,B|496:32,1,89.9999976158143
120,32,128222,6,2,B|24:32,1,89.9999976158143
408,104,128556,6,2,B|504:104,1,89.9999976158143
24,104,128891,6,2,B|128:104,1,89.9999976158143
144,192,129226,6,2,B|360:192,1,179.999995231629
144,256,129728,6,2,B|336:256,1,179.999995231629
256,192,130231,12,2,135754
240,208,135922,5,2
