osu file format v9

[General]
AudioFilename: Green Hornet.mp3
AudioLeadIn: 0
PreviewTime: -1
Countdown: 1
SampleSet: Soft
StackLeniency: 0.7
Mode: 0
LetterboxInBreaks: 1

[Editor]
DistanceSpacing: 1.4
BeatDivisor: 6
GridSize: 8

[Metadata]
Title:The Green Hornet
Artist:Kill Bill Vol.1
Creator:Kakuzu4ever
Version:CTB mode
Source:
Tags:

[Difficulty]
HPDrainRate:4
CircleSize:5
OverallDifficulty:7
ApproachRate:7
SliderMultiplier:3.59999990463257
SliderTickRate:4

[Events]
//Background and Video events
0,0,"T-GreenHornet1024x768.jpg"
//Break Periods
//Storyboard Layer 0 (Background)
//Storyboard Layer 1 (Fail)
//Storyboard Layer 2 (Pass)
//Storyboard Layer 3 (Foreground)
//Storyboard Sound Samples
//Background Colour Transformations
3,100,163,162,255

[TimingPoints]
0,669.568128557081,6,2,0,100,1,0

[HitObjects]
200,344,3682,1,2
320,296,3849,1,2
200,232,4017,1,2
320,176,4184,1,0
24,24,4351,1,8
64,96,4686,6,0,B|160:96,3,89.9999976158143
392,176,5356,1,8
136,168,5523,1,4
352,112,5691,6,2,B|448:176,1,89.9999976158143
96,160,6026,2,4,B|192:96,1,89.9999976158143
432,232,6360,2,2,B|360:288,1,89.9999976158143
96,216,6695,2,4,B|192:288,1,89.9999976158143
40,40,7030,6,6,B|128:40,1,89.9999976158143
368,312,7365,2,8,B|480:312,1,89.9999976158143
32,312,7700,2,2,B|136:312,1,89.9999976158143
256,184,8034,1,8
368,40,8202,6,2,B|488:40,1,89.9999976158143
32,352,8536,2,4,B|136:352,1,89.9999976158143
32,32,8871,2,2,B|128:32,1,89.9999976158143
384,352,9206,2,4,B|488:352,1,89.9999976158143
256,184,9541,1,8
32,32,9708,6,0,B|120:96,1,89.9999976158143
480,32,10043,2,2,B|400:104,1,89.9999976158143
32,352,10378,2,4,B|136:272,1,89.9999976158143
480,352,10713,2,4,B|368:272,1,89.9999976158143
64,192,11047,1,8
64,96,11215,6,4,B|176:96,1,89.9999976158143
400,192,11550,1,8
160,232,11717,2,2,B|56:232,1,89.9999976158143
128,176,12052,1,8
448,96,12219,2,2,B|344:96,1,89.9999976158143
448,192,12554,2,6,B|336:192,1,89.9999976158143
88,176,12889,5,10
384,184,13056,2,2,B|488:272,1,89.9999976158143
64,240,13391,2,6,B|152:176,1,89.9999976158143
256,192,13726,1,10
384,192,13893,2,4,B|472:136,1,89.9999976158143
152,192,14228,2,4,B|56:128,1,89.9999976158143
456,184,14563,1,8
48,192,14730,1,8
384,184,14897,5,8
312,96,15065,1,8
104,200,15232,1,8
176,184,15400,5,8
336,184,15567,1,8
176,184,15734,1,8
336,184,15902,1,8
176,184,16069,1,8
336,184,16237,1,8
176,184,16404,1,8
336,184,16571,1,8
32,40,16739,6,2,B|136:40,1,89.9999976158143
480,40,17073,2,4,B|376:40,1,89.9999976158143
480,112,17408,2,6,B|392:112,1,89.9999976158143
240,112,17743,1,8
32,112,17910,1,8
480,192,18078,2,2,B|392:192,1,89.9999976158143
32,192,18413,2,4,B|144:192,1,89.9999976158143
32,272,18747,2,6,B|120:272,1,89.9999976158143
272,272,19082,1,8
480,280,19250,1,8
32,360,19417,2,4,B|120:360,1,89.9999976158143
480,360,19752,2,14,B|392:360,1,89.9999976158143
32,32,20087,6,2,B|136:32,1,89.9999976158143
256,184,20421,1,8
480,352,20589,1,8
32,352,20756,2,2,B|144:352,1,89.9999976158143
480,280,21091,2,4,B|392:280,1,89.9999976158143
32,272,21426,2,4,B|128:272,1,89.9999976158143
384,184,21760,1,8
152,184,21928,1,8
152,184,22095,6,2,B|48:184,1,89.9999976158143
384,184,22430,1,8
384,184,22597,2,4,B|488:184,1,89.9999976158143
152,184,22932,1,8
384,184,23100,1,8
152,184,23267,2,2,B|48:184,1,89.9999976158143
384,184,23602,2,2,B|472:184,1,89.9999976158143
384,184,23937,1,8
152,184,24104,2,2,B|40:184,1,89.9999976158143
384,184,24439,5,8
152,184,24606,2,2,B|64:184,1,89.9999976158143
384,184,24941,2,4,B|480:184,1,89.9999976158143
384,184,25276,1,8
152,184,25443,2,2,B|56:184,2,89.9999976158143
384,184,25945,2,0,B|480:184,1,89.9999976158143
168,184,26224,1,8
344,184,26447,5,8
168,184,26615,1,8
344,184,26782,1,8
168,184,26950,1,8
344,184,27117,1,8
168,184,27284,1,8
384,184,27452,1,8
144,184,27619,6,2,B|48:184,1,89.9999976158143
54,184,27954,2,2,B|144:184,1,89.9999976158143
384,184,28289,2,2,B|480:184,1,89.9999976158143
474,184,28624,2,4,B|376:184,1,89.9999976158143
144,184,28958,2,2,B|48:184,1,89.9999976158143
384,184,29293,6,2,B|480:184,1,89.9999976158143
184,184,29628,1,2
352,184,29795,1,4
184,184,29963,1,2
352,184,30130,1,2
184,184,30297,1,4
384,184,30465,2,2,B|488:264,1,89.9999976158143
144,184,30800,2,2,B|48:264,1,89.9999976158143
384,184,31134,2,2,B|504:96,1,89.9999976158143
144,184,31469,2,4,B|40:112,1,89.9999976158143
256,192,31804,5,8
144,184,31971,1,8
296,184,32138,1,4
144,184,32306,1,2
296,184,32473,1,4
144,184,32640,1,2
144,184,32808,1,8
296,184,32976,1,0
144,184,33143,1,2
384,184,33311,1,6
144,184,33478,5,8
384,184,33645,1,0
144,184,33813,1,8
384,184,33980,1,2
144,184,34147,1,4
384,184,34315,1,2
144,184,34482,1,8
384,184,34650,1,8
144,184,34817,1,8
144,184,35152,6,2,B|40:184,1,89.9999976158143
54,184,35487,2,4,B|144:184,1,89.9999976158143
144,184,35821,2,2,B|40:184,1,89.9999976158143
128,192,36156,1,8
40,40,36324,6,2,B|128:40,1,89.9999976158143
128,112,36658,2,2,B|32:112,1,89.9999976158143
40,192,36993,2,2,B|128:192,1,89.9999976158143
464,184,37328,1,4
128,192,37495,2,2,B|28:192,1,89.9999976158143
39,266,37830,2,2,B|133:267,1,89.9999976158143
123,344,38165,2,2,B|32:342,2,89.9999976158143
464,312,38667,5,4
128,48,38834,2,2,B|32:48,1,89.9999976158143
40,120,39169,2,2,B|136:120,1,89.9999976158143
128,192,39504,2,2,B|40:192,2,89.9999976158143
464,160,40006,5,4
32,120,40174,2,2,B|144:120,1,89.9999976158143
132,195,40508,2,2,B|36:195,2,89.9999976158143
136,272,41011,2,2,B|32:272,1,89.9999976158143
472,200,41345,5,4
40,40,41513,2,2,B|144:40,1,89.9999976158143
136,112,41848,2,2,B|40:112,2,89.9999976158143
48,184,42350,2,2,B|144:184,1,89.9999976158143
464,336,42684,5,12
32,352,42852,2,2,B|120:352,1,89.9999976158143
32,280,43187,2,4,B|120:280,2,89.9999976158143
32,200,43689,1,8
128,200,43856,1,8
464,256,44024,1,8
480,32,44358,6,2,B|392:80,1,89.9999976158143
416,152,44693,2,2,B|496:104,1,89.9999976158143
496,192,45028,2,4,B|416:240,2,89.9999976158143
32,96,45530,1,8
16,352,45698,6,0,B|80:-8|88:-8|96:-8|104:-8|128:360|136:360|144:368|152:376|160:376|168:376|176:376|200:-8|216:-8|208:-8|224:-8|280:368|288:368|352:344|240:184|200:72|264:144|320:320|496:280,1,1169.99996900559
24,32,48041,1,8
160,192,48208,6,4,B|352:192,2,179.999995231629
160,192,49045,1,2
472,200,49213,1,14
256,192,49380,12,14,50887
128,192,51054,5,2
392,192,51221,1,4
256,192,52226,5,2
256,192,52561,12,14,53733
376,192,53900,5,8
128,192,54067,1,8
256,192,54904,5,2
256,192,55239,12,10,56243
192,192,56578,5,8
320,192,56913,1,8
488,192,57582,1,8
256,192,57917,12,8,58587
32,192,58754,6,2,B|160:288,2,89.9999976158143
488,192,59256,2,2,B|360:88,2,89.9999976158143
104,192,59758,5,2
448,200,59926,1,2
192,88,60093,1,2
352,96,60261,1,2
336,304,60428,1,2
184,304,60595,1,2
24,32,60763,6,2,B|272:200,1,269.999992847443
312,240,61432,2,2,B|312:152,1,89.9999976158143
384,152,61767,2,2,B|384:256,1,89.9999976158143
64,240,62102,2,2,B|64:144,2,89.9999976158143
472,184,62604,1,12
400,192,63274,1,2
488,32,63441,6,2,B|208:208,1,269.999992847443
48,152,64111,2,2,B|128:240,1,89.9999976158143
328,144,64445,2,2,B|448:72,1,89.9999976158143
160,208,64780,2,2,B|264:304,3,89.9999976158143
432,200,65952,5,2
120,256,66119,2,2,B|280:112,2,179.999995231629
192,72,66956,2,2,B|280:160,1,89.9999976158143
328,80,67291,2,2,B|256:136,1,89.9999976158143
320,200,67626,2,2,B|232:112,2,89.9999976158143
80,232,68798,5,2
80,232,68965,2,2,B|448:232,1,359.999990463257
160,144,69802,2,2,B|296:144,1,89.9999976158143
336,144,70137,2,2,B|432:144,1,89.9999976158143
200,280,70472,2,2,B|88:280,1,89.9999976158143
48,64,70806,6,2,B|48:160,1,89.9999976158143
280,232,71141,2,2,B|368:168,1,89.9999976158143
184,96,71476,2,2,B|280:152,1,89.9999976158143
144,208,72145,1,2
432,192,72480,1,2
312,144,72648,6,2,B|248:224,2,89.9999976158143
56,176,73150,1,2
256,144,73317,2,2,B|344:216,1,89.9999976158143
208,192,73652,1,2
440,56,74154,6,2,B|328:88,1,89.9999976158143
72,128,74489,2,2,B|168:96,1,89.9999976158143
224,248,74824,2,2,B|344:192,1,89.9999976158143
48,200,75159,2,2,B|240:192,1,179.999995231629
360,272,75661,2,2,B|440:176,1,89.9999976158143
200,160,75995,2,2,B|72:304,1,179.999995231629
64,48,76498,6,2,B|152:104,1,89.9999976158143
296,88,76832,2,2,B|384:160,1,89.9999976158143
96,184,77167,1,2
160,304,77335,2,2,B|256:256,1,89.9999976158143
272,80,77669,2,2,B|472:192,1,179.999995231629
432,232,78172,1,2
40,208,78339,2,2,B|128:160,1,89.9999976158143
288,152,78674,2,2,B|416:304,1,179.999995231629
168,224,79176,1,2
216,80,79343,6,2,B|96:136,1,89.9999976158143
104,280,79678,1,2
440,224,79845,2,2,B|384:120,1,89.9999976158143
328,272,80180,2,2,B|288:168,1,89.9999976158143
424,72,80515,1,2
40,80,80682,2,2,B|176:128,2,89.9999976158143
312,184,81185,1,2
232,192,81352,2,2,B|80:304,1,179.999995231629
448,216,81854,5,2
80,160,82022,2,2,B|176:120,1,89.9999976158143
163,125,82356,2,2,B|72:168,1,89.9999976158143
81,163,82691,2,2,B|168:120,1,89.9999976158143
328,248,83026,1,14
96,256,83361,5,2
336,96,83528,2,2,B|448:208,1,89.9999976158143
208,200,84030,1,2
344,168,84365,2,2,B|440:168|472:296|480:296,1,179.999995231629
128,144,84867,1,2
296,144,85035,1,2
112,288,85369,2,2,B|176:208,1,89.9999976158143
448,128,85704,5,2
24,32,85872,2,2,B|120:32,1,89.9999976158143
24,96,86206,2,2,B|112:96,2,89.9999976158143
24,160,86709,2,2,B|112:160,1,89.9999976158143
32,224,87043,2,2,B|120:224,2,89.9999976158143
32,288,87546,2,2,B|120:288,2,89.9999976158143
32,352,88048,2,2,B|128:352,2,89.9999976158143
200,192,88550,2,2,B|296:192,2,89.9999976158143
256,192,89052,12,2,92735
256,192,92902,5,2
64,96,93237,6,2,B|160:96,3,89.9999976158143
392,176,93907,1,2
136,168,94074,1,2
352,112,94242,6,2,B|448:176,1,89.9999976158143
96,160,94577,2,2,B|192:96,1,89.9999976158143
432,232,94911,2,2,B|360:288,1,89.9999976158143
96,216,95246,2,2,B|192:288,1,89.9999976158143
40,40,95581,6,2,B|128:40,1,89.9999976158143
368,312,95916,2,2,B|480:312,1,89.9999976158143
32,312,96251,2,2,B|136:312,1,89.9999976158143
256,184,96585,1,2
368,40,96753,6,2,B|488:40,1,89.9999976158143
32,352,97087,2,2,B|136:352,1,89.9999976158143
32,32,97422,2,2,B|128:32,1,89.9999976158143
384,352,97757,2,2,B|488:352,1,89.9999976158143
256,184,98092,1,2
32,32,98259,6,2,B|120:96,1,89.9999976158143
480,32,98594,2,2,B|400:104,1,89.9999976158143
32,352,98929,2,2,B|136:272,1,89.9999976158143
480,352,99264,2,2,B|368:272,1,89.9999976158143
64,192,99598,1,2
64,96,99765,6,2,B|176:96,1,89.9999976158143
400,192,100100,1,2
160,232,100267,2,2,B|56:232,1,89.9999976158143
128,176,100602,1,2
448,96,100769,2,2,B|344:96,1,89.9999976158143
448,192,101104,2,2,B|336:192,1,89.9999976158143
88,176,101439,5,2
384,184,101606,2,2,B|488:272,1,89.9999976158143
64,240,101941,2,2,B|152:176,1,89.9999976158143
256,192,102276,1,2
384,192,102443,2,2,B|472:136,1,89.9999976158143
152,192,102778,2,2,B|56:128,1,89.9999976158143
456,184,103113,1,2
48,192,103280,1,2
384,184,103447,5,2
312,96,103615,1,2
104,200,103782,1,2
176,184,103950,5,2
336,184,104117,1,2
176,184,104284,1,2
336,184,104452,1,2
176,184,104619,1,2
336,184,104787,1,2
176,184,104954,1,2
336,184,105121,1,2
32,40,105289,6,2,B|136:40,1,89.9999976158143
480,40,105623,2,2,B|376:40,1,89.9999976158143
480,112,105958,2,2,B|392:112,1,89.9999976158143
240,112,106293,1,2
32,112,106460,1,2
480,192,106628,2,2,B|392:192,1,89.9999976158143
32,192,106963,2,2,B|144:192,1,89.9999976158143
32,272,107297,2,2,B|120:272,1,89.9999976158143
272,272,107632,1,2
480,280,107800,1,2
32,360,107967,2,2,B|120:360,1,89.9999976158143
480,360,108302,2,2,B|392:360,1,89.9999976158143
400,40,108637,6,2,B|488:40,1,89.9999976158143
488,112,108971,2,2,B|392:112,1,89.9999976158143
400,192,109306,2,2,B|488:192,1,89.9999976158143
64,104,109641,1,2
488,192,109808,2,2,B|388:192,1,89.9999976158143
392,256,110143,2,2,B|486:257,1,89.9999976158143
476,334,110478,2,2,B|385:332,2,89.9999976158143
464,312,110980,5,2
128,48,111147,2,2,B|32:48,1,89.9999976158143
40,120,111482,2,2,B|136:120,1,89.9999976158143
128,192,111817,2,2,B|40:192,2,89.9999976158143
464,160,112319,5,2
32,120,112487,2,2,B|144:120,1,89.9999976158143
132,195,112821,2,2,B|36:195,2,89.9999976158143
136,272,113324,2,2,B|32:272,1,89.9999976158143
472,200,113658,5,2
40,40,113826,2,2,B|144:40,1,89.9999976158143
136,112,114161,2,2,B|40:112,2,89.9999976158143
48,184,114663,2,2,B|144:184,1,89.9999976158143
464,336,114997,5,2
32,352,115165,2,2,B|120:352,1,89.9999976158143
32,280,115500,2,2,B|120:280,2,89.9999976158143
32,200,116002,1,2
128,200,116169,1,2
464,256,116337,1,2
144,184,116504,6,2,B|48:184,1,89.9999976158143
54,184,116839,2,2,B|144:184,1,89.9999976158143
384,184,117174,2,2,B|480:184,1,89.9999976158143
474,184,117509,2,2,B|376:184,1,89.9999976158143
144,184,117843,2,2,B|48:184,1,89.9999976158143
384,184,118178,6,2,B|480:184,1,89.9999976158143
184,184,118513,1,2
352,184,118680,1,2
184,184,118848,1,2
352,184,119015,1,2
184,184,119182,1,2
384,184,119350,2,2,B|488:264,1,89.9999976158143
144,184,119685,2,2,B|48:264,1,89.9999976158143
384,184,120019,2,2,B|504:96,1,89.9999976158143
144,184,120354,2,2,B|40:112,1,89.9999976158143
256,192,120689,5,2
144,184,120856,1,2
296,184,121023,1,2
144,184,121191,1,2
296,184,121358,1,2
144,184,121525,1,2
144,184,121693,1,2
296,184,121861,1,2
144,184,122028,1,2
384,184,122196,1,2
144,184,122363,5,2
384,184,122530,1,2
144,184,122698,1,2
384,184,122865,1,2
144,184,123032,1,2
384,184,123200,1,2
144,184,123367,1,2
384,184,123535,1,2
144,184,123702,1,2
144,184,124037,6,2,B|40:184,1,89.9999976158143
54,184,124372,2,2,B|144:184,1,89.9999976158143
144,184,124706,2,2,B|40:184,1,89.9999976158143
128,192,125041,1,2
408,32,125209,2,2,B|496:32,1,89.9999976158143
120,32,125544,2,2,B|24:32,1,89.9999976158143
408,104,125878,2,2,B|504:104,1,89.9999976158143
24,104,126213,2,2,B|128:104,1,89.9999976158143
144,192,126548,2,2,B|360:192,1,179.999995231629
144,256,127050,2,2,B|336:256,1,179.999995231629
424,208,127552,1,2
56,200,127720,1,2
408,32,127887,6,2,B|496:32,1,89.9999976158143
120,32,128222,6,2,B|24:32,1,89.9999976158143
408,104,128556,6,2,B|504:104,1,89.9999976158143
24,104,128891,6,2,B|128:104,1,89.9999976158143
144,192,129226,6,2,B|360:192,1,179.999995231629
144,256,129728,6,2,B|336:256,1,179.999995231629
256,192,130231,12,2,135754
240,208,135922,5,2
