osu file format v13

[General]
AudioFilename: tenshofull.mp3
AudioLeadIn: 0
PreviewTime: 89226
Countdown: 0
SampleSet: Soft
StackLeniency: 0.7
Mode: 0
LetterboxInBreaks: 0
WidescreenStoryboard: 1

[Editor]
Bookmarks: 36863
DistanceSpacing: 0.7
BeatDivisor: 8
GridSize: 4
TimelineZoom: 2

[Metadata]
Title:Ten Sho Sho Ten Sho
TitleUnicode:てんしょう しょうてんしょう
Artist:Kikuo
ArtistUnicode:きくお
Creator:grumd
Version:Extra
Source:
Tags:Hatsune_Miku Vocaloid Kikuo_P Dubstep Vocastep Marathon
BeatmapID:546786
BeatmapSetID:235984

[Difficulty]
HPDrainRate:6.5
CircleSize:4
OverallDifficulty:8
ApproachRate:9
SliderMultiplier:1.4
SliderTickRate:1

[Events]
//Background and Video events
0,0,"Kikuo.png",0,0
//Break Periods
//Storyboard Layer 0 (Background)
//Storyboard Layer 1 (Fail)
//Storyboard Layer 2 (Pass)
//Storyboard Layer 3 (Foreground)
//Storyboard Sound Samples

[TimingPoints]
158,352.941176470588,4,2,0,40,1,0
511,-100,4,2,0,5,0,0
1216,-100,4,2,0,10,0,0
1922,-100,4,2,0,15,0,0
2275,-100,4,2,0,20,0,0
2628,-100,4,2,0,25,0,0
2981,-100,4,2,0,30,0,0
3334,-100,4,2,0,40,0,0
3687,-100,4,2,0,5,0,0
4393,-133.333333333333,4,2,0,35,0,0
7216,-100,4,2,0,35,0,0
10041,-90.9090909090909,4,2,0,45,0,0
14275,-90.9090909090909,4,2,0,50,0,0
14628,-90.9090909090909,4,2,0,35,0,0
14981,-90.9090909090909,4,2,0,15,0,0
15687,-83.3333333333333,4,2,0,60,0,0
26628,-111.111111111111,4,2,0,60,0,0
26981,-153.846153846154,4,2,0,30,0,0
32628,-100,4,2,0,40,0,0
35451,-200,4,2,0,40,0,0
36598,-153.846153846154,4,2,0,10,0,0
36863,-83.3333333333333,4,2,0,10,0,0
37745,-100,4,2,0,10,0,0
37981,-133.333333333333,4,2,0,10,0,0
38275,-76.9230769230769,4,2,0,10,0,0
40217,-66.6666666666667,4,2,0,50,0,0
41451,-100,4,2,0,50,0,0
42510,-66.6666666666667,4,2,0,50,0,0
43569,-76.9230769230769,4,2,0,50,0,0
46040,-66.6666666666667,4,2,0,50,0,0
46745,-100,4,2,0,50,0,0
47629,-125,4,2,0,50,0,0
48158,-66.6666666666667,4,2,0,50,0,0
48863,-100,4,2,0,50,0,0
49570,-100,4,2,0,50,0,0
50275,-66.6666666666667,4,2,0,50,0,0
51687,-100,4,2,0,50,0,0
52745,-66.6666666666667,4,2,0,50,0,0
53805,-66.6666666666667,4,2,0,50,0,0
54863,-133.333333333333,4,2,0,50,0,0
55128,-100,4,2,0,50,0,0
55570,-100,4,2,0,50,0,0
55922,-66.6666666666667,4,2,0,50,0,0
56628,-100,4,2,0,50,0,0
57334,-80,4,2,0,50,0,0
58041,-100,4,2,0,50,0,0
58745,-133.333333333333,4,2,0,50,0,0
58922,-80,4,2,0,50,0,0
58923,-80,4,2,0,50,0,0
59099,-66.6666666666667,4,2,0,50,0,0
60864,-66.6666666666667,4,2,0,50,0,0
64392,-100,4,2,0,50,0,0
65098,-66.6666666666667,4,2,0,50,0,0
68629,-66.6666666666667,4,2,0,50,0,0
69334,-100,4,2,0,50,0,0
70745,-66.6666666666667,4,2,0,50,0,0
70746,348.33091436865,4,2,0,100,1,0
70746,-66.6666666666667,4,2,0,100,0,0
71442,-100,4,2,0,50,0,0
72139,352.941176470588,4,2,0,50,1,0
74962,350.877192982456,4,2,0,50,1,0
76365,340.909090909091,4,2,0,50,1,0
77728,331.491712707182,4,2,0,50,1,0
79053,319.148936170213,4,2,0,50,1,0
80329,310.880829015544,4,2,0,50,1,0
80329,-90.9090909090909,4,2,0,50,0,0
81417,-83.3333333333333,4,2,0,50,0,0
81572,301.507537688442,4,2,0,50,1,0
81572,-80,4,2,0,50,0,0
82778,297.029702970297,4,2,0,50,1,0
82778,-133.333333333333,4,2,0,50,0,0
83966,285.714285714286,4,2,0,50,1,0
83966,-111.111111111111,4,2,0,50,0,0
85108,277.777777777778,4,2,0,50,1,0
85108,-90.9090909090909,4,2,0,50,0,0
86219,274.599542334096,4,2,0,50,1,0
86219,-86.9565217391304,4,2,0,50,0,0
87317,272.727272727273,4,2,0,50,1,0
87317,-80,4,2,0,50,0,0
87589,-80,4,2,0,30,0,0
87862,-80,4,2,0,50,0,0
88135,-80,4,2,0,30,0,0
88407,-76.9230769230769,4,2,0,50,0,0
89226,-76.9230769230769,4,2,0,50,0,0
91135,-100,4,2,0,50,0,0
91680,-100,4,2,0,50,0,1
93317,-200,4,2,0,50,0,1
93862,-100,4,2,0,50,0,1
96044,-100,4,2,0,50,0,1
98226,-100,4,2,0,50,0,1
100407,-80,4,2,0,50,0,1
100862,-100,4,2,0,50,0,1
102044,-100,4,2,0,50,0,1
104771,-80,4,2,0,50,0,1
106953,-142.857142857143,4,2,0,50,0,1
108862,-100,4,2,0,50,0,1
109135,-100,4,2,0,50,0,1
109589,-142.857142857143,4,2,0,50,0,1
110771,-100,4,2,0,50,0,1
111498,-100,4,2,0,50,0,1
115135,-100,4,2,0,50,0,1
115680,-100,4,2,0,50,0,1
116226,-133.333333333333,4,2,0,50,0,1
116771,-100,4,2,0,50,0,1
117317,-66.6666666666667,4,2,0,50,0,1
118953,-100,4,2,0,50,0,1
119498,-200,4,2,0,50,0,1
120248,-100,4,2,0,50,0,1
122226,-80,4,2,0,50,0,1
122635,-66.6666666666667,4,2,0,50,0,1
124407,-100,4,2,0,50,0,1
124953,-100,4,2,0,10,0,1
125430,-100,4,2,0,50,0,1
126589,533.333333333333,4,2,0,50,1,0
126589,-200,4,2,0,50,0,0
128722,510.63829787234,4,2,0,50,1,0
128722,-200,4,2,0,50,0,0
130764,489.795918367347,4,2,0,50,1,0
130764,-100,4,2,0,50,0,0
132723,470.588235294118,4,2,0,50,1,0
134605,452.830188679245,4,2,0,50,1,0
134605,-86.9565217391304,4,2,0,50,0,0
136416,436.363636363636,4,2,0,50,1,0
138161,421.052631578947,4,2,0,50,1,0
138161,-80,4,2,0,50,0,0
139845,406.779661016949,4,2,0,50,1,0
139845,-66.6666666666667,4,2,0,50,0,0
141472,393.44262295082,4,2,0,20,1,0
141472,-200,4,2,0,20,0,0
143045,380.952380952381,4,2,0,20,1,0
143045,-200,4,2,0,20,0,0
144568,369.230769230769,4,2,0,25,1,0
144568,-200,4,2,0,25,0,0
146044,358.208955223881,4,2,0,25,1,0
146044,-200,4,2,0,25,0,0
147476,355.029585798817,4,2,0,30,1,0
147476,-133.333333333333,4,2,0,30,0,0
150316,352.941176470588,4,2,0,35,1,0
153139,352.941176470588,4,2,0,40,1,0
153139,-100,4,2,0,50,0,0
154109,-80,4,2,0,50,0,0
154550,-100,4,2,0,50,0,0
155080,-66.6666666666667,4,2,0,50,0,0
155962,-57.1428571428571,4,2,0,50,0,0
156315,-66.6666666666667,4,2,0,50,0,0
157374,-50,4,2,0,50,0,0
158786,-100,4,2,0,50,0,0
160727,-66.6666666666667,4,2,0,50,0,0
161962,-100,4,2,0,50,0,0
162315,-133.333333333333,4,2,0,50,0,0
163021,-50,4,2,0,50,0,0
163727,-100,4,2,0,50,0,0
165139,-66.6666666666667,4,2,0,50,0,0
165844,-80,4,2,0,50,0,0
166550,-100,4,2,0,50,0,0
167962,-66.6666666666667,4,2,0,50,0,0
168315,-50,4,2,0,50,0,0
170080,-66.6666666666667,4,2,0,50,0,0
170786,-100,4,2,0,50,0,0
170962,-80,4,2,0,50,0,0
171139,-66.6666666666667,4,2,0,50,0,0
171491,-100,4,2,0,50,0,0
173256,-66.6666666666667,4,2,0,50,0,0
173609,-100,4,2,0,50,0,0
173786,-80,4,2,0,50,0,0
173962,-66.6666666666667,4,2,0,50,0,0
174315,-50,4,2,0,50,0,0
175374,-100,4,2,0,50,0,0
175727,-133.333333333333,4,2,0,50,0,0
176433,-100,4,2,0,50,0,0
177139,-80,4,2,0,50,0,0
177668,-66.6666666666667,4,2,0,50,0,0
181374,-100,4,2,0,50,0,0
182080,-80,4,2,0,50,0,0
183315,-66.6666666666667,4,2,0,50,0,0
184550,-80,4,2,0,50,0,0
185609,-50,4,2,0,50,0,0
186315,-100,4,2,0,50,0,0
187021,681.818181818182,4,2,0,30,1,0
187702,645.161290322581,4,2,0,30,1,0
188347,600,4,2,0,30,1,0
188947,576.923076923077,4,2,0,30,1,0
189523,545.454545454546,4,2,0,30,1,0
190068,521.739130434783,4,2,0,30,1,0
190589,500,4,2,0,30,1,0
191089,472.44094488189,4,2,0,30,1,0
191561,454.545454545455,4,2,0,30,1,0
192015,431.654676258993,4,2,0,30,1,0
192446,413.793103448276,4,2,0,30,1,0
192859,400,4,2,0,30,1,0
193259,389.61038961039,4,2,0,30,1,0
193648,379.746835443038,4,2,0,30,1,0
194027,355.029585798817,4,2,0,30,1,0
194382,340.909090909091,4,2,0,30,1,0
194722,331.491712707182,4,2,0,30,1,0
194722,-66.6666666666667,4,2,0,30,0,0
195384,314.13612565445,4,2,0,30,1,0
195384,-66.6666666666667,4,2,0,30,0,0
196012,298.507462686567,4,2,0,30,1,0
196012,-57.1428571428571,4,2,0,30,0,0
196609,280.373831775701,4,2,0,30,1,0
196609,-57.1428571428571,4,2,0,30,0,0
196889,-100,4,2,0,30,0,0
197169,273.972602739726,4,2,0,30,1,0
198264,272.727272727273,4,2,0,35,1,0
199354,272.727272727273,4,2,0,40,1,1
199354,-80,4,2,0,40,0,1
199763,-66.6666666666667,4,2,0,50,0,1
200444,-100,4,2,0,50,0,1
201944,-66.6666666666667,4,2,0,50,0,1
204808,-100,4,2,0,50,0,1
205899,-80,4,2,0,50,0,1
206513,-100,4,2,0,50,0,1
207535,-80,4,2,0,50,0,1
209172,-100,4,2,0,50,0,1
209717,-133.333333333333,4,2,0,50,0,1
210263,-100,4,2,0,50,0,1
211899,-133.333333333333,4,2,0,50,0,1
212444,-66.6666666666667,4,2,0,50,0,1
214626,-100,4,2,0,50,0,1
215717,-100,4,2,0,50,0,0
216263,-66.6666666666667,4,2,0,50,0,0
216808,265.486725663717,4,2,0,50,1,1
216808,-100,4,2,0,50,0,1
218931,-66.6666666666667,4,2,0,50,0,1
222117,-80,4,2,0,50,0,1
222648,-100,4,2,0,50,0,1
223710,-133.333333333333,4,2,0,50,0,1
224241,-80,4,2,0,50,0,1
224418,-66.6666666666667,4,2,0,50,0,1
225701,-80,4,2,0,50,0,1
226365,-100,4,2,0,50,0,1
226896,-133.333333333333,4,2,0,50,0,1
228223,-100,4,2,0,50,0,1
229020,-80,4,2,0,50,0,1
229993,-66.6666666666667,4,2,0,50,0,1
230613,-100,4,2,0,50,0,1
231940,-80,4,2,0,50,0,1
232737,-66.6666666666667,4,2,0,50,0,1
233799,-100,4,2,0,40,0,0
234861,284.36018957346,4,2,0,35,1,0
235998,303.030303030303,4,2,0,30,1,0
237210,320.855614973262,4,2,0,30,1,0
238493,335.195530726257,4,2,0,25,1,0
238493,-200,4,2,0,25,0,0
239833,361.44578313253,4,2,0,25,1,0
239833,-200,4,2,0,25,0,0
241278,389.61038961039,4,2,0,25,1,0
241278,-200,4,2,0,25,0,0
242057,434.782608695652,4,2,0,25,1,0
242926,483.870967741935,4,2,0,25,1,0
243893,568.720379146919,4,2,0,25,1,0
245030,600,4,2,0,25,1,0
264230,1428.57142857143,4,2,0,20,1,0
264230,-200,4,2,0,20,0,0
265658,1333.33333333333,4,2,0,20,1,0
266991,1250,4,2,0,20,1,0
266991,-200,4,2,0,20,0,0
268241,1176.47058823529,4,2,0,20,1,0
269417,1090.90909090909,4,2,0,20,1,0
269417,-200,4,2,0,20,0,0
270507,1016.94915254237,4,2,0,20,1,0
271523,983.606557377049,4,2,0,20,1,0
271523,-200,4,2,0,20,0,0
272506,937.5,4,2,0,20,1,0
273443,869.565217391304,4,2,0,20,1,0
273443,-200,4,2,0,20,0,0
274312,845.070422535211,4,2,0,20,1,0
275157,800,4,2,0,20,1,0
275157,-200,4,2,0,20,0,0
275957,769.230769230769,4,2,0,20,1,0
276726,740.740740740741,4,2,0,20,1,0
276726,-200,4,2,0,20,0,0
277466,714.285714285714,4,2,0,20,1,0
278180,681.818181818182,4,2,0,20,1,0
278180,-200,4,2,0,20,0,0
278861,666.666666666667,4,2,0,20,1,0
279527,631.578947368421,4,2,0,20,1,0
279527,-200,4,2,0,20,0,0
280158,612.244897959184,4,2,0,20,1,0
280770,594.059405940594,4,2,0,20,1,0
280770,-200,4,2,0,20,0,0
281364,576.923076923077,4,2,0,20,1,0
281940,550.45871559633,4,2,0,20,1,0
281940,-200,4,2,0,20,0,0
282490,540.540540540541,4,2,0,20,1,0
283030,530.973451327434,4,2,0,20,1,0
283030,-200,4,2,0,20,0,0
283560,517.241379310345,4,2,0,20,1,0
284077,491.803278688525,4,2,0,20,1,0
284077,-200,4,2,0,20,0,0
284568,476.190476190476,4,2,0,20,1,0
285044,465.116279069767,4,2,0,20,1,0
285044,-200,4,2,0,20,0,0
285509,458.015267175573,4,2,0,20,1,0
285967,451.127819548872,4,2,0,20,1,0
285967,-200,4,2,0,20,0,0
286418,441.176470588235,4,2,0,20,1,0
286859,428.571428571429,4,2,0,20,1,0
286859,-200,4,2,0,20,0,0
287287,413.793103448276,4,2,0,20,1,0
287700,405.405405405405,4,2,0,25,1,0
287700,-200,4,2,0,25,0,0
288105,397.350993377483,4,2,0,25,1,0
288502,392.156862745098,4,2,0,25,1,0
288502,-200,4,2,0,25,0,0
288894,387.096774193548,4,2,0,25,1,0
289281,379.746835443038,4,2,0,30,1,0
289281,-200,4,2,0,30,0,0
289660,370.37037037037,4,2,0,30,1,0
290030,363.636363636364,4,2,0,30,1,0
290030,-200,4,2,0,30,0,0
290393,352.941176470588,4,2,0,30,1,0
290745,346.820809248555,4,2,0,30,1,0
290745,-200,4,2,0,30,0,0
291091,340.909090909091,4,2,0,35,1,0
291431,333.333333333333,4,2,0,35,1,0
291431,-200,4,2,0,35,0,0
291764,326.086956521739,4,2,0,35,1,0
292090,319.148936170213,4,2,0,35,1,0
292090,-200,4,2,0,35,0,0
292409,312.5,4,2,0,35,1,0
292721,307.692307692308,4,2,0,40,1,0
292721,-200,4,2,0,40,0,0
293028,300,4,2,0,50,1,0
293328,289.855072463768,4,2,0,50,1,0
293328,-200,4,2,0,50,0,0
293907,283.018867924528,4,2,0,50,1,0
293907,-200,4,2,0,50,0,0
294473,280.373831775701,4,2,0,50,1,0
294473,-200,4,2,0,50,0,0
295033,275.229357798165,4,2,0,50,1,0
295033,-200,4,2,0,50,0,0
296133,273.972602739726,4,2,0,50,1,0
296133,-200,4,2,0,50,0,0
297228,272.727272727273,4,2,0,50,1,0
297228,-200,4,2,0,50,0,0
298864,-133.333333333333,4,2,0,50,0,0
301046,-100,4,2,0,50,0,0
305409,272.727272727273,4,2,0,50,1,1
305409,-80,4,2,0,50,0,1
306499,-100,4,2,0,50,0,1
307590,-66.6666666666667,4,2,0,50,0,1
308681,-57.1428571428571,4,2,0,50,0,1
309772,-66.6666666666667,4,2,0,50,0,1
311409,-100,4,2,0,50,0,1
311954,-133.333333333333,4,2,0,50,0,0
313181,-100,4,2,0,50,0,0
313590,-66.6666666666667,4,2,0,50,0,0
314136,-80,4,2,0,50,0,1
315227,-100,4,2,0,50,0,1
315772,-133.333333333333,4,2,0,50,0,1
317545,-100,4,2,0,50,0,1
318909,-66.6666666666667,4,2,0,50,0,1
319772,-80,4,2,0,50,0,1
320681,315.789473684211,4,2,0,50,1,1
320681,-100,4,2,0,50,0,1
321312,-133.333333333333,4,2,0,50,0,1
321944,333.333333333333,4,2,0,50,1,1
323277,352.941176470588,4,2,0,50,1,0
324512,-80,4,2,0,50,0,0
325218,-66.6666666666667,4,2,0,50,0,0
327512,-50,4,2,0,50,0,0
328924,-66.6666666666667,4,2,0,50,0,0
329629,-80,4,2,0,50,0,0
330865,-66.6666666666667,4,2,0,50,0,0
331747,-80,4,2,0,50,0,0
333159,-50,4,2,0,50,0,0
333865,-80,4,2,0,50,0,0
334571,-100,4,2,0,50,0,0
335629,-66.6666666666667,4,2,0,50,0,0
336688,-100,4,2,0,50,0,0
337041,-133.333333333333,4,2,0,50,0,0
337747,-66.6666666666667,4,2,0,50,0,0
338806,-50,4,2,0,50,0,0
340924,-66.6666666666667,4,2,0,50,0,0
342335,-100,4,2,0,50,0,0
343394,-80,4,2,0,50,0,0
343924,-66.6666666666667,4,2,0,50,0,0
345512,-133.333333333333,4,2,0,50,0,0
345865,413.793103448276,4,2,0,50,1,0
347520,582.52427184466,4,2,0,50,1,0
349850,500,4,2,0,50,1,0
351850,363.636363636364,4,2,0,50,1,0
352577,400,4,2,0,50,1,0
355777,-100,4,2,0,20,0,0
363777,382.165605095541,4,2,0,5,1,0

[Colours]
Combo1 : 204,94,146
Combo2 : 182,55,208
Combo3 : 232,36,41
Combo4 : 193,86,55

[HitObjects]
256,192,511,12,0,3687,0:0:0:0:
104,112,4393,6,0,L|219:97,1,105.000004005432
408,192,5098,1,0,0:0:0:0:
264,252,5451,2,0,P|256:217|256:192,1,52.5000020027161
214,317,5804,2,0,P|159:322|114:290,2,105.000004005432,0|0|0,0:0|0:0|0:0,0:0:0:0:
265,170,6863,1,0,0:0:0:0:
423,131,7216,6,0,L|436:208,1,70
468,300,7569,2,0,L|394:272,1,70
301,257,7922,2,0,L|361:207,1,70
296,138,8275,2,0,L|222:110,1,70
198,203,8628,2,0,L|211:279,1,70
137,131,8981,2,0,L|63:103,1,70
231,114,9334,2,0,L|291:64,1,70
198,203,9687,2,0,L|211:279,1,70
151,331,10040,5,0,0:0:0:0:
73,304,10216,1,0,0:0:0:0:
53,222,10392,2,0,P|68:182|70:140,1,77.0000023498536
26,75,10745,2,0,P|81:35|142:33,1,115.50000352478
150,39,11098,2,0,L|167:119,1,77.0000023498536
311,175,11451,5,0,0:0:0:0:
254,111,11628,1,0,0:0:0:0:
204,236,11804,2,0,P|207:278|221:317,1,77.0000023498536,0|0,0:0|0:0,0:0:0:0:
294,347,12157,1,0,0:0:0:0:
373,316,12334,1,0,0:0:0:0:
388,293,12422,1,0,0:0:0:0:
395,267,12510,1,0,0:0:0:0:
394,240,12598,1,0,0:0:0:0:
385,214,12687,1,0,0:0:0:0:
366,194,12775,1,0,0:0:0:0:
343,179,12863,6,0,P|303:168|260:172,1,77.0000023498536
110,223,13216,2,0,P|150:234|193:230,1,77.0000023498536
72,142,13569,1,0,0:0:0:0:
128,78,13745,1,0,0:0:0:0:
153,69,13834,1,0,0:0:0:0:
179,64,13922,1,0,0:0:0:0:
259,90,14098,1,0,0:0:0:0:
225,168,14275,6,0,L|140:179,1,77.0000023498536
341,66,14628,2,0,L|426:77,1,77.0000023498536
460,149,14981,1,0,0:0:0:0:
301,197,15157,1,0,0:0:0:0:
436,241,15334,1,0,0:0:0:0:
436,241,15422,1,0,0:0:0:0:
436,241,15510,1,0,0:0:0:0:
258,314,15687,6,0,P|214:278|221:206,1,125.999996154785
233,188,16040,2,0,L|141:196,1,83.9999974365235
65,135,16392,1,0,0:0:0:0:
122,298,16569,1,0,0:0:0:0:
223,98,16745,2,0,P|266:103|306:124,1,83.9999974365235
345,206,17098,5,0,0:0:0:0:
300,333,17275,1,0,0:0:0:0:
444,223,17451,1,0,0:0:0:0:
473,310,17628,1,0,0:0:0:0:
475,134,17804,2,0,P|454:98|447:53,1,83.9999974365235
450,30,18069,1,0,0:0:0:0:
458,4,18157,1,0,0:0:0:0:
351,91,18334,1,0,0:0:0:0:
275,38,18510,6,0,L|181:53,1,83.9999974365235
48,177,18863,1,0,0:0:0:0:
124,124,19039,2,0,L|218:139,1,83.9999974365235
304,280,19392,1,0,0:0:0:0:
406,137,19569,1,0,0:0:0:0:
274,197,19745,1,0,0:0:0:0:
416,262,19922,6,0,P|431:303|432:350,1,83.9999974365235
321,125,20275,2,0,P|323:83|337:44,2,83.9999974365235,0|0|0,0:0|0:0|0:0,0:0:0:0:
396,177,20804,1,0,0:0:0:0:
206,228,20981,1,0,0:0:0:0:
361,288,21157,1,0,0:0:0:0:
427,101,21334,6,0,P|394:53|328:45,1,125.999996154785
310,66,21687,2,0,P|267:80|222:78,1,83.9999974365235
173,257,22040,2,0,P|182:212|206:174,1,83.9999974365235
73,50,22392,2,0,P|106:80|127:120,1,83.9999974365235
57,226,22745,6,0,P|19:271|22:343,1,125.999996154785
36,359,23098,1,0,0:0:0:0:
166,298,23275,2,0,L|216:309,1,41.9999987182618
268,361,23451,2,0,B|308:349|308:349|351:352,1,83.9999974365235
512,261,23804,2,0,B|472:273|472:273|429:270,1,83.9999974365235
346,142,24157,6,0,P|383:88|455:84,1,125.999996154785
467,89,24510,2,0,L|451:5,1,83.9999974365235
429,164,24863,1,0,0:0:0:0:
279,173,25040,2,0,L|295:89,1,83.9999974365235
318,254,25393,1,0,0:0:0:0:
249,311,25569,6,0,P|201:311|164:297,1,83.9999974365235
108,227,25922,1,0,0:0:0:0:
149,144,26098,1,0,0:0:0:0:
237,116,26275,2,0,L|329:125,1,83.9999974365235
366,190,26628,2,0,L|429:185,1,62.9999980773926
465,256,26981,6,0,P|421:320|312:314,1,181.999991668702
213,147,28392,2,0,P|171:95|62:106,1,181.999991668702
25,196,29451,1,0,0:0:0:0:
88,273,29804,6,0,L|268:239,1,181.999991668702
345,177,30863,1,0,0:0:0:0:
424,238,31216,2,0,P|421:316|326:352,1,181.999991668702
239,322,32275,1,0,0:0:0:0:
180,241,32628,6,0,P|136:212|36:221,2,140,0|0|0,0:0|0:0|0:0,0:0:0:0:
256,233,33510,1,0,0:0:0:0:
290,164,33687,2,0,L|277:88,1,70
350,68,34040,2,0,L|330:228,2,140,0|0|0,0:0|0:0|0:0,0:0:0:0:
421,37,34922,1,0,0:0:0:0:
475,91,35098,2,0,P|486:125|486:166,1,70
445,223,35451,6,0,B|388:198|333:243|333:243|279:284|215:260,1,245
177,192,36863,5,0,0:0:0:0:
184,163,36922,1,0,0:0:0:0:
200,138,36981,1,0,0:0:0:0:
225,123,37040,1,0,0:0:0:0:
252,116,37098,2,0,L|279:120,4,27.9999991455078,0|0|0|0|0,0:0|0:0|0:0|0:0|0:0,0:0:0:0:
326,62,37392,2,0,L|372:52,3,41.9999987182618,0|0|0|0,0:0|0:0|0:0|0:0,0:0:0:0:
415,115,37745,2,0,B|439:117|439:117|463:128,1,46.6666666666667,0|0,0:0|0:0,0:0:0:0:
469,202,37981,2,0,B|441:199|441:199|416:188,1,52.5000020027161
375,256,38275,6,0,P|313:244|249:287,1,136.499993751526
171,360,38628,2,0,B|182:312|182:312|175:282|175:282|190:223,1,136.499993751526
126,174,38981,2,0,B|107:245|107:245|103:209|77:186,1,136.499993751526,0|0,0:0|0:0,0:0:0:0:
11,144,39334,2,0,L|-1:50,1,90.9999958343508
94,19,39598,1,0,0:0:0:0:
94,19,39687,2,0,L|85:75,1,45.4999979171754
162,101,39863,1,0,0:0:0:0:
276,63,40040,2,0,P|324:84|372:84,1,90.9999958343508
397,74,40304,1,0,0:0:0:0:
427,54,40392,6,0,L|435:3,1,52.5000020027161
467,132,40569,2,0,L|509:95,1,52.5000020027161
452,219,40745,2,0,L|512:208,1,52.5000020027161
392,280,40922,2,0,L|453:303,1,52.5000020027161
319,325,41098,6,0,P|268:274|181:270,1,157.500006008148
129,331,41451,2,0,B|137:296|137:296|129:263|129:263|102:236,1,105
25,231,41804,2,0,L|-1:236,14,17.5,0|0|0|0|0|0|0|0|0|0|0|0|0|0|0,0:0|0:0|0:0|0:0|0:0|0:0|0:0|0:0|0:0|0:0|0:0|0:0|0:0|0:0|0:0,0:0:0:0:
45,215,42510,6,0,P|55:194|63:165,1,52.5000020027161
45,82,42687,1,0,0:0:0:0:
113,29,42775,1,0,0:0:0:0:
175,91,42863,2,0,P|202:102|228:102,1,52.5000020027161
316,192,43040,2,0,P|290:183|263:183,1,52.5000020027161
439,150,43216,1,0,0:0:0:0:
317,341,43392,1,0,0:0:0:0:
252,177,43569,2,0,P|259:138|288:97,1,90.9999958343508
393,51,43922,6,0,B|341:73|341:73|212:55,1,181.999991668702
102,86,44451,1,0,0:0:0:0:
45,186,44628,2,0,P|84:244|146:250,1,136.499993751526
175,230,44981,1,0,0:0:0:0:
265,101,45157,2,0,L|256:155,1,45.4999979171754
346,231,45334,2,0,L|331:137,2,90.9999958343508,0|0|0,0:0|0:0|0:0,0:0:0:0:
303,350,45863,1,0,0:0:0:0:
179,138,46040,6,0,P|182:113|195:85,1,52.5000020027161,0|0,0:0|0:0,0:0:0:0:
96,261,46216,2,0,P|72:270|42:273,1,52.5000020027161,0|0,0:0|0:0,0:0:0:0:
245,269,46392,2,0,P|265:284|282:309,1,52.5000020027161,0|0,0:0|0:0,0:0:0:0:
175,223,46569,1,0,0:0:0:0:
296,145,46745,2,0,B|333:143|333:143|363:128|363:128|385:99,1,105
327,59,47098,2,0,P|314:114|387:171,1,140
388,171,47540,1,0,0:0:0:0:
410,168,47628,1,0,0:0:0:0:
481,229,47804,2,0,L|475:296,1,56
392,344,48157,5,0,0:0:0:0:
225,275,48334,2,0,P|195:283|166:284,1,52.5000020027161
27,209,48510,2,0,P|54:209|82:216,1,52.5000020027161
171,147,48687,2,0,P|178:122|180:89,1,52.5000020027161
247,192,48863,6,0,P|259:246|402:279,1,210
444,195,49569,2,0,L|471:310,1,105
428,182,49922,2,0,L|404:79,1,105
322,123,50275,6,0,P|302:139|273:149,1,52.5000020027161
92,137,50451,2,0,P|112:121|141:111,1,52.5000020027161
283,288,50628,2,0,P|222:290|179:265,1,105.000004005432
163,239,50892,1,0,0:0:0:0:
149,204,50981,2,0,B|166:154|166:154|162:98,2,105.000004005432,0|0|0,0:0|0:0|0:0,0:0:0:0:
36,317,51510,1,0,0:0:0:0:
106,353,51598,1,0,0:0:0:0:
161,294,51687,6,0,P|186:289|264:338,1,105
306,373,52040,2,0,B|297:338|297:338|301:301,1,70
372,174,52392,1,0,0:0:0:0:
388,191,52745,6,0,P|449:189|491:100,1,157.500006008148,0|0,0:0|0:0,0:0:0:0:
372,174,53098,1,0,0:0:0:0:
154,127,53275,2,0,B|102:122,1,52.5000020027161
49,191,53451,2,0,B|105:195|105:195|134:210|134:210|210:216,1,157.500006008148
261,269,53804,6,0,P|270:298|271:323,1,52.5000020027161
301,126,53981,1,0,0:0:0:0:
301,126,54069,1,0,0:0:0:0:
301,126,54157,2,0,P|291:100|290:74,1,52.5000020027161
412,150,54334,2,0,P|428:125|450:108,1,52.5000020027161
447,260,54510,2,0,L|508:250,1,52.5000020027161
366,328,54687,2,0,L|423:338,1,52.5000020027161
256,342,54863,6,0,L|304:376,1,52.5000020027161
114,241,55216,6,0,L|103:279,3,35,0|0|0|0,0:0|0:0|0:0|0:0,0:0:0:0:
179,193,55569,2,0,P|187:143|151:78,1,105
134,67,55922,6,0,P|163:63|193:52,1,52.5000020027161
346,95,56098,2,0,P|317:95|292:90,1,52.5000020027161
289,209,56275,2,0,P|335:182|392:188,1,105.000004005432
488,348,56628,6,0,L|433:343,1,35
342,296,56804,2,0,B|409:303|409:303|450:291,1,105
461,276,57157,1,0,0:0:0:0:
272,29,57334,6,0,L|297:164,1,131.25
341,216,57687,2,0,L|321:110,1,87.5
429,49,58040,2,0,L|437:83,14,21.875,0|0|0|0|0|0|0|0|0|0|0|0|0|0|0,0:0|0:0|0:0|0:0|0:0|0:0|0:0|0:0|0:0|0:0|0:0|0:0|0:0|0:0|0:0,0:0:0:0:
456,87,58745,6,0,L|451:142,1,52.5000020027161
399,198,59098,2,0,P|400:248|346:318,1,131.25
266,330,59451,6,0,P|238:321|209:319,1,52.5000020027161
135,342,59628,1,0,0:0:0:0:
57,313,59716,1,0,0:0:0:0:
35,234,59804,2,0,P|40:206|54:179,1,52.5000020027161
139,59,59981,2,0,P|160:77|177:102,1,52.5000020027161
234,228,60157,6,0,L|196:235,2,35.0000013351441,0|0|0,0:0|0:0|0:0,0:0:0:0:
291,169,60334,2,0,L|329:162,2,35.0000013351441,0|0|0,0:0|0:0|0:0,0:0:0:0:
309,242,60510,1,0,0:0:0:0:
332,250,60569,1,0,0:0:0:0:
356,253,60627,1,0,0:0:0:0:
380,249,60686,1,0,0:0:0:0:
402,236,60745,1,0,0:0:0:0:
419,217,60804,1,0,0:0:0:0:
430,194,60863,6,0,P|408:157|461:65,1,157.500006008148
482,139,61216,1,0,0:0:0:0:
329,68,61392,1,0,0:0:0:0:
214,176,61569,2,0,L|228:236,1,52.5000020027161
171,294,61745,2,0,P|136:257|32:264,1,157.500006008148
27,352,62098,2,0,P|54:351|83:338,1,52.5000020027161
92,170,62275,6,0,P|68:157|36:154,1,52.5000020027161
191,119,62451,2,0,L|303:101,1,105.000004005432
477,279,62804,2,0,P|472:308|462:333,1,52.5000020027161
428,206,62981,5,0,0:0:0:0:
453,128,63069,1,0,0:0:0:0:
406,58,63157,2,0,L|350:50,1,52.5000020027161
236,150,63334,2,0,L|291:144,1,52.5000020027161
351,207,63510,1,0,0:0:0:0:
171,345,63687,6,0,P|73:284|81:234,1,157.500006008148
138,206,64040,2,0,B|238:188|238:188|286:152,1,157.500006008148
329,90,64392,6,0,L|312:232,1,140
369,329,64922,1,0,0:0:0:0:
482,294,65098,6,0,P|491:317|496:346,1,52.5000020027161
425,213,65275,1,0,0:0:0:0:
345,242,65363,1,0,0:0:0:0:
287,180,65451,2,0,L|281:120,1,52.5000020027161
226,285,65628,2,0,L|219:339,1,52.5000020027161
173,214,65804,2,0,P|125:211|61:241,1,105.000004005432
366,92,66157,2,0,P|415:110|469:108,1,105.000004005432
238,25,66510,6,0,P|183:46|169:148,1,157.500006008148
226,194,66863,1,0,0:0:0:0:
451,114,67040,1,0,0:0:0:0:
333,337,67216,2,0,P|276:352|199:274,1,157.500006008148
223,216,67569,1,0,0:0:0:0:
316,166,67687,6,0,L|386:174,2,70.0000026702882,0|0|0,0:0|0:0|0:0,0:0:0:0:
275,101,68010,2,0,P|239:63|129:63,1,157.500006008148
86,133,68392,1,0,0:0:0:0:
111,217,68510,1,0,0:0:0:0:
138,301,68628,6,0,L|193:308,1,52.5000020027161
356,255,68804,2,0,L|300:263,1,52.5000020027161
178,158,68981,2,0,L|237:165,1,52.5000020027161
352,100,69157,1,0,0:0:0:0:
157,68,69334,2,0,P|103:106|136:244,1,210
257,219,70040,2,0,L|336:234,1,70
395,298,70392,2,0,L|276:276,1,105
221,315,70745,6,0,P|218:345|208:372,1,52.5000020027161
166,251,70920,1,0,0:0:0:0:
143,172,71007,1,0,0:0:0:0:
194,104,71094,2,0,L|249:93,1,52.5000020027161
84,232,71268,2,0,L|29:243,1,52.5000020027161
131,68,71442,6,0,B|262:41|262:41|302:34|341:47,1,210
407,93,72139,6,0,P|426:128|426:178,1,70
389,229,72491,1,0,0:0:0:0:
426,303,72668,2,0,P|376:357|308:354,1,140
256,297,73197,2,0,L|261:218,1,70
199,166,73550,5,0,0:0:0:0:
347,220,73727,1,0,0:0:0:0:
392,148,73903,2,0,P|386:113|367:79,1,70
291,59,74256,1,0,0:0:0:0:
231,122,74433,1,0,0:0:0:0:
231,122,74521,1,0,0:0:0:0:
231,122,74609,1,0,0:0:0:0:
261,258,74786,1,0,0:0:0:0:
190,208,74962,6,0,L|115:198,1,70
313,138,75312,1,0,0:0:0:0:
390,171,75488,2,0,P|449:137|448:64,1,140
321,218,76014,2,0,P|316:254|299:290,1,70
219,301,76365,5,0,0:0:0:0:
115,191,76535,2,0,L|126:274,1,70
33,245,76876,2,0,L|24:318,2,70,0|0|0,0:0|0:0|0:0,0:0:0:0:
109,103,77387,1,0,0:0:0:0:
188,142,77558,1,0,0:0:0:0:
264,90,77728,6,0,P|321:103|344:188,1,140
279,233,78225,2,0,L|268:309,1,70
194,345,78556,1,0,0:0:0:0:
75,265,78722,2,0,L|67:189,1,70
187,73,79053,6,0,P|186:108|177:147,1,70
322,179,79372,2,0,P|309:140|306:106,1,70
306,90,79611,1,0,0:0:0:0:
309,70,79691,1,0,0:0:0:0:
421,216,79850,1,0,0:0:0:0:
265,285,80010,2,0,L|183:273,1,70
14,192,80329,6,0,P|88:187|128:164,1,115.50000352478
164,104,80639,2,0,P|211:105|244:116,1,77.0000023498536
320,243,80950,1,0,0:0:0:0:
390,184,81106,2,0,L|400:107,1,77.0000023498536
431,339,81417,6,0,P|395:357|349:361,2,83.9999974365235,0|0|0,0:0|0:0|0:0,0:0:0:0:
291,168,81873,2,0,P|247:153|207:151,1,87.5
176,157,82099,1,0,0:0:0:0:
147,169,82175,1,0,0:0:0:0:
270,343,82325,1,0,0:0:0:0:
299,353,82401,1,0,0:0:0:0:
329,355,82476,1,0,0:0:0:0:
436,203,82627,1,0,0:0:0:0:
271,261,82778,6,0,L|211:256,1,52.5000020027161
132,326,83075,2,0,L|72:321,1,52.5000020027161,0|0,0:0|0:0,0:0:0:0:
22,123,83372,2,0,L|82:118,1,52.5000020027161
161,188,83669,2,0,L|221:183,1,52.5000020027161,0|0,0:0|0:0,0:0:0:0:
498,78,83966,6,0,L|431:71,1,62.9999980773926
336,256,84251,2,0,L|403:249,1,62.9999980773926
270,102,84537,2,0,L|207:108,1,62.9999980773926
32,246,84823,1,0,0:0:0:0:
53,244,84894,1,0,0:0:0:0:
75,242,84966,1,0,0:0:0:0:
96,240,85037,1,0,0:0:0:0:
120,237,85108,6,0,L|145:315,1,77.0000023498536
169,61,85385,2,0,L|194:139,1,77.0000023498536
291,258,85663,2,0,L|316:336,1,77.0000023498536
340,83,85940,2,0,L|365:161,1,77.0000023498536
443,353,86219,6,0,L|457:264,1,80.5000015354157
164,183,86493,2,0,L|184:270,1,80.5000015354157
413,147,86768,2,0,L|427:58,1,80.5000015354157,0|0,0:0|0:0,0:0:0:0:
227,53,87042,1,0,0:0:0:0:
232,79,87111,1,0,0:0:0:0:
239,105,87180,1,0,0:0:0:0:
244,131,87248,1,0,0:0:0:0:
252,161,87317,6,0,L|235:248,1,87.5,0|0,0:0|0:0,0:0:0:0:
390,64,87589,2,0,L|369:156,1,87.5
144,254,87862,6,0,L|161:341,1,87.5,0|0,0:0|0:0,0:0:0:0:
5,145,88134,2,0,L|26:237,1,87.5
300,338,88407,6,0,P|338:323|391:320,1,90.9999958343508
378,137,88680,2,0,P|419:165|468:179,1,90.9999958343508
177,173,88953,6,0,P|139:158|86:155,1,90.9999958343508
192,58,89226,5,0,0:0:0:0:
216,79,89294,1,0,0:0:0:0:
245,94,89362,1,0,0:0:0:0:
276,102,89430,1,0,0:0:0:0:
308,102,89498,6,0,P|336:97|364:83,3,45.4999979171754,0|0|0|0,0:0|0:0|0:0|0:0,0:0:0:0:
380,179,89771,6,0,P|406:178|427:172,3,45.4999979171754,0|0|0|0,0:0|0:0|0:0|0:0,0:0:0:0:
418,258,90044,5,0,0:0:0:0:
424,289,90112,1,0,0:0:0:0:
416,319,90180,1,0,0:0:0:0:
392,339,90248,1,0,0:0:0:0:
360,342,90317,5,0,0:0:0:0:
329,333,90385,1,0,0:0:0:0:
304,312,90453,1,0,0:0:0:0:
289,283,90521,1,0,0:0:0:0:
289,251,90589,6,0,L|300:202,1,45.4999979171754
230,108,90726,2,0,L|218:168,1,45.4999979171754
155,265,90862,6,0,L|166:216,1,45.4999979171754
96,122,90999,2,0,L|84:182,1,45.4999979171754
31,310,91135,6,0,L|25:278,12,17.5,0|0|0|0|0|0|0|0|0|0|0|0|0,0:0|0:0|0:0|0:0|0:0|0:0|0:0|0:0|0:0|0:0|0:0|0:0|0:0,0:0:0:0:
252,32,91680,6,0,P|176:84|118:76,1,140,0|0,1:2|0:0,0:0:0:0:
69,234,92157,1,0,0:0:0:0:
89,241,92226,2,0,P|147:200|198:200,1,105
251,232,92498,2,0,L|269:341,1,105
349,309,92771,6,0,L|355:257,2,46.6666666666667,0|0|0,0:0|0:0|0:0,0:0:0:0:
449,250,93044,2,0,P|416:203|425:141,1,105
431,132,93317,2,0,B|409:140|409:140|383:138|383:138|361:128|361:128|345:109|345:109|338:84|338:84,1,122.5
270,48,93862,6,0,L|206:54,2,46.6666666666667,0|0|0,0:0|0:0|0:0,0:0:0:0:
164,116,94135,2,0,P|173:144|173:178,1,46.6666666666667
138,236,94317,1,0,0:0:0:0:
70,310,94407,2,0,P|114:290|166:286,1,93.3333333333333
242,329,94680,2,0,P|289:346|332:344,1,93.3333333333333
404,284,94953,6,0,L|390:172,1,93.3333333333333
449,76,95226,2,0,P|448:104|441:129,2,46.6666666666667,0|0|0,0:0|0:0|0:0,0:0:0:0:
362,43,95498,1,0,0:0:0:0:
282,62,95589,1,0,0:0:0:0:
235,130,95680,1,0,0:0:0:0:
253,208,95771,2,0,L|351:222,1,93.3333333333333
450,215,96044,6,0,P|415:215|391:331,1,140
140,248,96498,1,0,0:0:0:0:
159,227,96589,2,0,L|146:126,1,93.3333333333333
263,34,96862,2,0,L|243:148,1,93.3333333333333
329,196,97135,2,0,L|342:254,1,46.6666666666667
401,292,97317,1,0,0:0:0:0:
471,251,97407,2,0,B|485:216|468:183|468:183|449:150|460:115,2,140,0|0|0,0:0|0:0|0:0,0:0:0:0:
278,329,98135,1,0,0:0:0:0:
241,263,98226,6,0,B|247:317|172:353|122:303|122:303|119:272|119:272|113:297|92:310,1,233.333333333333
27,252,98771,2,0,P|26:207|61:155,1,93.3333333333333
202,201,99044,2,0,P|162:179|134:123,1,93.3333333333333
279,85,99317,1,0,0:0:0:0:
293,106,99498,6,0,B|386:91|386:91|442:101,1,140
507,220,99862,2,0,L|407:202,1,93.3333333333333
216,235,100135,2,0,L|316:253,1,93.3333333333333
416,318,100407,6,0,P|344:293|335:195,1,175
310,40,100862,1,0,0:0:0:0:
322,58,100953,2,0,P|271:45|222:53,1,93.3333333333333
128,117,101226,2,0,L|71:109,1,46.6666666666667
188,173,101407,1,0,0:0:0:0:
208,252,101498,6,0,P|166:303|84:289,1,140
291,219,101953,1,0,0:0:0:0:
309,235,102044,2,0,L|358:240,1,46.6666666666667
414,137,102226,1,0,0:0:0:0:
431,152,102317,2,0,L|484:147,2,46.6666666666667,0|0|0,0:0|0:0|0:0,0:0:0:0:
372,65,102589,2,0,L|262:55,1,93.3333333333333
222,118,102862,2,0,L|182:123,5,23.3333333333333,0|0|0|0|0|0,0:0|0:0|0:0|0:0|0:0|0:0,0:0:0:0:
172,142,103135,2,0,L|122:135,2,46.6666666666667,0|0|0,0:0|0:0|0:0,0:0:0:0:
99,185,103407,2,0,L|16:194,2,70,0|0|0,0:0|0:0|0:0,0:0:0:0:
171,223,103817,6,0,B|210:246|211:292|211:292|211:338|258:360,1,163.333333333333
315,306,104226,2,0,B|303:248|303:248|316:162,1,140
486,57,104680,1,0,0:0:0:0:
410,107,104771,6,0,P|324:49|241:62,1,175
105,218,105226,1,0,0:0:0:0:
178,262,105317,2,0,P|186:291|186:320,2,58.3333333333333,0|0|0,0:0|0:0|0:0,0:0:0:0:
245,118,105589,2,0,P|248:88|257:60,2,58.3333333333333,0|0|0,0:0|0:0|0:0,0:0:0:0:
341,187,105862,2,0,P|350:216|351:250,1,58.3333333333333
298,306,106044,1,0,0:0:0:0:
379,346,106135,2,0,P|448:328|472:233,2,175,0|0|0,0:0|0:0|0:0,0:0:0:0:
222,217,106862,1,0,0:0:0:0:
205,200,106953,6,0,P|209:142|120:101,1,163.333328348796
59,149,107498,2,0,L|46:253,2,97.9999970092775,0|0|0,0:0|0:0|0:0,0:0:0:0:
110,87,108135,1,0,0:0:0:0:
127,101,108226,2,0,B|176:111|176:111|266:104,1,130.666662679037
433,69,108771,5,0,0:0:0:0:
492,137,108862,2,0,L|486:195,1,46.6666666666667
419,233,109044,1,0,0:0:0:0:
445,308,109135,2,0,P|398:349|319:332,1,140
248,186,109589,2,0,L|256:144,2,32.6666656697591,0|0|0,0:0|0:0|0:0,0:0:0:0:
174,228,109862,2,0,L|181:268,2,32.6666656697591,0|0|0,0:0|0:0|0:0,0:0:0:0:
115,164,110135,2,0,L|121:123,2,32.6666656697591,0|0|0,0:0|0:0|0:0,0:0:0:0:
46,222,110498,2,0,P|54:267|51:296,1,65.3333313395183
0,353,110771,6,0,P|58:308|138:318,1,140
225,141,111317,1,0,1:2:0:0:
246,152,111407,2,0,L|301:155,1,46.6666666666667
355,93,111589,2,0,L|462:78,1,93.3333333333333
491,150,111862,2,0,P|464:193|468:248,1,93.3333333333333
399,300,112135,2,0,P|399:327|391:358,2,46.6666666666667,0|0|0,0:0|0:0|0:0,0:0:0:0:
327,249,112407,2,0,P|311:201|366:133,1,140
97,148,112953,1,0,0:0:0:0:
138,81,113044,1,0,0:0:0:0:
217,74,113135,1,0,0:0:0:0:
273,130,113226,2,0,P|248:182|248:228,1,93.3333333333333
265,313,113498,6,0,P|225:259|142:268,1,140
28,357,113953,1,0,0:0:0:0:
47,341,114044,2,0,L|33:241,1,93.3333333333333
126,114,114317,2,0,L|112:213,1,93.3333333333333
