osu file format v14

[General]
AudioFilename: tenshofull.mp3
AudioLeadIn: 0
PreviewTime: -1
Countdown: 0
SampleSet: Soft
StackLeniency: 0.7
Mode: 3
LetterboxInBreaks: 1
SpecialStyle: 0
WidescreenStoryboard: 0

[Editor]
DistanceSpacing: 1
BeatDivisor: 3
GridSize: 4
TimelineZoom: 2.1

[Metadata]
Title:Ten Sho Sho Ten Sho
TitleUnicode:てんしょう しょうてんしょう
Artist:Kikuo
ArtistUnicode:Kikuo
Creator:Zillah
Version:Original speed
Source:KikuoWorld
Tags:
BeatmapID:548975
BeatmapSetID:237131

[Difficulty]
HPDrainRate:7.5
CircleSize:7
OverallDifficulty:5
ApproachRate:5
SliderMultiplier:1.4
SliderTickRate:1

[Events]
//Background and Video events
0,0,"sca-001.jpg",0,0
//Break Periods
2,245230,260430
//Storyboard Layer 0 (Background)
//Storyboard Layer 1 (Fail)
//Storyboard Layer 2 (Pass)
//Storyboard Layer 3 (Foreground)
//Storyboard Sound Samples

[TimingPoints]
511,352.941176470588,4,2,0,40,1,0
4393,352.941176470588,4,2,0,35,1,0
70746,348.33091436865,4,2,0,100,1,0
72139,352.941176470588,4,2,0,50,1,0
74962,350.877192982456,4,2,0,50,1,0
76365,340.909090909091,4,2,0,50,1,0
77728,331.491712707182,4,2,0,50,1,0
79053,319.148936170213,4,2,0,50,1,0
80329,310.880829015544,4,2,0,50,1,0
81572,301.507537688442,4,2,0,50,1,0
82778,297.029702970297,4,2,0,50,1,0
83966,285.714285714286,4,2,0,50,1,0
85108,277.777777777778,4,2,0,50,1,0
86219,274.599542334096,4,2,0,50,1,0
87317,272.727272727273,4,2,0,50,1,0
126589,533.333333333333,4,2,0,50,1,0
128722,510.63829787234,4,2,0,50,1,0
130764,489.795918367347,4,2,0,50,1,0
132723,470.588235294118,4,2,0,50,1,0
134605,452.830188679245,4,2,0,50,1,0
136416,436.363636363636,4,2,0,50,1,0
138161,421.052631578947,4,2,0,50,1,0
139845,406.779661016949,4,2,0,50,1,0
141472,393.44262295082,4,2,0,20,1,0
143045,380.952380952381,4,2,0,20,1,0
144568,369.230769230769,4,2,0,25,1,0
146044,358.208955223881,4,2,0,25,1,0
147476,355.029585798817,4,2,0,30,1,0
150316,352.941176470588,4,2,0,35,1,0
153139,352.941176470588,4,2,0,40,1,0
187021,681.818181818182,4,2,0,30,1,0
187702,645.161290322581,4,2,0,30,1,0
188347,600,4,2,0,30,1,0
188947,576.923076923077,4,2,0,30,1,0
189523,545.454545454546,4,2,0,30,1,0
190068,521.739130434783,4,2,0,30,1,0
190589,500,4,2,0,30,1,0
191089,472.44094488189,4,2,0,30,1,0
191561,454.545454545455,4,2,0,30,1,0
192015,431.654676258993,4,2,0,30,1,0
192446,413.793103448276,4,2,0,30,1,0
192859,400,4,2,0,30,1,0
193259,389.61038961039,4,2,0,30,1,0
193648,379.746835443038,4,2,0,30,1,0
194027,355.029585798817,4,2,0,30,1,0
194382,340.909090909091,4,2,0,30,1,0
194722,331.491712707182,4,2,0,30,1,0
195384,314.13612565445,4,2,0,30,1,0
196012,298.507462686567,4,2,0,30,1,0
196609,280.373831775701,4,2,0,30,1,0
197169,273.972602739726,4,2,0,30,1,0
198264,272.727272727273,4,2,0,35,1,0
199354,272.727272727273,4,2,0,40,1,1
216808,265.486725663717,4,2,0,50,1,1
234861,284.36018957346,4,2,0,35,1,0
235998,303.030303030303,4,2,0,30,1,0
237210,320.855614973262,4,2,0,30,1,0
238493,335.195530726257,4,2,0,25,1,0
239833,361.44578313253,4,2,0,25,1,0
241278,389.61038961039,4,2,0,25,1,0
242057,434.782608695652,4,2,0,25,1,0
242926,483.870967741935,4,2,0,25,1,0
243893,568.720379146919,4,2,0,25,1,0
245030,600,4,2,0,25,1,0
264230,1428.57142857143,4,2,0,20,1,0
265658,1333.33333333333,4,2,0,20,1,0
266991,1250,4,2,0,20,1,0
268241,1176.47058823529,4,2,0,20,1,0
269417,1090.90909090909,4,2,0,20,1,0
270507,1016.94915254237,4,2,0,20,1,0
271523,983.606557377049,4,2,0,20,1,0
272506,937.5,4,2,0,20,1,0
273443,869.565217391304,4,2,0,20,1,0
274312,845.070422535211,4,2,0,20,1,0
275157,800,4,2,0,20,1,0
275957,769.230769230769,4,2,0,20,1,0
276726,740.740740740741,4,2,0,20,1,0
277466,714.285714285714,4,2,0,20,1,0
278180,681.818181818182,4,2,0,20,1,0
278861,666.666666666667,4,2,0,20,1,0
279527,631.578947368421,4,2,0,20,1,0
280158,612.244897959184,4,2,0,20,1,0
280770,594.059405940594,4,2,0,20,1,0
281364,576.923076923077,4,2,0,20,1,0
281940,550.45871559633,4,2,0,20,1,0
282490,540.540540540541,4,2,0,20,1,0
283030,530.973451327434,4,2,0,20,1,0
283560,517.241379310345,4,2,0,20,1,0
284077,491.803278688525,4,2,0,20,1,0
284568,476.190476190476,4,2,0,20,1,0
285044,465.116279069767,4,2,0,20,1,0
285509,458.015267175573,4,2,0,20,1,0
285967,451.127819548872,4,2,0,20,1,0
286418,441.176470588235,4,2,0,20,1,0
286859,428.571428571429,4,2,0,20,1,0
287287,413.793103448276,4,2,0,20,1,0
287700,405.405405405405,4,2,0,25,1,0
288105,397.350993377483,4,2,0,25,1,0
288502,392.156862745098,4,2,0,25,1,0
288894,387.096774193548,4,2,0,25,1,0
289281,379.746835443038,4,2,0,30,1,0
289660,370.37037037037,4,2,0,30,1,0
290030,363.636363636364,4,2,0,30,1,0
290393,352.941176470588,4,2,0,30,1,0
290745,346.820809248555,4,2,0,30,1,0
291091,340.909090909091,4,2,0,35,1,0
291431,333.333333333333,4,2,0,35,1,0
291764,326.086956521739,4,2,0,35,1,0
292090,319.148936170213,4,2,0,35,1,0
292409,312.5,4,2,0,35,1,0
292721,307.692307692308,4,2,0,40,1,0
293028,300,4,2,0,50,1,0
293328,289.855072463768,4,2,0,50,1,0
293907,283.018867924528,4,2,0,50,1,0
294473,280.373831775701,4,2,0,50,1,0
295033,275.229357798165,4,2,0,50,1,0
296133,273.972602739726,4,2,0,50,1,0
297228,272.727272727273,4,2,0,50,1,0
305409,272.727272727273,4,2,0,50,1,1
320681,315.789473684211,4,2,0,50,1,1
321944,333.333333333333,4,2,0,50,1,1
323277,352.941176470588,4,2,0,50,1,0
345865,413.793103448276,4,2,0,50,1,0
347520,582.52427184466,4,2,0,50,1,0
349850,500,4,2,0,50,1,0
351850,363.636363636364,4,2,0,50,1,0
352577,400,4,2,0,50,1,0
363777,382.165605095541,4,2,0,5,1,0

[HitObjects]
402,192,4393,5,0,0:0:0:0:
329,192,4393,1,0,0:0:0:0:
182,192,4393,1,0,0:0:0:0:
36,192,4393,1,0,0:0:0:0:
475,192,4745,1,0,0:0:0:0:
402,192,5098,1,0,0:0:0:0:
329,192,5451,1,0,0:0:0:0:
402,192,5804,1,0,0:0:0:0:
329,192,6157,1,0,0:0:0:0:
256,192,6510,1,0,0:0:0:0:
182,192,6863,1,0,0:0:0:0:
329,192,7216,1,0,0:0:0:0:
36,192,7216,1,0,0:0:0:0:
182,192,7392,1,0,0:0:0:0:
256,192,7569,1,0,0:0:0:0:
109,192,7569,1,0,0:0:0:0:
329,192,7745,1,0,0:0:0:0:
475,192,7745,1,0,0:0:0:0:
182,192,7922,1,0,0:0:0:0:
36,192,7922,1,0,0:0:0:0:
402,192,8098,1,0,0:0:0:0:
109,192,8275,1,0,0:0:0:0:
256,192,8275,1,0,0:0:0:0:
36,192,8451,1,0,0:0:0:0:
256,192,8628,1,0,0:0:0:0:
402,192,8628,1,0,0:0:0:0:
109,192,8804,1,0,0:0:0:0:
182,192,8981,1,0,0:0:0:0:
475,192,8981,1,0,0:0:0:0:
329,192,9157,1,0,0:0:0:0:
109,192,9334,1,0,0:0:0:0:
402,192,9334,1,0,0:0:0:0:
256,192,9510,1,0,0:0:0:0:
36,192,9687,1,0,0:0:0:0:
329,192,9687,1,0,0:0:0:0:
182,192,9863,1,0,0:0:0:0:
256,192,10040,1,0,0:0:0:0:
475,192,10040,1,0,0:0:0:0:
36,192,10040,1,0,0:0:0:0:
182,192,10216,1,0,0:0:0:0:
109,192,10392,1,0,0:0:0:0:
329,192,10392,1,0,0:0:0:0:
256,192,10569,1,0,0:0:0:0:
182,192,10745,1,0,0:0:0:0:
402,192,10745,1,0,0:0:0:0:
329,192,10922,1,0,0:0:0:0:
256,192,11098,1,0,0:0:0:0:
475,192,11098,1,0,0:0:0:0:
402,192,11275,1,0,0:0:0:0:
475,192,11451,1,0,0:0:0:0:
256,192,11451,1,0,0:0:0:0:
329,192,11628,1,0,0:0:0:0:
402,192,11804,1,0,0:0:0:0:
182,192,11804,1,0,0:0:0:0:
256,192,11981,1,0,0:0:0:0:
329,192,12157,1,0,0:0:0:0:
109,192,12157,1,0,0:0:0:0:
182,192,12334,1,0,0:0:0:0:
256,192,12510,1,0,0:0:0:0:
109,192,12687,1,0,0:0:0:0:
402,192,12687,1,0,0:0:0:0:
36,192,12863,1,0,0:0:0:0:
475,192,12863,1,0,0:0:0:0:
182,192,13040,1,0,0:0:0:0:
109,192,13216,1,0,0:0:0:0:
329,192,13216,1,0,0:0:0:0:
256,192,13392,1,0,0:0:0:0:
182,192,13569,1,0,0:0:0:0:
402,192,13569,1,0,0:0:0:0:
329,192,13745,1,0,0:0:0:0:
256,192,13922,1,0,0:0:0:0:
402,192,14098,1,0,0:0:0:0:
182,192,14098,1,0,0:0:0:0:
475,192,14275,1,0,0:0:0:0:
36,192,14275,1,0,0:0:0:0:
329,192,14451,1,0,0:0:0:0:
109,192,14451,1,0,0:0:0:0:
182,192,14628,1,0,0:0:0:0:
402,192,14628,1,0,0:0:0:0:
36,192,14804,1,0,0:0:0:0:
256,192,14804,1,0,0:0:0:0:
182,192,14981,1,0,0:0:0:0:
402,192,14981,1,0,0:0:0:0:
329,192,15157,1,0,0:0:0:0:
109,192,15157,1,0,0:0:0:0:
475,192,15157,1,0,0:0:0:0:
475,192,15334,1,0,0:0:0:0:
182,192,15334,1,0,0:0:0:0:
256,192,15334,1,0,0:0:0:0:
109,192,15510,1,0,0:0:0:0:
402,192,15510,1,0,0:0:0:0:
329,192,15510,1,0,0:0:0:0:
475,192,15687,1,0,0:0:0:0:
256,192,15687,1,0,0:0:0:0:
36,192,15687,128,0,16392:0:0:0:0:
182,192,15687,128,0,17098:0:0:0:0:
402,192,15863,1,0,0:0:0:0:
256,192,16040,1,0,0:0:0:0:
475,192,16040,1,0,0:0:0:0:
402,192,16216,1,0,0:0:0:0:
109,192,16216,1,0,0:0:0:0:
329,192,16392,128,0,17098:0:0:0:0:
475,192,16392,1,0,0:0:0:0:
402,192,16569,1,0,0:0:0:0:
109,192,16569,1,0,0:0:0:0:
256,192,16745,1,0,0:0:0:0:
36,192,16745,1,0,0:0:0:0:
109,192,16922,1,0,0:0:0:0:
475,192,17098,128,0,17804:0:0:0:0:
36,192,17098,128,0,18510:0:0:0:0:
402,192,17098,1,0,0:0:0:0:
256,192,17275,1,0,0:0:0:0:
109,192,17275,1,0,0:0:0:0:
182,192,17451,1,0,0:0:0:0:
329,192,17451,1,0,0:0:0:0:
256,192,17628,1,0,0:0:0:0:
182,192,17804,128,0,18510:0:0:0:0:
402,192,17804,1,0,0:0:0:0:
329,192,17981,1,0,0:0:0:0:
109,192,17981,1,0,0:0:0:0:
256,192,18157,1,0,0:0:0:0:
402,192,18157,1,0,0:0:0:0:
475,192,18334,1,0,0:0:0:0:
402,192,18510,128,0,19216:0:0:0:0:
256,192,18510,128,0,19922:0:0:0:0:
329,192,18510,1,0,0:0:0:0:
109,192,18510,1,0,0:0:0:0:
475,192,18687,1,0,0:0:0:0:
329,192,18863,1,0,0:0:0:0:
182,192,18863,1,0,0:0:0:0:
109,192,19040,1,0,0:0:0:0:
475,192,19040,1,0,0:0:0:0:
36,192,19216,128,0,19922:0:0:0:0:
329,192,19216,1,0,0:0:0:0:
475,192,19392,1,0,0:0:0:0:
109,192,19392,1,0,0:0:0:0:
182,192,19569,1,0,0:0:0:0:
329,192,19569,1,0,0:0:0:0:
402,192,19745,1,0,0:0:0:0:
109,192,19922,128,0,20628:0:0:0:0:
329,192,19922,128,0,21334:0:0:0:0:
475,192,19922,1,0,0:0:0:0:
402,192,20098,1,0,0:0:0:0:
182,192,20098,1,0,0:0:0:0:
256,192,20275,1,0,0:0:0:0:
36,192,20275,1,0,0:0:0:0:
402,192,20451,1,0,0:0:0:0:
475,192,20628,128,0,21334:0:0:0:0:
256,192,20628,1,0,0:0:0:0:
182,192,20804,1,0,0:0:0:0:
36,192,20804,1,0,0:0:0:0:
109,192,20981,1,0,0:0:0:0:
256,192,20981,1,0,0:0:0:0:
182,192,21157,1,0,0:0:0:0:
402,192,21157,1,0,0:0:0:0:
36,192,21334,128,0,22040:0:0:0:0:
182,192,21334,128,0,22745:0:0:0:0:
109,192,21334,1,0,0:0:0:0:
256,192,21334,1,0,0:0:0:0:
402,192,21510,1,0,0:0:0:0:
475,192,21687,1,0,0:0:0:0:
256,192,21687,1,0,0:0:0:0:
402,192,21863,1,0,0:0:0:0:
109,192,21863,1,0,0:0:0:0:
329,192,22040,128,0,22745:0:0:0:0:
475,192,22040,1,0,0:0:0:0:
402,192,22216,1,0,0:0:0:0:
109,192,22216,1,0,0:0:0:0:
256,192,22392,1,0,0:0:0:0:
36,192,22392,1,0,0:0:0:0:
402,192,22569,1,0,0:0:0:0:
36,192,22745,128,0,24157:0:0:0:0:
475,192,22745,128,0,23451:0:0:0:0:
109,192,22745,1,0,0:0:0:0:
256,192,22922,1,0,0:0:0:0:
402,192,22922,1,0,0:0:0:0:
329,192,23098,1,0,0:0:0:0:
182,192,23098,1,0,0:0:0:0:
329,192,23275,1,0,0:0:0:0:
256,192,23363,1,0,0:0:0:0:
182,192,23451,128,0,24157:0:0:0:0:
402,192,23451,1,0,0:0:0:0:
329,192,23628,1,0,0:0:0:0:
109,192,23628,1,0,0:0:0:0:
256,192,23804,1,0,0:0:0:0:
402,192,23804,1,0,0:0:0:0:
475,192,23981,1,0,0:0:0:0:
329,192,23981,1,0,0:0:0:0:
402,192,24157,128,0,24863:0:0:0:0:
256,192,24157,128,0,25569:0:0:0:0:
109,192,24157,1,0,0:0:0:0:
475,192,24157,1,0,0:0:0:0:
329,192,24334,1,0,0:0:0:0:
182,192,24510,1,0,0:0:0:0:
36,192,24510,1,0,0:0:0:0:
109,192,24687,1,0,0:0:0:0:
475,192,24687,1,0,0:0:0:0:
36,192,24863,128,0,25569:0:0:0:0:
329,192,24863,1,0,0:0:0:0:
182,192,25040,1,0,0:0:0:0:
475,192,25216,1,0,0:0:0:0:
329,192,25216,1,0,0:0:0:0:
402,192,25392,1,0,0:0:0:0:
109,192,25569,128,0,26275:0:0:0:0:
329,192,25569,128,0,26981:0:0:0:0:
475,192,25569,1,0,0:0:0:0:
402,192,25745,1,0,0:0:0:0:
182,192,25745,1,0,0:0:0:0:
256,192,25922,1,0,0:0:0:0:
475,192,25922,1,0,0:0:0:0:
402,192,26098,1,0,0:0:0:0:
475,192,26275,128,0,26981:0:0:0:0:
256,192,26275,1,0,0:0:0:0:
36,192,26275,1,0,0:0:0:0:
182,192,26451,1,0,0:0:0:0:
402,192,26451,1,0,0:0:0:0:
256,192,26628,1,0,0:0:0:0:
36,192,26628,1,0,0:0:0:0:
109,192,26804,1,0,0:0:0:0:
402,192,26804,1,0,0:0:0:0:
182,192,26981,128,0,27334:0:0:0:0:
329,192,27687,128,0,28040:0:0:0:0:
182,192,28392,128,0,28745:0:0:0:0:
329,192,29098,128,0,29451:0:0:0:0:
109,192,29804,128,0,30157:0:0:0:0:
402,192,30510,128,0,30863:0:0:0:0:
109,192,31216,128,0,31569:0:0:0:0:
402,192,31922,128,0,32275:0:0:0:0:
36,192,32628,128,0,32981:0:0:0:0:
182,192,32628,128,0,32892:0:0:0:0:
182,192,32981,128,0,33334:0:0:0:0:
329,192,32981,128,0,33245:0:0:0:0:
329,192,33334,128,0,33687:0:0:0:0:
475,192,33334,128,0,33598:0:0:0:0:
475,192,33687,128,0,34040:0:0:0:0:
182,192,33687,128,0,33951:0:0:0:0:
182,192,34040,128,0,34392:0:0:0:0:
36,192,34040,128,0,34304:0:0:0:0:
36,192,34392,128,0,34657:0:0:0:0:
329,192,34392,128,0,34745:0:0:0:0:
36,192,34745,128,0,35010:0:0:0:0:
475,192,34745,128,0,35010:0:0:0:0:
36,192,35098,128,0,35451:0:0:0:0:
475,192,35098,128,0,35451:0:0:0:0:
182,192,35451,128,0,36863:0:0:0:0:
329,192,35451,128,0,36863:0:0:0:0:
36,192,36922,1,0,0:0:0:0:
256,192,36981,1,0,0:0:0:0:
109,192,37040,1,0,0:0:0:0:
329,192,37098,1,0,0:0:0:0:
182,192,37157,1,0,0:0:0:0:
402,192,37216,1,0,0:0:0:0:
256,192,37275,1,0,0:0:0:0:
475,192,37334,1,0,0:0:0:0:
329,192,37392,1,0,0:0:0:0:
475,192,37451,1,0,0:0:0:0:
402,192,37569,1,0,0:0:0:0:
182,192,37628,1,0,0:0:0:0:
329,192,37745,1,0,0:0:0:0:
109,192,37863,1,0,0:0:0:0:
402,192,37863,1,0,0:0:0:0:
182,192,37981,128,0,38216:0:0:0:0:
36,192,37981,128,0,38275:0:0:0:0:
329,192,37981,128,0,38275:0:0:0:0:
475,192,37981,128,0,38216:0:0:0:0:
475,192,38275,128,0,39687:0:0:0:0:
182,192,38275,128,0,38981:0:0:0:0:
109,192,38275,1,0,0:0:0:0:
256,192,38451,1,0,0:0:0:0:
402,192,38540,1,0,0:0:0:0:
329,192,38628,1,0,0:0:0:0:
109,192,38981,128,0,39687:0:0:0:0:
329,192,38981,128,0,40392:0:0:0:0:
36,192,38981,1,0,0:0:0:0:
402,192,38981,1,0,0:0:0:0:
182,192,39245,1,0,0:0:0:0:
256,192,39334,1,0,0:0:0:0:
402,192,39510,1,0,0:0:0:0:
36,192,39687,128,0,40392:0:0:0:0:
182,192,39687,128,0,41098:0:0:0:0:
256,192,39687,1,0,0:0:0:0:
475,192,40040,1,0,0:0:0:0:
402,192,40216,1,0,0:0:0:0:
256,192,40392,1,0,0:0:0:0:
475,192,40392,1,0,0:0:0:0:
402,192,40569,1,0,0:0:0:0:
109,192,40745,1,0,0:0:0:0:
475,192,40922,1,0,0:0:0:0:
36,192,41098,1,0,0:0:0:0:
109,192,41187,1,0,0:0:0:0:
182,192,41275,128,0,42510:0:0:0:0:
475,192,41451,1,0,0:0:0:0:
402,192,41540,1,0,0:0:0:0:
329,192,41628,1,0,0:0:0:0:
256,192,41716,1,0,0:0:0:0:
36,192,41804,128,0,42510:0:0:0:0:
109,192,42157,1,0,0:0:0:0:
256,192,42245,1,0,0:0:0:0:
329,192,42334,1,0,0:0:0:0:
402,192,42422,1,0,0:0:0:0:
475,192,42510,128,0,43216:0:0:0:0:
109,192,42510,128,0,42687:0:0:0:0:
329,192,42687,1,0,0:0:0:0:
182,192,42775,1,0,0:0:0:0:
329,192,42863,1,0,0:0:0:0:
36,192,42863,128,0,43040:0:0:0:0:
182,192,43040,128,0,43216:0:0:0:0:
109,192,43216,1,0,0:0:0:0:
329,192,43216,128,0,43392:0:0:0:0:
402,192,43216,1,0,0:0:0:0:
475,192,43392,128,0,43569:0:0:0:0:
36,192,43569,128,0,43745:0:0:0:0:
256,192,43745,128,0,43922:0:0:0:0:
182,192,43922,128,0,44628:0:0:0:0:
475,192,43922,128,0,45334:0:0:0:0:
402,192,43922,128,0,44275:0:0:0:0:
36,192,44275,128,0,44628:0:0:0:0:
329,192,44628,128,0,46040:0:0:0:0:
109,192,44628,128,0,45334:0:0:0:0:
402,192,44628,128,0,44981:0:0:0:0:
182,192,44981,1,0,0:0:0:0:
402,192,45157,1,0,0:0:0:0:
182,192,45334,128,0,46745:0:0:0:0:
36,192,45334,128,0,46040:0:0:0:0:
256,192,45334,128,0,45510:0:0:0:0:
475,192,45687,128,0,45863:0:0:0:0:
256,192,45863,128,0,46040:0:0:0:0:
402,192,46040,1,0,0:0:0:0:
109,192,46040,1,0,0:0:0:0:
475,192,46040,128,0,46216:0:0:0:0:
402,192,46216,128,0,46392:0:0:0:0:
329,192,46392,128,0,46569:0:0:0:0:
36,192,46745,128,0,47451:0:0:0:0:
256,192,46745,128,0,47451:0:0:0:0:
475,192,46745,128,0,47451:0:0:0:0:
109,192,47451,128,0,48157:0:0:0:0:
256,192,47628,128,0,48157:0:0:0:0:
402,192,47804,128,0,48157:0:0:0:0:
475,192,48157,128,0,48334:0:0:0:0:
329,192,48334,1,0,0:0:0:0:
182,192,48422,1,0,0:0:0:0:
329,192,48510,1,0,0:0:0:0:
36,192,48687,128,0,48863:0:0:0:0:
256,192,48863,128,0,49216:0:0:0:0:
402,192,49216,128,0,49569:0:0:0:0:
109,192,49216,128,0,49569:0:0:0:0:
475,192,49569,128,0,50981:0:0:0:0:
182,192,49569,128,0,50275:0:0:0:0:
36,192,49569,128,0,49922:0:0:0:0:
402,192,49922,128,0,50275:0:0:0:0:
109,192,50275,128,0,50981:0:0:0:0:
329,192,50275,128,0,51687:0:0:0:0:
256,192,50275,128,0,50451:0:0:0:0:
36,192,50451,128,0,50628:0:0:0:0:
256,192,50628,128,0,50804:0:0:0:0:
402,192,50804,128,0,50981:0:0:0:0:
36,192,50981,128,0,51687:0:0:0:0:
182,192,50981,128,0,52392:0:0:0:0:
256,192,50981,128,0,51157:0:0:0:0:
402,192,51157,128,0,51334:0:0:0:0:
475,192,51334,128,0,51510:0:0:0:0:
109,192,51510,128,0,51687:0:0:0:0:
256,192,51687,1,0,0:0:0:0:
402,192,51687,1,0,0:0:0:0:
475,192,51687,128,0,51804:0:0:0:0:
329,192,51804,1,0,0:0:0:0:
329,192,52040,128,0,52157:0:0:0:0:
475,192,52157,1,0,0:0:0:0:
36,192,52275,128,0,52392:0:0:0:0:
329,192,52392,128,0,52745:0:0:0:0:
475,192,52392,128,0,52745:0:0:0:0:
36,192,52745,128,0,53098:0:0:0:0:
256,192,53010,128,0,53275:0:0:0:0:
182,192,53098,128,0,53275:0:0:0:0:
475,192,53098,1,0,0:0:0:0:
329,192,53275,128,0,53363:0:0:0:0:
475,192,53275,128,0,53363:0:0:0:0:
402,192,53363,128,0,53451:0:0:0:0:
256,192,53363,128,0,53451:0:0:0:0:
36,192,53451,128,0,53540:0:0:0:0:
182,192,53451,128,0,53540:0:0:0:0:
109,192,53540,128,0,53628:0:0:0:0:
256,192,53540,128,0,53628:0:0:0:0:
182,192,53628,128,0,53804:0:0:0:0:
329,192,53628,128,0,53804:0:0:0:0:
475,192,53804,128,0,53981:0:0:0:0:
256,192,53892,128,0,53981:0:0:0:0:
36,192,53981,128,0,54069:0:0:0:0:
182,192,54069,128,0,54157:0:0:0:0:
109,192,54157,128,0,54334:0:0:0:0:
36,192,54245,128,0,54334:0:0:0:0:
402,192,54334,128,0,54510:0:0:0:0:
475,192,54422,128,0,54510:0:0:0:0:
182,192,54510,128,0,54687:0:0:0:0:
329,192,54510,128,0,54687:0:0:0:0:
402,192,54598,128,0,54687:0:0:0:0:
109,192,54598,128,0,54687:0:0:0:0:
36,192,54687,128,0,54863:0:0:0:0:
475,192,54687,128,0,54863:0:0:0:0:
256,192,54775,128,0,54863:0:0:0:0:
402,192,54863,128,0,55040:0:0:0:0:
182,192,54863,128,0,55040:0:0:0:0:
329,192,54951,128,0,55040:0:0:0:0:
109,192,54951,128,0,55040:0:0:0:0:
36,192,55040,128,0,55216:0:0:0:0:
256,192,55040,128,0,55216:0:0:0:0:
182,192,55216,128,0,55922:0:0:0:0:
475,192,55216,128,0,56628:0:0:0:0:
402,192,55216,128,0,55392:0:0:0:0:
109,192,55392,128,0,55481:0:0:0:0:
402,192,55569,128,0,55922:0:0:0:0:
329,192,55657,128,0,55834:0:0:0:0:
256,192,55745,1,0,0:0:0:0:
329,192,55922,128,0,57334:0:0:0:0:
109,192,55922,128,0,56628:0:0:0:0:
36,192,55922,128,0,56098:0:0:0:0:
256,192,56010,128,0,56098:0:0:0:0:
402,192,56098,128,0,56275:0:0:0:0:
182,192,56187,128,0,56275:0:0:0:0:
256,192,56275,128,0,56451:0:0:0:0:
402,192,56451,128,0,56540:0:0:0:0:
256,192,56540,128,0,56628:0:0:0:0:
182,192,56628,128,0,58040:0:0:0:0:
36,192,56628,128,0,57334:0:0:0:0:
402,192,56628,128,0,56716:0:0:0:0:
256,192,56716,128,0,56804:0:0:0:0:
109,192,56804,128,0,56981:0:0:0:0:
256,192,56981,128,0,57157:0:0:0:0:
402,192,57069,128,0,57157:0:0:0:0:
475,192,57157,128,0,57334:0:0:0:0:
109,192,57245,128,0,57334:0:0:0:0:
402,192,57334,128,0,57687:0:0:0:0:
36,192,57687,128,0,57863:0:0:0:0:
329,192,57687,128,0,57863:0:0:0:0:
109,192,57863,128,0,58040:0:0:0:0:
402,192,57863,128,0,58040:0:0:0:0:
475,192,58040,128,0,59451:0:0:0:0:
256,192,58040,128,0,59451:0:0:0:0:
329,192,58128,1,0,0:0:0:0:
182,192,58216,1,0,0:0:0:0:
109,192,58304,1,0,0:0:0:0:
36,192,58392,1,0,0:0:0:0:
36,192,58569,1,0,0:0:0:0:
109,192,58657,1,0,0:0:0:0:
182,192,58745,1,0,0:0:0:0:
329,192,58834,1,0,0:0:0:0:
402,192,58922,1,0,0:0:0:0:
36,192,58922,128,0,59451:0:0:0:0:
109,192,59451,128,0,60334:0:0:0:0:
402,192,59451,128,0,60334:0:0:0:0:
329,192,59451,128,0,59540:0:0:0:0:
182,192,59540,1,0,0:0:0:0:
475,192,59628,128,0,59716:0:0:0:0:
329,192,59716,128,0,59804:0:0:0:0:
182,192,59804,128,0,59892:0:0:0:0:
36,192,59892,128,0,59981:0:0:0:0:
475,192,59981,128,0,60069:0:0:0:0:
36,192,60069,128,0,60157:0:0:0:0:
256,192,60157,128,0,60334:0:0:0:0:
36,192,60863,128,0,63687:0:0:0:0:
475,192,60863,128,0,61216:0:0:0:0:
329,192,61216,1,0,0:0:0:0:
256,192,61216,128,0,61569:0:0:0:0:
182,192,61569,128,0,62275:0:0:0:0:
475,192,61569,128,0,61804:0:0:0:0:
256,192,61804,1,0,0:0:0:0:
329,192,61922,1,0,0:0:0:0:
475,192,62040,1,0,0:0:0:0:
402,192,62157,128,0,62275:0:0:0:0:
256,192,62275,128,0,62981:0:0:0:0:
475,192,62275,128,0,62392:0:0:0:0:
329,192,62392,128,0,62628:0:0:0:0:
109,192,62628,128,0,62981:0:0:0:0:
475,192,62628,1,0,0:0:0:0:
402,192,62804,128,0,62981:0:0:0:0:
182,192,62981,128,0,65098:0:0:0:0:
475,192,62981,1,0,0:0:0:0:
329,192,62981,128,0,63157:0:0:0:0:
402,192,63157,1,0,0:0:0:0:
256,192,63157,128,0,63334:0:0:0:0:
329,192,63334,1,0,0:0:0:0:
402,192,63334,128,0,63510:0:0:0:0:
109,192,63510,128,0,63687:0:0:0:0:
475,192,63687,128,0,64040:0:0:0:0:
329,192,63687,128,0,63775:0:0:0:0:
256,192,63775,128,0,63863:0:0:0:0:
329,192,64040,128,0,64392:0:0:0:0:
36,192,64128,1,0,0:0:0:0:
402,192,64216,128,0,64569:0:0:0:0:
109,192,64304,1,0,0:0:0:0:
475,192,64392,128,0,64745:0:0:0:0:
256,192,64510,128,0,64863:0:0:0:0:
329,192,64569,1,0,0:0:0:0:
402,192,64745,1,0,0:0:0:0:
329,192,64863,128,0,65098:0:0:0:0:
36,192,64922,128,0,65451:0:0:0:0:
256,192,65098,128,0,65451:0:0:0:0:
475,192,65098,128,0,65451:0:0:0:0:
402,192,65216,128,0,65334:0:0:0:0:
329,192,65334,128,0,65451:0:0:0:0:
182,192,65451,128,0,65804:0:0:0:0:
402,192,65451,128,0,65569:0:0:0:0:
109,192,65569,128,0,65687:0:0:0:0:
402,192,65804,128,0,65981:0:0:0:0:
256,192,65981,128,0,66157:0:0:0:0:
402,192,66157,1,0,0:0:0:0:
109,192,66157,128,0,66275:0:0:0:0:
475,192,66275,128,0,66392:0:0:0:0:
256,192,66334,1,0,0:0:0:0:
36,192,66510,128,0,69334:0:0:0:0:
402,192,66510,1,0,0:0:0:0:
329,192,66510,1,0,0:0:0:0:
109,192,66510,128,0,67216:0:0:0:0:
182,192,66598,128,0,66951:0:0:0:0:
256,192,66687,128,0,66863:0:0:0:0:
329,192,66775,1,0,0:0:0:0:
256,192,67040,1,0,0:0:0:0:
475,192,67040,1,0,0:0:0:0:
329,192,67040,1,0,0:0:0:0:
182,192,67216,128,0,67922:0:0:0:0:
256,192,67569,1,0,0:0:0:0:
329,192,67657,1,0,0:0:0:0:
109,192,67745,1,0,0:0:0:0:
402,192,67745,1,0,0:0:0:0:
475,192,67834,1,0,0:0:0:0:
329,192,67834,1,0,0:0:0:0:
256,192,67922,128,0,68628:0:0:0:0:
109,192,67922,1,0,0:0:0:0:
402,192,67922,1,0,0:0:0:0:
109,192,68275,128,0,68628:0:0:0:0:
475,192,68451,1,0,0:0:0:0:
182,192,68451,1,0,0:0:0:0:
402,192,68540,1,0,0:0:0:0:
182,192,68628,128,0,70745:0:0:0:0:
329,192,68628,1,0,0:0:0:0:
475,192,68628,128,0,68804:0:0:0:0:
402,192,68804,128,0,68981:0:0:0:0:
329,192,68981,128,0,69157:0:0:0:0:
475,192,69334,128,0,70040:0:0:0:0:
329,192,69334,128,0,70745:0:0:0:0:
402,192,70040,128,0,70569:0:0:0:0:
475,192,70569,1,0,0:0:0:0:
402,192,70746,1,0,0:0:0:0:
329,192,70920,128,0,72139:0:0:0:0:
182,192,70920,1,0,0:0:0:0:
109,192,71007,1,0,0:0:0:0:
36,192,71094,1,0,0:0:0:0:
256,192,71094,128,0,71268:0:0:0:0:
109,192,71268,128,0,71442:0:0:0:0:
475,192,71268,1,0,0:0:0:0:
36,192,71442,128,0,72139:0:0:0:0:
402,192,71442,1,0,0:0:0:0:
182,192,71790,1,0,0:0:0:0:
475,192,71790,128,0,72139:0:0:0:0:
475,192,72491,1,0,0:0:0:0:
329,192,72844,1,0,0:0:0:0:
182,192,73197,1,0,0:0:0:0:
329,192,73550,1,0,0:0:0:0:
475,192,73903,1,0,0:0:0:0:
182,192,74256,1,0,0:0:0:0:
36,192,74609,1,0,0:0:0:0:
109,192,74962,1,0,0:0:0:0:
182,192,75312,1,0,0:0:0:0:
402,192,75663,1,0,0:0:0:0:
329,192,76014,1,0,0:0:0:0:
109,192,76365,1,0,0:0:0:0:
402,192,76705,1,0,0:0:0:0:
256,192,77046,1,0,0:0:0:0:
36,192,77387,1,0,0:0:0:0:
475,192,78059,1,0,0:0:0:0:
329,192,78390,1,0,0:0:0:0:
182,192,78722,1,0,0:0:0:0:
329,192,79053,1,0,0:0:0:0:
475,192,79372,1,0,0:0:0:0:
182,192,79691,1,0,0:0:0:0:
36,192,80010,1,0,0:0:0:0:
109,192,80329,1,0,0:0:0:0:
402,192,80639,1,0,0:0:0:0:
182,192,80950,1,0,0:0:0:0:
36,192,81261,1,0,0:0:0:0:
329,192,81572,1,0,0:0:0:0:
402,192,81873,1,0,0:0:0:0:
475,192,82175,1,0,0:0:0:0:
256,192,82476,1,0,0:0:0:0:
36,192,82778,128,0,83966:0:0:0:0:
182,192,82778,128,0,83669:0:0:0:0:
182,192,83966,128,0,84537:0:0:0:0:
36,192,84251,128,0,85108:0:0:0:0:
182,192,85108,128,0,86219:0:0:0:0:
256,192,85108,128,0,85941:0:0:0:0:
256,192,86219,128,0,87317:0:0:0:0:
329,192,86219,128,0,87042:0:0:0:0:
329,192,87317,128,0,88339:0:0:0:0:
475,192,87317,128,0,87794:0:0:0:0:
36,192,87317,128,0,87862:0:0:0:0:
109,192,87317,128,0,87794:0:0:0:0:
402,192,87317,128,0,87794:0:0:0:0:
256,192,87862,128,0,88953:0:0:0:0:
109,192,87862,128,0,88407:0:0:0:0:
402,192,87862,128,0,88407:0:0:0:0:
475,192,87862,128,0,88339:0:0:0:0:
182,192,88407,128,0,89498:0:0:0:0:
36,192,88407,128,0,88885:0:0:0:0:
329,192,88407,128,0,88885:0:0:0:0:
475,192,88407,128,0,88953:0:0:0:0:
109,192,88953,128,0,89498:0:0:0:0:
36,192,88953,128,0,89498:0:0:0:0:
329,192,88953,128,0,89498:0:0:0:0:
402,192,88953,128,0,89498:0:0:0:0:
475,192,89498,128,0,90862:0:0:0:0:
329,192,89771,128,0,90317:0:0:0:0:
182,192,90044,128,0,90862:0:0:0:0:
36,192,90317,128,0,90862:0:0:0:0:
329,192,90589,128,0,90862:0:0:0:0:
109,192,90862,128,0,91680:0:0:0:0:
256,192,90862,128,0,91680:0:0:0:0:
402,192,90862,128,0,91680:0:0:0:0:
475,192,91135,128,0,91680:0:0:0:0:
36,192,91135,128,0,91680:0:0:0:0:
182,192,91680,128,0,92226:0:0:0:0:
329,192,91680,128,0,92771:0:0:0:0:
109,192,92135,128,0,92226:0:0:0:0:
475,192,92226,128,0,93317:0:0:0:0:
182,192,92407,128,0,92589:0:0:0:0:
36,192,92498,128,0,92771:0:0:0:0:
256,192,92589,128,0,92680:0:0:0:0:
109,192,92680,128,0,92771:0:0:0:0:
402,192,92771,128,0,92953:0:0:0:0:
182,192,92771,128,0,93862:0:0:0:0:
329,192,92862,128,0,92953:0:0:0:0:
109,192,92953,128,0,93135:0:0:0:0:
256,192,93044,128,0,93135:0:0:0:0:
36,192,93135,128,0,93317:0:0:0:0:
329,192,93317,128,0,93862:0:0:0:0:
36,192,93862,128,0,94135:0:0:0:0:
475,192,93862,1,0,0:0:0:0:
256,192,93953,128,0,94135:0:0:0:0:
109,192,94044,128,0,94135:0:0:0:0:
475,192,94135,1,0,0:0:0:0:
329,192,94135,1,0,0:0:0:0:
402,192,94317,128,0,94407:0:0:0:0:
256,192,94407,1,0,0:0:0:0:
36,192,94407,1,0,0:0:0:0:
182,192,94589,128,0,94953:0:0:0:0:
402,192,94589,1,0,0:0:0:0:
36,192,94680,128,0,94953:0:0:0:0:
475,192,94680,1,0,0:0:0:0:
256,192,94771,128,0,94862:0:0:0:0:
329,192,94771,1,0,0:0:0:0:
109,192,94862,128,0,94953:0:0:0:0:
475,192,94953,128,0,95226:0:0:0:0:
402,192,94953,1,0,0:0:0:0:
329,192,95044,128,0,95135:0:0:0:0:
256,192,95135,128,0,95226:0:0:0:0:
402,192,95226,128,0,95498:0:0:0:0:
329,192,95317,128,0,95407:0:0:0:0:
182,192,95407,128,0,95498:0:0:0:0:
475,192,95498,128,0,95771:0:0:0:0:
36,192,95589,128,0,95771:0:0:0:0:
256,192,95680,128,0,95771:0:0:0:0:
329,192,95771,128,0,96044:0:0:0:0:
109,192,95771,128,0,96044:0:0:0:0:
402,192,96044,128,0,96317:0:0:0:0:
475,192,96044,128,0,96589:0:0:0:0:
36,192,96044,128,0,97135:0:0:0:0:
182,192,96135,128,0,96317:0:0:0:0:
182,192,96498,128,0,96589:0:0:0:0:
256,192,96589,128,0,97680:0:0:0:0:
109,192,96771,128,0,97135:0:0:0:0:
329,192,96862,128,0,96953:0:0:0:0:
475,192,96953,1,0,0:0:0:0:
402,192,97044,128,0,97135:0:0:0:0:
329,192,97135,128,0,97407:0:0:0:0:
475,192,97135,128,0,98226:0:0:0:0:
182,192,97226,128,0,97317:0:0:0:0:
402,192,97317,128,0,97498:0:0:0:0:
109,192,97407,128,0,97498:0:0:0:0:
36,192,97498,128,0,97680:0:0:0:0:
109,192,97589,128,0,97680:0:0:0:0:
182,192,97680,128,0,98226:0:0:0:0:
109,192,98226,128,0,98407:0:0:0:0:
182,192,98294,128,0,98498:0:0:0:0:
256,192,98362,128,0,98567:0:0:0:0:
329,192,98430,128,0,98635:0:0:0:0:
109,192,98567,1,0,0:0:0:0:
182,192,98635,1,0,0:0:0:0:
256,192,98703,1,0,0:0:0:0:
329,192,98771,128,0,98907:0:0:0:0:
475,192,98771,1,0,0:0:0:0:
256,192,98907,128,0,99044:0:0:0:0:
402,192,98953,1,0,0:0:0:0:
182,192,99044,128,0,99180:0:0:0:0:
329,192,99044,1,0,0:0:0:0:
109,192,99180,128,0,99317:0:0:0:0:
256,192,99226,1,0,0:0:0:0:
329,192,99317,128,0,99407:0:0:0:0:
182,192,99498,128,0,99680:0:0:0:0:
36,192,99498,128,0,99771:0:0:0:0:
475,192,99498,128,0,99771:0:0:0:0:
329,192,99589,128,0,99680:0:0:0:0:
182,192,99862,128,0,99953:0:0:0:0:
402,192,99862,128,0,100135:0:0:0:0:
109,192,99862,128,0,100135:0:0:0:0:
256,192,99953,128,0,100044:0:0:0:0:
36,192,100135,128,0,100407:0:0:0:0:
182,192,100226,128,0,100407:0:0:0:0:
329,192,100407,128,0,100589:0:0:0:0:
475,192,100498,128,0,100680:0:0:0:0:
256,192,100589,128,0,100680:0:0:0:0:
109,192,100862,128,0,100953:0:0:0:0:
182,192,101135,128,0,101498:0:0:0:0:
329,192,101226,128,0,101317:0:0:0:0:
475,192,101317,128,0,101498:0:0:0:0:
402,192,101407,128,0,101498:0:0:0:0:
36,192,101498,128,0,101771:0:0:0:0:
256,192,101589,128,0,101771:0:0:0:0:
109,192,101771,128,0,102044:0:0:0:0:
329,192,101862,128,0,102044:0:0:0:0:
36,192,102044,128,0,102589:0:0:0:0:
475,192,102044,128,0,102589:0:0:0:0:
256,192,102317,1,0,0:0:0:0:
182,192,102589,128,0,102862:0:0:0:0:
109,192,102680,128,0,102953:0:0:0:0:
36,192,102771,128,0,103044:0:0:0:0:
256,192,102862,128,0,103680:0:0:0:0:
329,192,102862,128,0,103135:0:0:0:0:
402,192,102953,128,0,103226:0:0:0:0:
475,192,103044,128,0,103317:0:0:0:0:
182,192,103135,1,0,0:0:0:0:
329,192,103226,1,0,0:0:0:0:
109,192,103226,1,0,0:0:0:0:
402,192,103317,1,0,0:0:0:0:
36,192,103317,128,0,103680:0:0:0:0:
475,192,103407,1,0,0:0:0:0:
109,192,103407,128,0,103680:0:0:0:0:
182,192,103544,128,0,103680:0:0:0:0:
329,192,103680,128,0,103862:0:0:0:0:
475,192,103953,128,0,104226:0:0:0:0:
402,192,104226,128,0,104317:0:0:0:0:
329,192,104317,128,0,104407:0:0:0:0:
256,192,104407,128,0,104498:0:0:0:0:
182,192,104498,128,0,104589:0:0:0:0:
109,192,104589,128,0,104680:0:0:0:0:
36,192,104680,128,0,104771:0:0:0:0:
256,192,104771,128,0,105135:0:0:0:0:
329,192,104862,128,0,105226:0:0:0:0:
475,192,104862,128,0,105044:0:0:0:0:
256,192,105226,128,0,105862:0:0:0:0:
182,192,105317,128,0,105771:0:0:0:0:
475,192,105317,1,0,0:0:0:0:
36,192,105498,128,0,105862:0:0:0:0:
475,192,105589,128,0,105680:0:0:0:0:
402,192,105680,128,0,105771:0:0:0:0:
329,192,105771,128,0,105862:0:0:0:0:
182,192,105862,128,0,106953:0:0:0:0:
475,192,105862,128,0,105953:0:0:0:0:
329,192,105953,128,0,106044:0:0:0:0:
109,192,106044,1,0,0:0:0:0:
256,192,106135,128,0,106226:0:0:0:0:
402,192,106226,128,0,106317:0:0:0:0:
329,192,106317,128,0,106407:0:0:0:0:
36,192,106407,1,0,0:0:0:0:
402,192,106953,128,0,107498:0:0:0:0:
109,192,106953,128,0,108044:0:0:0:0:
329,192,107044,128,0,107407:0:0:0:0:
256,192,107135,128,0,107317:0:0:0:0:
182,192,107589,128,0,107771:0:0:0:0:
402,192,107680,128,0,107862:0:0:0:0:
256,192,107771,128,0,107953:0:0:0:0:
475,192,107862,128,0,108044:0:0:0:0:
36,192,108044,128,0,109135:0:0:0:0:
329,192,108135,128,0,108589:0:0:0:0:
182,192,108226,128,0,108680:0:0:0:0:
475,192,108589,128,0,109135:0:0:0:0:
109,192,108771,1,0,0:0:0:0:
402,192,108771,1,0,0:0:0:0:
182,192,108862,128,0,109135:0:0:0:0:
329,192,108862,128,0,109135:0:0:0:0:
109,192,109135,128,0,109498:0:0:0:0:
402,192,109135,1,0,0:0:0:0:
329,192,109226,1,0,0:0:0:0:
256,192,109317,1,0,0:0:0:0:
182,192,109407,1,0,0:0:0:0:
36,192,109589,128,0,110044:0:0:0:0:
109,192,109680,128,0,110044:0:0:0:0:
182,192,109771,128,0,110044:0:0:0:0:
256,192,109862,128,0,110044:0:0:0:0:
329,192,109953,128,0,110226:0:0:0:0:
402,192,110135,128,0,110226:0:0:0:0:
475,192,110226,128,0,110317:0:0:0:0:
402,192,110317,128,0,110407:0:0:0:0:
475,192,110498,128,0,111317:0:0:0:0:
36,192,110771,128,0,111317:0:0:0:0:
109,192,110862,128,0,111317:0:0:0:0:
182,192,110953,128,0,111317:0:0:0:0:
256,192,111044,1,0,0:0:0:0:
402,192,111317,128,0,111589:0:0:0:0:
256,192,111498,1,0,0:0:0:0:
109,192,111589,1,0,0:0:0:0:
182,192,111771,128,0,111862:0:0:0:0:
329,192,111771,1,0,0:0:0:0:
36,192,111862,128,0,112407:0:0:0:0:
256,192,112044,128,0,112135:0:0:0:0:
475,192,112044,1,0,0:0:0:0:
109,192,112135,128,0,112226:0:0:0:0:
402,192,112135,1,0,0:0:0:0:
329,192,112226,128,0,112317:0:0:0:0:
182,192,112317,128,0,112407:0:0:0:0:
402,192,112317,1,0,0:0:0:0:
475,192,112407,128,0,112680:0:0:0:0:
402,192,112498,128,0,112589:0:0:0:0:
256,192,112589,128,0,112680:0:0:0:0:
109,192,112680,128,0,112953:0:0:0:0:
402,192,112771,128,0,112953:0:0:0:0:
36,192,112953,128,0,113498:0:0:0:0:
475,192,112953,128,0,113498:0:0:0:0:
329,192,112953,128,0,113135:0:0:0:0:
182,192,113135,128,0,113226:0:0:0:0:
256,192,113226,128,0,113498:0:0:0:0:
402,192,113498,128,0,114044:0:0:0:0:
182,192,113498,128,0,114589:0:0:0:0:
109,192,113498,128,0,113771:0:0:0:0:
329,192,113589,128,0,113680:0:0:0:0:
475,192,113680,128,0,113771:0:0:0:0:
329,192,113953,128,0,114044:0:0:0:0:
36,192,114044,128,0,115135:0:0:0:0:
475,192,114044,1,0,0:0:0:0:
475,192,114226,128,0,114317:0:0:0:0:
256,192,114317,128,0,114407:0:0:0:0:
402,192,114407,128,0,114498:0:0:0:0:
475,192,114498,128,0,114589:0:0:0:0:
329,192,114589,128,0,115680:0:0:0:0:
109,192,114589,128,0,114862:0:0:0:0:
402,192,114680,128,0,114771:0:0:0:0:
256,192,114771,128,0,114862:0:0:0:0:
182,192,114862,128,0,114953:0:0:0:0:
402,192,114953,128,0,115044:0:0:0:0:
475,192,115044,128,0,115135:0:0:0:0:
109,192,115135,1,0,0:0:0:0:
256,192,115407,1,0,0:0:0:0:
36,192,115680,128,0,116771:0:0:0:0:
182,192,115680,1,0,0:0:0:0:
182,192,115953,128,0,116771:0:0:0:0:
329,192,116226,128,0,116771:0:0:0:0:
475,192,116226,1,0,0:0:0:0:
402,192,116407,1,0,0:0:0:0:
475,192,116498,128,0,116771:0:0:0:0:
256,192,116498,1,0,0:0:0:0:
109,192,116680,1,0,0:0:0:0:
402,192,116680,1,0,0:0:0:0:
109,192,116953,128,0,117226:0:0:0:0:
402,192,116953,128,0,117226:0:0:0:0:
475,192,117317,128,0,117498:0:0:0:0:
36,192,117317,128,0,117498:0:0:0:0:
402,192,117407,128,0,117498:0:0:0:0:
109,192,117407,128,0,117498:0:0:0:0:
256,192,117589,128,0,117862:0:0:0:0:
109,192,117680,128,0,117862:0:0:0:0:
402,192,117680,128,0,117862:0:0:0:0:
36,192,117771,128,0,117862:0:0:0:0:
475,192,117771,128,0,118407:0:0:0:0:
329,192,117862,128,0,118953:0:0:0:0:
182,192,117953,128,0,118044:0:0:0:0:
36,192,118044,128,0,118135:0:0:0:0:
182,192,118317,128,0,118407:0:0:0:0:
36,192,118407,128,0,119498:0:0:0:0:
402,192,118589,128,0,118680:0:0:0:0:
109,192,118680,128,0,118771:0:0:0:0:
256,192,118771,128,0,118862:0:0:0:0:
182,192,118862,128,0,118953:0:0:0:0:
475,192,118953,128,0,120044:0:0:0:0:
109,192,118953,128,0,119498:0:0:0:0:
402,192,119044,128,0,119135:0:0:0:0:
256,192,119135,128,0,119226:0:0:0:0:
182,192,119226,128,0,119317:0:0:0:0:
329,192,119317,128,0,119407:0:0:0:0:
402,192,119407,128,0,119498:0:0:0:0:
256,192,119498,128,0,120044:0:0:0:0:
36,192,119771,128,0,120044:0:0:0:0:
109,192,120044,128,0,121135:0:0:0:0:
329,192,120044,1,0,0:0:0:0:
402,192,120112,1,0,0:0:0:0:
329,192,120180,1,0,0:0:0:0:
256,192,120248,1,0,0:0:0:0:
182,192,120317,1,0,0:0:0:0:
475,192,120385,1,0,0:0:0:0:
329,192,120453,1,0,0:0:0:0:
182,192,120521,128,0,120589:0:0:0:0:
36,192,120657,1,0,0:0:0:0:
475,192,120726,1,0,0:0:0:0:
329,192,120794,1,0,0:0:0:0:
182,192,120862,128,0,120930:0:0:0:0:
36,192,120998,128,0,121135:0:0:0:0:
256,192,121135,128,0,121317:0:0:0:0:
36,192,121407,128,0,122135:0:0:0:0:
109,192,121407,128,0,122044:0:0:0:0:
182,192,121407,128,0,121953:0:0:0:0:
256,192,121407,128,0,121862:0:0:0:0:
329,192,121407,128,0,121771:0:0:0:0:
402,192,121407,128,0,121680:0:0:0:0:
475,192,121680,128,0,122771:0:0:0:0:
329,192,122226,128,0,123317:0:0:0:0:
182,192,122294,128,0,122362:0:0:0:0:
36,192,122362,128,0,122430:0:0:0:0:
182,192,122703,128,0,122771:0:0:0:0:
36,192,122771,128,0,123862:0:0:0:0:
402,192,122976,128,0,123044:0:0:0:0:
109,192,123044,128,0,123135:0:0:0:0:
256,192,123135,128,0,123226:0:0:0:0:
182,192,123226,128,0,123317:0:0:0:0:
109,192,123317,128,0,123862:0:0:0:0:
475,192,123317,128,0,124407:0:0:0:0:
402,192,123407,128,0,123498:0:0:0:0:
256,192,123498,128,0,123589:0:0:0:0:
182,192,123589,128,0,123680:0:0:0:0:
329,192,123680,128,0,123771:0:0:0:0:
402,192,123771,128,0,123862:0:0:0:0:
256,192,123862,128,0,124407:0:0:0:0:
36,192,124407,128,0,125226:0:0:0:0:
329,192,124407,128,0,124953:0:0:0:0:
109,192,124953,128,0,125044:0:0:0:0:
182,192,125044,128,0,125135:0:0:0:0:
256,192,125135,128,0,125226:0:0:0:0:
329,192,125226,128,0,125317:0:0:0:0:
402,192,125317,128,0,125407:0:0:0:0:
475,192,125407,128,0,125498:0:0:0:0:
109,192,125498,128,0,126589:0:0:0:0:
256,192,125498,128,0,125680:0:0:0:0:
329,192,125680,128,0,126044:0:0:0:0:
475,192,126044,128,0,126226:0:0:0:0:
256,192,126226,1,0,0:0:0:0:
402,192,126317,128,0,126589:0:0:0:0:
329,192,126407,128,0,126589:0:0:0:0:
256,192,126498,128,0,126589:0:0:0:0:
36,192,126589,128,0,127122:0:0:0:0:
475,192,126589,128,0,127122:0:0:0:0:
329,192,126944,1,0,0:0:0:0:
109,192,127122,128,0,127655:0:0:0:0:
256,192,127122,128,0,127655:0:0:0:0:
182,192,127655,128,0,128189:0:0:0:0:
402,192,127655,128,0,128189:0:0:0:0:
256,192,128189,128,0,128722:0:0:0:0:
109,192,128189,128,0,128722:0:0:0:0:
182,192,128722,128,0,129232:0:0:0:0:
329,192,128722,128,0,129232:0:0:0:0:
402,192,129062,1,0,0:0:0:0:
36,192,129232,128,0,129743:0:0:0:0:
475,192,129232,128,0,129743:0:0:0:0:
402,192,129743,128,0,130253:0:0:0:0:
109,192,129743,128,0,130253:0:0:0:0:
329,192,130253,128,0,130764:0:0:0:0:
182,192,130253,128,0,130764:0:0:0:0:
256,192,130509,1,0,0:0:0:0:
109,192,130764,128,0,131253:0:0:0:0:
402,192,130764,128,0,131253:0:0:0:0:
329,192,131008,1,0,0:0:0:0:
36,192,131253,128,0,131743:0:0:0:0:
256,192,131253,128,0,131743:0:0:0:0:
475,192,131253,128,0,131743:0:0:0:0:
182,192,131498,1,0,0:0:0:0:
109,192,131743,128,0,132233:0:0:0:0:
402,192,131743,128,0,132723:0:0:0:0:
256,192,131988,1,0,0:0:0:0:
182,192,132233,128,0,132723:0:0:0:0:
36,192,132233,128,0,132723:0:0:0:0:
329,192,132233,1,0,0:0:0:0:
475,192,132478,1,0,0:0:0:0:
109,192,132723,128,0,133193:0:0:0:0:
329,192,132723,128,0,133193:0:0:0:0:
256,192,132723,1,0,0:0:0:0:
182,192,132958,1,0,0:0:0:0:
36,192,133193,128,0,133664:0:0:0:0:
256,192,133193,128,0,133664:0:0:0:0:
402,192,133193,128,0,133664:0:0:0:0:
182,192,133428,1,0,0:0:0:0:
475,192,133664,128,0,134605:0:0:0:0:
109,192,133664,128,0,134605:0:0:0:0:
182,192,133899,1,0,0:0:0:0:
256,192,134134,1,0,0:0:0:0:
329,192,134370,1,0,0:0:0:0:
36,192,134605,1,0,0:0:0:0:
402,192,134605,1,0,0:0:0:0:
329,192,134831,1,0,0:0:0:0:
402,192,135057,1,0,0:0:0:0:
109,192,135057,1,0,0:0:0:0:
256,192,135284,1,0,0:0:0:0:
329,192,135510,1,0,0:0:0:0:
182,192,135510,1,0,0:0:0:0:
109,192,135737,1,0,0:0:0:0:
475,192,135963,1,0,0:0:0:0:
36,192,135963,1,0,0:0:0:0:
109,192,136189,1,0,0:0:0:0:
36,192,136416,1,0,0:0:0:0:
182,192,136416,1,0,0:0:0:0:
329,192,136416,1,0,0:0:0:0:
256,192,136634,1,0,0:0:0:0:
109,192,136852,1,0,0:0:0:0:
402,192,136852,1,0,0:0:0:0:
329,192,137070,1,0,0:0:0:0:
182,192,137288,1,0,0:0:0:0:
475,192,137288,1,0,0:0:0:0:
36,192,137288,1,0,0:0:0:0:
109,192,137506,1,0,0:0:0:0:
256,192,137725,1,0,0:0:0:0:
36,192,137725,1,0,0:0:0:0:
475,192,137725,1,0,0:0:0:0:
109,192,137943,1,0,0:0:0:0:
36,192,138161,1,0,0:0:0:0:
182,192,138161,1,0,0:0:0:0:
402,192,138161,1,0,0:0:0:0:
256,192,138371,1,0,0:0:0:0:
109,192,138582,1,0,0:0:0:0:
329,192,138582,1,0,0:0:0:0:
475,192,138582,1,0,0:0:0:0:
402,192,138792,1,0,0:0:0:0:
36,192,139003,1,0,0:0:0:0:
182,192,139003,1,0,0:0:0:0:
329,192,139003,1,0,0:0:0:0:
475,192,139003,1,0,0:0:0:0:
402,192,139213,1,0,0:0:0:0:
109,192,139424,1,0,0:0:0:0:
329,192,139424,1,0,0:0:0:0:
36,192,139424,1,0,0:0:0:0:
256,192,139634,1,0,0:0:0:0:
329,192,139845,1,0,0:0:0:0:
182,192,139845,1,0,0:0:0:0:
109,192,140048,1,0,0:0:0:0:
475,192,140251,1,0,0:0:0:0:
36,192,140251,1,0,0:0:0:0:
109,192,140455,1,0,0:0:0:0:
402,192,140658,1,0,0:0:0:0:
182,192,140658,1,0,0:0:0:0:
256,192,140861,1,0,0:0:0:0:
329,192,141065,1,0,0:0:0:0:
182,192,141065,1,0,0:0:0:0:
402,192,141268,1,0,0:0:0:0:
36,192,141472,128,0,142258:0:0:0:0:
256,192,141472,128,0,142258:0:0:0:0:
402,192,141472,128,0,142258:0:0:0:0:
329,192,142258,128,0,143045:0:0:0:0:
182,192,142258,128,0,143045:0:0:0:0:
109,192,143045,128,0,143806:0:0:0:0:
402,192,143045,128,0,143806:0:0:0:0:
329,192,143806,128,0,144568:0:0:0:0:
36,192,143806,128,0,144568:0:0:0:0:
182,192,143806,128,0,144568:0:0:0:0:
475,192,143806,128,0,144568:0:0:0:0:
109,192,144568,128,0,144937:0:0:0:0:
256,192,144568,1,0,0:0:0:0:
402,192,144568,1,0,0:0:0:0:
329,192,144937,128,0,145306:0:0:0:0:
182,192,144937,128,0,145675:0:0:0:0:
475,192,145306,128,0,145675:0:0:0:0:
109,192,145675,128,0,146044:0:0:0:0:
402,192,145675,128,0,146402:0:0:0:0:
256,192,146044,128,0,147118:0:0:0:0:
36,192,146044,128,0,146402:0:0:0:0:
329,192,146402,128,0,146760:0:0:0:0:
109,192,146402,128,0,147118:0:0:0:0:
402,192,146760,128,0,147118:0:0:0:0:
182,192,147118,128,0,148186:0:0:0:0:
475,192,147118,128,0,148186:0:0:0:0:
329,192,147476,128,0,148186:0:0:0:0:
36,192,147476,128,0,148186:0:0:0:0:
256,192,148186,128,0,148777:0:0:0:0:
109,192,148186,128,0,148896:0:0:0:0:
402,192,148186,128,0,148896:0:0:0:0:
475,192,148896,128,0,149487:0:0:0:0:
256,192,148896,128,0,149487:0:0:0:0:
36,192,148896,128,0,149487:0:0:0:0:
329,192,148896,128,0,149606:0:0:0:0:
182,192,148896,128,0,149606:0:0:0:0:
256,192,149606,128,0,150316:0:0:0:0:
109,192,149606,128,0,150316:0:0:0:0:
402,192,149606,128,0,150316:0:0:0:0:
36,192,150316,128,0,150668:0:0:0:0:
182,192,150316,128,0,150668:0:0:0:0:
329,192,150316,128,0,150668:0:0:0:0:
475,192,150316,128,0,150668:0:0:0:0:
109,192,150668,128,0,151021:0:0:0:0:
402,192,150668,1,0,0:0:0:0:
329,192,151021,128,0,151374:0:0:0:0:
182,192,151021,128,0,151374:0:0:0:0:
475,192,151374,128,0,151727:0:0:0:0:
36,192,151374,128,0,151727:0:0:0:0:
402,192,151727,128,0,152080:0:0:0:0:
109,192,151727,128,0,152433:0:0:0:0:
329,192,151727,1,0,0:0:0:0:
182,192,151904,1,0,0:0:0:0:
256,192,152080,128,0,152433:0:0:0:0:
475,192,152080,1,0,0:0:0:0:
402,192,152257,1,0,0:0:0:0:
329,192,152433,128,0,153139:0:0:0:0:
182,192,152433,128,0,153139:0:0:0:0:
109,192,152610,1,0,0:0:0:0:
36,192,152786,1,0,0:0:0:0:
256,192,152963,1,0,0:0:0:0:
36,192,153139,1,0,0:0:0:0:
475,192,153139,128,0,153844:0:0:0:0:
256,192,153491,1,0,0:0:0:0:
182,192,153491,128,0,153844:0:0:0:0:
109,192,153844,128,0,154550:0:0:0:0:
402,192,153844,128,0,154197:0:0:0:0:
256,192,154021,1,0,0:0:0:0:
182,192,154197,128,0,154374:0:0:0:0:
329,192,154374,1,0,0:0:0:0:
256,192,154374,128,0,154550:0:0:0:0:
475,192,154550,128,0,154903:0:0:0:0:
36,192,154550,128,0,154903:0:0:0:0:
256,192,154903,1,0,0:0:0:0:
109,192,154903,128,0,155609:0:0:0:0:
402,192,155080,1,0,0:0:0:0:
182,192,155080,128,0,155256:0:0:0:0:
329,192,155256,128,0,155609:0:0:0:0:
475,192,155256,128,0,155433:0:0:0:0:
402,192,155433,128,0,155609:0:0:0:0:
36,192,155433,1,0,0:0:0:0:
256,192,155609,1,0,0:0:0:0:
182,192,155609,128,0,155962:0:0:0:0:
36,192,155609,128,0,155786:0:0:0:0:
402,192,155962,1,0,0:0:0:0:
475,192,155962,128,0,156315:0:0:0:0:
256,192,155962,128,0,156315:0:0:0:0:
329,192,156315,1,0,0:0:0:0:
36,192,156315,128,0,156668:0:0:0:0:
182,192,156315,128,0,156668:0:0:0:0:
475,192,156491,1,0,0:0:0:0:
256,192,156580,1,0,0:0:0:0:
402,192,156668,128,0,157021:0:0:0:0:
109,192,156668,128,0,157139:0:0:0:0:
329,192,156844,1,0,0:0:0:0:
475,192,157021,1,0,0:0:0:0:
182,192,157021,128,0,157727:0:0:0:0:
36,192,157139,128,0,157374:0:0:0:0:
402,192,157197,128,0,157374:0:0:0:0:
256,192,157374,1,0,0:0:0:0:
475,192,157374,128,0,157550:0:0:0:0:
329,192,157550,128,0,157639:0:0:0:0:
402,192,157639,128,0,157727:0:0:0:0:
109,192,157727,128,0,158315:0:0:0:0:
475,192,157727,128,0,157903:0:0:0:0:
256,192,157903,1,0,0:0:0:0:
36,192,157903,128,0,158080:0:0:0:0:
329,192,158080,128,0,158256:0:0:0:0:
402,192,158256,128,0,158433:0:0:0:0:
182,192,158315,128,0,158786:0:0:0:0:
475,192,158433,128,0,158786:0:0:0:0:
329,192,158609,1,0,0:0:0:0:
36,192,158786,128,0,159315:0:0:0:0:
256,192,158786,128,0,159315:0:0:0:0:
402,192,159315,128,0,160021:0:0:0:0:
109,192,159315,128,0,160021:0:0:0:0:
256,192,159491,128,0,160021:0:0:0:0:
182,192,160021,128,0,160197:0:0:0:0:
475,192,160197,128,0,160903:0:0:0:0:
36,192,160197,1,0,0:0:0:0:
329,192,160197,128,0,160550:0:0:0:0:
36,192,160550,128,0,160903:0:0:0:0:
402,192,160727,128,0,161609:0:0:0:0:
109,192,160903,128,0,161609:0:0:0:0:
256,192,160903,128,0,161609:0:0:0:0:
182,192,160903,128,0,161080:0:0:0:0:
329,192,161080,128,0,161256:0:0:0:0:
36,192,161256,128,0,161433:0:0:0:0:
475,192,161433,128,0,161609:0:0:0:0:
182,192,161609,128,0,162139:0:0:0:0:
329,192,161609,1,0,0:0:0:0:
256,192,161962,1,0,0:0:0:0:
329,192,162050,1,0,0:0:0:0:
109,192,162139,128,0,163021:0:0:0:0:
402,192,162139,128,0,163021:0:0:0:0:
475,192,162227,1,0,0:0:0:0:
256,192,162315,128,0,163021:0:0:0:0:
182,192,162403,1,0,0:0:0:0:
36,192,162491,1,0,0:0:0:0:
475,192,162844,1,0,0:0:0:0:
329,192,162844,128,0,163374:0:0:0:0:
36,192,163021,128,0,163374:0:0:0:0:
182,192,163197,1,0,0:0:0:0:
475,192,163286,1,0,0:0:0:0:
109,192,163374,128,0,163727:0:0:0:0:
256,192,163374,128,0,163727:0:0:0:0:
402,192,163374,128,0,163727:0:0:0:0:
36,192,163550,128,0,163727:0:0:0:0:
329,192,163727,128,0,164433:0:0:0:0:
182,192,163727,128,0,164080:0:0:0:0:
475,192,163727,1,0,0:0:0:0:
109,192,164080,128,0,164433:0:0:0:0:
475,192,164433,128,0,165139:0:0:0:0:
36,192,164433,128,0,165139:0:0:0:0:
402,192,164521,1,0,0:0:0:0:
329,192,164609,1,0,0:0:0:0:
256,192,164697,1,0,0:0:0:0:
182,192,164786,128,0,165139:0:0:0:0:
109,192,165139,128,0,165844:0:0:0:0:
256,192,165139,128,0,165844:0:0:0:0:
402,192,165139,128,0,165844:0:0:0:0:
329,192,165139,128,0,165491:0:0:0:0:
475,192,165491,128,0,165668:0:0:0:0:
36,192,165668,128,0,165844:0:0:0:0:
182,192,165844,128,0,166197:0:0:0:0:
329,192,165844,128,0,166197:0:0:0:0:
256,192,166197,128,0,167256:0:0:0:0:
36,192,166374,128,0,167256:0:0:0:0:
402,192,166550,128,0,167256:0:0:0:0:
329,192,166639,1,0,0:0:0:0:
182,192,166727,1,0,0:0:0:0:
109,192,166815,1,0,0:0:0:0:
182,192,166903,1,0,0:0:0:0:
329,192,166991,1,0,0:0:0:0:
475,192,167080,1,0,0:0:0:0:
329,192,167168,1,0,0:0:0:0:
109,192,167256,128,0,167609:0:0:0:0:
475,192,167256,128,0,167609:0:0:0:0:
182,192,167256,1,0,0:0:0:0:
256,192,167609,1,0,0:0:0:0:
182,192,167609,128,0,168080:0:0:0:0:
402,192,167697,1,0,0:0:0:0:
329,192,167786,1,0,0:0:0:0:
256,192,167874,1,0,0:0:0:0:
36,192,167962,128,0,168668:0:0:0:0:
329,192,167962,1,0,0:0:0:0:
402,192,168050,1,0,0:0:0:0:
475,192,168139,1,0,0:0:0:0:
402,192,168227,1,0,0:0:0:0:
256,192,168315,1,0,0:0:0:0:
329,192,168315,128,0,168668:0:0:0:0:
475,192,168491,128,0,168668:0:0:0:0:
109,192,168668,128,0,169021:0:0:0:0:
402,192,168668,128,0,169021:0:0:0:0:
475,192,168844,1,0,0:0:0:0:
329,192,168933,1,0,0:0:0:0:
256,192,169021,128,0,169374:0:0:0:0:
182,192,169021,128,0,169727:0:0:0:0:
36,192,169197,1,0,0:0:0:0:
329,192,169374,1,0,0:0:0:0:
402,192,169550,1,0,0:0:0:0:
109,192,169727,128,0,170080:0:0:0:0:
475,192,169727,1,0,0:0:0:0:
329,192,169903,128,0,170080:0:0:0:0:
36,192,170080,128,0,170786:0:0:0:0:
402,192,170080,128,0,170786:0:0:0:0:
256,192,170080,128,0,170786:0:0:0:0:
182,192,170168,1,0,0:0:0:0:
329,192,170256,1,0,0:0:0:0:
475,192,170344,1,0,0:0:0:0:
329,192,170433,1,0,0:0:0:0:
182,192,170521,1,0,0:0:0:0:
109,192,170609,1,0,0:0:0:0:
182,192,170697,1,0,0:0:0:0:
329,192,170786,128,0,171491:0:0:0:0:
109,192,170786,128,0,171844:0:0:0:0:
475,192,171139,1,0,0:0:0:0:
402,192,171315,1,0,0:0:0:0:
256,192,171491,128,0,171844:0:0:0:0:
402,192,171844,1,0,0:0:0:0:
182,192,171844,128,0,172197:0:0:0:0:
475,192,172021,1,0,0:0:0:0:
329,192,172021,128,0,172197:0:0:0:0:
402,192,172197,128,0,172903:0:0:0:0:
36,192,172197,128,0,172903:0:0:0:0:
256,192,172197,128,0,172550:0:0:0:0:
329,192,172550,128,0,172903:0:0:0:0:
182,192,172786,128,0,172903:0:0:0:0:
256,192,172903,128,0,173256:0:0:0:0:
109,192,172903,128,0,173433:0:0:0:0:
475,192,172903,128,0,173609:0:0:0:0:
329,192,173256,128,0,173609:0:0:0:0:
182,192,173433,128,0,173786:0:0:0:0:
402,192,173609,128,0,173962:0:0:0:0:
109,192,173609,128,0,174315:0:0:0:0:
256,192,173786,128,0,174315:0:0:0:0:
475,192,174139,128,0,174315:0:0:0:0:
36,192,174139,128,0,174315:0:0:0:0:
402,192,174315,128,0,174668:0:0:0:0:
182,192,174315,128,0,174668:0:0:0:0:
36,192,174491,1,0,0:0:0:0:
256,192,174580,1,0,0:0:0:0:
329,192,174668,128,0,175021:0:0:0:0:
109,192,174668,128,0,175021:0:0:0:0:
475,192,174668,1,0,0:0:0:0:
182,192,174844,1,0,0:0:0:0:
256,192,175021,128,0,175727:0:0:0:0:
36,192,175021,128,0,175727:0:0:0:0:
475,192,175021,1,0,0:0:0:0:
402,192,175109,1,0,0:0:0:0:
329,192,175197,1,0,0:0:0:0:
402,192,175286,128,0,175727:0:0:0:0:
182,192,175286,1,0,0:0:0:0:
109,192,175374,1,0,0:0:0:0:
475,192,175462,1,0,0:0:0:0:
109,192,175550,1,0,0:0:0:0:
475,192,175639,1,0,0:0:0:0:
329,192,175727,128,0,177050:0:0:0:0:
182,192,175727,128,0,177139:0:0:0:0:
36,192,176433,128,0,177139:0:0:0:0:
256,192,176521,128,0,178550:0:0:0:0:
475,192,176609,128,0,176962:0:0:0:0:
475,192,177139,128,0,177668:0:0:0:0:
109,192,177227,128,0,178550:0:0:0:0:
329,192,177227,128,0,177756:0:0:0:0:
182,192,177315,128,0,177844:0:0:0:0:
402,192,177609,128,0,178550:0:0:0:0:
475,192,177844,1,0,0:0:0:0:
329,192,177933,1,0,0:0:0:0:
182,192,178021,1,0,0:0:0:0:
36,192,178109,1,0,0:0:0:0:
182,192,178197,1,0,0:0:0:0:
329,192,178286,1,0,0:0:0:0:
36,192,178550,128,0,179168:0:0:0:0:
182,192,178638,128,0,179168:0:0:0:0:
329,192,178727,128,0,178991:0:0:0:0:
475,192,178903,128,0,179874:0:0:0:0:
402,192,178991,128,0,179786:0:0:0:0:
329,192,179080,128,0,179697:0:0:0:0:
256,192,179168,128,0,179609:0:0:0:0:
182,192,179256,128,0,179521:0:0:0:0:
36,192,179256,128,0,179962:0:0:0:0:
182,192,179609,1,0,0:0:0:0:
256,192,179697,1,0,0:0:0:0:
329,192,179786,1,0,0:0:0:0:
402,192,179874,1,0,0:0:0:0:
182,192,179962,128,0,180668:0:0:0:0:
329,192,179962,128,0,180668:0:0:0:0:
475,192,179962,1,0,0:0:0:0:
36,192,180138,128,0,180315:0:0:0:0:
475,192,180227,128,0,180315:0:0:0:0:
109,192,180315,128,0,180491:0:0:0:0:
402,192,180403,128,0,180491:0:0:0:0:
256,192,180491,128,0,180580:0:0:0:0:
402,192,180580,128,0,180668:0:0:0:0:
36,192,180668,128,0,181374:0:0:0:0:
475,192,180668,128,0,181374:0:0:0:0:
109,192,180668,128,0,180756:0:0:0:0:
256,192,180756,128,0,180844:0:0:0:0:
182,192,180844,128,0,180933:0:0:0:0:
329,192,180933,128,0,181021:0:0:0:0:
256,192,181021,128,0,181109:0:0:0:0:
402,192,181109,128,0,181197:0:0:0:0:
182,192,181197,128,0,181374:0:0:0:0:
329,192,181197,128,0,181374:0:0:0:0:
256,192,181374,128,0,182080:0:0:0:0:
402,192,181374,128,0,182080:0:0:0:0:
109,192,181374,128,0,182080:0:0:0:0:
475,192,182080,128,0,182168:0:0:0:0:
329,192,182080,128,0,182786:0:0:0:0:
182,192,182080,128,0,182786:0:0:0:0:
36,192,182080,128,0,182168:0:0:0:0:
109,192,182168,128,0,182256:0:0:0:0:
402,192,182168,128,0,182256:0:0:0:0:
402,192,182433,128,0,182786:0:0:0:0:
109,192,182609,128,0,182786:0:0:0:0:
475,192,182786,128,0,183491:0:0:0:0:
36,192,182786,128,0,183491:0:0:0:0:
256,192,182786,128,0,183138:0:0:0:0:
182,192,183138,128,0,183315:0:0:0:0:
329,192,183315,128,0,183491:0:0:0:0:
109,192,183491,128,0,184197:0:0:0:0:
402,192,183491,128,0,184197:0:0:0:0:
182,192,183491,128,0,183668:0:0:0:0:
256,192,183668,128,0,183844:0:0:0:0:
329,192,183844,128,0,184021:0:0:0:0:
182,192,184197,128,0,184903:0:0:0:0:
329,192,184197,128,0,184903:0:0:0:0:
109,192,184903,128,0,185609:0:0:0:0:
256,192,184903,128,0,185609:0:0:0:0:
402,192,185609,128,0,186138:0:0:0:0:
36,192,185609,128,0,186138:0:0:0:0:
329,192,185609,128,0,185786:0:0:0:0:
182,192,185786,1,0,0:0:0:0:
256,192,185874,1,0,0:0:0:0:
109,192,185962,1,0,0:0:0:0:
475,192,185962,128,0,186315:0:0:0:0:
256,192,186138,1,0,0:0:0:0:
109,192,186138,128,0,186491:0:0:0:0:
182,192,186315,128,0,186668:0:0:0:0:
329,192,186315,128,0,186668:0:0:0:0:
256,192,186668,128,0,187021:0:0:0:0:
475,192,186668,128,0,187021:0:0:0:0:
402,192,187021,1,0,0:0:0:0:
109,192,187021,1,0,0:0:0:0:
182,192,187361,1,0,0:0:0:0:
329,192,187361,1,0,0:0:0:0:
109,192,187702,1,0,0:0:0:0:
402,192,187702,1,0,0:0:0:0:
182,192,188024,1,0,0:0:0:0:
329,192,188024,1,0,0:0:0:0:
109,192,188347,1,0,0:0:0:0:
402,192,188347,1,0,0:0:0:0:
329,192,188647,1,0,0:0:0:0:
182,192,188647,1,0,0:0:0:0:
109,192,188947,1,0,0:0:0:0:
402,192,188947,1,0,0:0:0:0:
329,192,189235,1,0,0:0:0:0:
182,192,189235,1,0,0:0:0:0:
36,192,189523,1,0,0:0:0:0:
475,192,189523,1,0,0:0:0:0:
109,192,189795,1,0,0:0:0:0:
402,192,189795,1,0,0:0:0:0:
36,192,190068,1,0,0:0:0:0:
475,192,190068,1,0,0:0:0:0:
402,192,190328,1,0,0:0:0:0:
109,192,190328,1,0,0:0:0:0:
475,192,190589,1,0,0:0:0:0:
36,192,190589,1,0,0:0:0:0:
109,192,190839,1,0,0:0:0:0:
402,192,190839,1,0,0:0:0:0:
182,192,190964,1,0,0:0:0:0:
329,192,190964,1,0,0:0:0:0:
36,192,191089,1,0,0:0:0:0:
475,192,191089,1,0,0:0:0:0:
329,192,191207,1,0,0:0:0:0:
182,192,191207,1,0,0:0:0:0:
109,192,191325,1,0,0:0:0:0:
402,192,191325,1,0,0:0:0:0:
182,192,191443,1,0,0:0:0:0:
329,192,191443,1,0,0:0:0:0:
36,192,191561,1,0,0:0:0:0:
475,192,191561,1,0,0:0:0:0:
109,192,191788,1,0,0:0:0:0:
402,192,191788,1,0,0:0:0:0:
182,192,192015,1,0,0:0:0:0:
329,192,192015,1,0,0:0:0:0:
402,192,192230,1,0,0:0:0:0:
109,192,192230,1,0,0:0:0:0:
182,192,192446,1,0,0:0:0:0:
329,192,192446,1,0,0:0:0:0:
402,192,192652,1,0,0:0:0:0:
109,192,192652,1,0,0:0:0:0:
329,192,192859,1,0,0:0:0:0:
182,192,192859,1,0,0:0:0:0:
402,192,193059,1,0,0:0:0:0:
109,192,193059,1,0,0:0:0:0:
475,192,193259,1,0,0:0:0:0:
36,192,193259,1,0,0:0:0:0:
182,192,193453,1,0,0:0:0:0:
329,192,193453,1,0,0:0:0:0:
36,192,193648,1,0,0:0:0:0:
475,192,193648,1,0,0:0:0:0:
329,192,193837,1,0,0:0:0:0:
182,192,193837,1,0,0:0:0:0:
109,192,194027,1,0,0:0:0:0:
402,192,194027,1,0,0:0:0:0:
182,192,194204,1,0,0:0:0:0:
329,192,194204,1,0,0:0:0:0:
402,192,194293,1,0,0:0:0:0:
109,192,194293,1,0,0:0:0:0:
329,192,194382,1,0,0:0:0:0:
182,192,194382,1,0,0:0:0:0:
475,192,194467,1,0,0:0:0:0:
36,192,194467,1,0,0:0:0:0:
182,192,194552,1,0,0:0:0:0:
329,192,194552,1,0,0:0:0:0:
36,192,194637,1,0,0:0:0:0:
475,192,194637,1,0,0:0:0:0:
109,192,194722,1,0,0:0:0:0:
402,192,194722,1,0,0:0:0:0:
182,192,194887,1,0,0:0:0:0:
329,192,194887,1,0,0:0:0:0:
475,192,195053,1,0,0:0:0:0:
36,192,195053,1,0,0:0:0:0:
329,192,195384,1,0,0:0:0:0:
182,192,195384,1,0,0:0:0:0:
402,192,195698,1,0,0:0:0:0:
109,192,195698,1,0,0:0:0:0:
36,192,196012,1,0,0:0:0:0:
475,192,196012,1,0,0:0:0:0:
109,192,196310,1,0,0:0:0:0:
402,192,196310,1,0,0:0:0:0:
36,192,196609,1,0,0:0:0:0:
475,192,196609,1,0,0:0:0:0:
109,192,196889,1,0,0:0:0:0:
402,192,196889,1,0,0:0:0:0:
182,192,197169,1,0,0:0:0:0:
475,192,197169,128,0,197442:0:0:0:0:
402,192,197260,128,0,197534:0:0:0:0:
329,192,197351,128,0,197625:0:0:0:0:
36,192,197442,128,0,197716:0:0:0:0:
109,192,197534,128,0,197808:0:0:0:0:
182,192,197625,128,0,197899:0:0:0:0:
256,192,197716,128,0,197990:0:0:0:0:
475,192,197808,128,0,198264:0:0:0:0:
402,192,197899,128,0,198264:0:0:0:0:
329,192,197990,128,0,198264:0:0:0:0:
256,192,198082,128,0,198264:0:0:0:0:
182,192,198173,128,0,198264:0:0:0:0:
109,192,198264,1,0,0:0:0:0:
36,192,198536,1,0,0:0:0:0:
256,192,198536,1,0,0:0:0:0:
329,192,198536,1,0,0:0:0:0:
475,192,198536,1,0,0:0:0:0:
182,192,198536,1,0,0:0:0:0:
182,192,198809,1,0,0:0:0:0:
109,192,198809,1,0,0:0:0:0:
329,192,198809,1,0,0:0:0:0:
402,192,198809,1,0,0:0:0:0:
475,192,198809,1,0,0:0:0:0:
36,192,198809,1,0,0:0:0:0:
256,192,199082,1,0,0:0:0:0:
109,192,199218,1,0,0:0:0:0:
402,192,199218,1,0,0:0:0:0:
36,192,199354,128,0,200444:0:0:0:0:
182,192,199354,128,0,199899:0:0:0:0:
329,192,199354,1,0,0:0:0:0:
475,192,199354,128,0,199626:0:0:0:0:
402,192,199763,128,0,199899:0:0:0:0:
329,192,199899,128,0,200717:0:0:0:0:
475,192,199899,128,0,200172:0:0:0:0:
256,192,200035,128,0,200172:0:0:0:0:
109,192,200172,128,0,200308:0:0:0:0:
256,192,200308,128,0,200444:0:0:0:0:
182,192,200444,128,0,201263:0:0:0:0:
475,192,200444,128,0,200990:0:0:0:0:
36,192,200717,128,0,200990:0:0:0:0:
402,192,200990,128,0,201535:0:0:0:0:
36,192,201535,128,0,201808:0:0:0:0:
475,192,201535,128,0,201808:0:0:0:0:
109,192,201808,128,0,202081:0:0:0:0:
256,192,201944,128,0,202217:0:0:0:0:
475,192,201944,128,0,202217:0:0:0:0:
182,192,202081,128,0,202354:0:0:0:0:
402,192,202081,128,0,202217:0:0:0:0:
329,192,202217,128,0,202626:0:0:0:0:
109,192,202217,128,0,202354:0:0:0:0:
256,192,202354,128,0,202490:0:0:0:0:
36,192,202490,128,0,203172:0:0:0:0:
402,192,202490,128,0,202626:0:0:0:0:
182,192,202626,128,0,203172:0:0:0:0:
475,192,202626,128,0,202899:0:0:0:0:
329,192,202899,128,0,203717:0:0:0:0:
475,192,203172,128,0,203717:0:0:0:0:
256,192,203172,128,0,203308:0:0:0:0:
36,192,203308,128,0,203444:0:0:0:0:
182,192,203376,128,0,203513:0:0:0:0:
109,192,203444,128,0,203717:0:0:0:0:
402,192,203444,128,0,203717:0:0:0:0:
256,192,203581,128,0,204808:0:0:0:0:
36,192,203717,128,0,204263:0:0:0:0:
182,192,203717,128,0,203990:0:0:0:0:
402,192,204126,128,0,204263:0:0:0:0:
109,192,204263,128,0,205354:0:0:0:0:
402,192,204399,128,0,204535:0:0:0:0:
329,192,204467,128,0,204604:0:0:0:0:
475,192,204535,128,0,204808:0:0:0:0:
329,192,204740,128,0,205081:0:0:0:0:
402,192,204808,128,0,205354:0:0:0:0:
182,192,204808,128,0,205354:0:0:0:0:
36,192,205081,128,0,205899:0:0:0:0:
329,192,205354,128,0,205899:0:0:0:0:
475,192,205354,128,0,205626:0:0:0:0:
182,192,205626,128,0,205899:0:0:0:0:
109,192,205899,128,0,206444:0:0:0:0:
475,192,205899,1,0,0:0:0:0:
402,192,205967,1,0,0:0:0:0:
256,192,206035,128,0,206581:0:0:0:0:
329,192,206035,1,0,0:0:0:0:
182,192,206104,1,0,0:0:0:0:
36,192,206172,1,0,0:0:0:0:
182,192,206240,1,0,0:0:0:0:
329,192,206308,1,0,0:0:0:0:
402,192,206376,1,0,0:0:0:0:
402,192,206444,128,0,206990:0:0:0:0:
475,192,206444,1,0,0:0:0:0:
329,192,206513,1,0,0:0:0:0:
109,192,206581,128,0,207126:0:0:0:0:
182,192,206581,1,0,0:0:0:0:
36,192,206649,1,0,0:0:0:0:
182,192,206717,1,0,0:0:0:0:
329,192,206785,1,0,0:0:0:0:
256,192,206854,128,0,207399:0:0:0:0:
475,192,206854,1,0,0:0:0:0:
329,192,206922,1,0,0:0:0:0:
475,192,206990,1,0,0:0:0:0:
402,192,207126,128,0,207672:0:0:0:0:
36,192,207126,128,0,207399:0:0:0:0:
182,192,207399,128,0,207535:0:0:0:0:
109,192,207535,128,0,208081:0:0:0:0:
402,192,207808,128,0,208081:0:0:0:0:
256,192,207808,128,0,208081:0:0:0:0:
182,192,208081,128,0,208626:0:0:0:0:
36,192,208081,128,0,209172:0:0:0:0:
475,192,208081,128,0,208354:0:0:0:0:
402,192,208490,128,0,208626:0:0:0:0:
329,192,208626,128,0,209444:0:0:0:0:
109,192,208808,128,0,208990:0:0:0:0:
256,192,208899,128,0,209081:0:0:0:0:
402,192,208990,128,0,209172:0:0:0:0:
109,192,209081,128,0,209172:0:0:0:0:
182,192,209172,128,0,209990:0:0:0:0:
475,192,209172,128,0,209717:0:0:0:0:
36,192,209444,128,0,209717:0:0:0:0:
402,192,209717,128,0,210263:0:0:0:0:
329,192,209808,1,0,0:0:0:0:
256,192,209899,1,0,0:0:0:0:
109,192,210081,1,0,0:0:0:0:
36,192,210172,1,0,0:0:0:0:
36,192,210263,128,0,210535:0:0:0:0:
182,192,210263,128,0,210399:0:0:0:0:
256,192,210467,1,0,0:0:0:0:
109,192,210535,128,0,210808:0:0:0:0:
329,192,210535,1,0,0:0:0:0:
402,192,210604,1,0,0:0:0:0:
256,192,210672,128,0,210944:0:0:0:0:
475,192,210672,1,0,0:0:0:0:
329,192,210740,1,0,0:0:0:0:
182,192,210808,128,0,211081:0:0:0:0:
402,192,210808,1,0,0:0:0:0:
475,192,210876,1,0,0:0:0:0:
329,192,210944,1,0,0:0:0:0:
402,192,211013,1,0,0:0:0:0:
329,192,211081,128,0,211354:0:0:0:0:
475,192,211081,1,0,0:0:0:0:
256,192,211149,1,0,0:0:0:0:
36,192,211217,128,0,211899:0:0:0:0:
402,192,211217,1,0,0:0:0:0:
475,192,211285,1,0,0:0:0:0:
182,192,211354,128,0,211899:0:0:0:0:
256,192,211354,1,0,0:0:0:0:
402,192,211490,1,0,0:0:0:0:
329,192,211626,128,0,212444:0:0:0:0:
475,192,211626,1,0,0:0:0:0:
475,192,211899,128,0,212444:0:0:0:0:
402,192,211967,1,0,0:0:0:0:
36,192,212035,128,0,212172:0:0:0:0:
256,192,212035,1,0,0:0:0:0:
182,192,212104,1,0,0:0:0:0:
256,192,212172,128,0,212308:0:0:0:0:
109,192,212172,1,0,0:0:0:0:
36,192,212240,1,0,0:0:0:0:
402,192,212308,128,0,212444:0:0:0:0:
182,192,212308,1,0,0:0:0:0:
109,192,212376,1,0,0:0:0:0:
182,192,212444,128,0,212990:0:0:0:0:
36,192,212444,128,0,213535:0:0:0:0:
256,192,212444,128,0,212717:0:0:0:0:
475,192,212899,128,0,212990:0:0:0:0:
329,192,212990,128,0,213808:0:0:0:0:
402,192,212990,128,0,213081:0:0:0:0:
109,192,212990,1,0,0:0:0:0:
109,192,213172,128,0,213263:0:0:0:0:
256,192,213263,128,0,213354:0:0:0:0:
109,192,213354,128,0,213444:0:0:0:0:
402,192,213444,128,0,213535:0:0:0:0:
182,192,213535,128,0,214354:0:0:0:0:
475,192,213535,128,0,213717:0:0:0:0:
256,192,213717,128,0,214081:0:0:0:0:
36,192,213808,128,0,214081:0:0:0:0:
402,192,214081,128,0,214626:0:0:0:0:
36,192,214626,128,0,214899:0:0:0:0:
475,192,214626,128,0,214899:0:0:0:0:
182,192,214763,128,0,215035:0:0:0:0:
329,192,214763,128,0,215035:0:0:0:0:
109,192,214899,128,0,215172:0:0:0:0:
402,192,214899,128,0,215172:0:0:0:0:
475,192,215172,128,0,215717:0:0:0:0:
329,192,215263,1,0,0:0:0:0:
256,192,215354,1,0,0:0:0:0:
182,192,215444,1,0,0:0:0:0:
109,192,215535,1,0,0:0:0:0:
36,192,215626,128,0,216444:0:0:0:0:
109,192,215717,128,0,216354:0:0:0:0:
182,192,215808,128,0,216263:0:0:0:0:
475,192,215899,128,0,216717:0:0:0:0:
402,192,215990,128,0,216626:0:0:0:0:
329,192,216081,128,0,216535:0:0:0:0:
256,192,216354,1,0,0:0:0:0:
182,192,216444,1,0,0:0:0:0:
109,192,216535,1,0,0:0:0:0:
36,192,216626,1,0,0:0:0:0:
182,192,216717,1,0,0:0:0:0:
329,192,216717,1,0,0:0:0:0:
109,192,216808,128,0,217338:0:0:0:0:
475,192,216808,128,0,217073:0:0:0:0:
402,192,217250,128,0,217338:0:0:0:0:
256,192,217338,128,0,217869:0:0:0:0:
475,192,217515,128,0,217604:0:0:0:0:
329,192,217604,128,0,217781:0:0:0:0:
109,192,217781,128,0,217869:0:0:0:0:
475,192,217869,128,0,218400:0:0:0:0:
402,192,217869,128,0,218135:0:0:0:0:
36,192,218135,128,0,218931:0:0:0:0:
182,192,218135,128,0,218400:0:0:0:0:
329,192,218400,128,0,218931:0:0:0:0:
402,192,218489,1,0,0:0:0:0:
256,192,218577,1,0,0:0:0:0:
182,192,218666,1,0,0:0:0:0:
475,192,218754,1,0,0:0:0:0:
402,192,218843,1,0,0:0:0:0:
182,192,218931,128,0,219330:0:0:0:0:
109,192,218998,1,0,0:0:0:0:
36,192,219064,128,0,219462:0:0:0:0:
256,192,219396,1,0,0:0:0:0:
329,192,219462,128,0,219861:0:0:0:0:
402,192,219529,1,0,0:0:0:0:
475,192,219595,128,0,219993:0:0:0:0:
256,192,219728,128,0,219816:0:0:0:0:
109,192,219816,128,0,219993:0:0:0:0:
182,192,219993,128,0,220392:0:0:0:0:
402,192,220060,1,0,0:0:0:0:
329,192,220126,128,0,220524:0:0:0:0:
109,192,220458,1,0,0:0:0:0:
36,192,220524,128,0,221055:0:0:0:0:
109,192,220591,1,0,0:0:0:0:
182,192,220657,128,0,221055:0:0:0:0:
256,192,220723,1,0,0:0:0:0:
329,192,220790,128,0,221055:0:0:0:0:
402,192,220856,1,0,0:0:0:0:
475,192,220923,128,0,221055:0:0:0:0:
109,192,221055,128,0,221586:0:0:0:0:
402,192,221055,128,0,221321:0:0:0:0:
402,192,221498,128,0,221586:0:0:0:0:
256,192,221586,128,0,222117:0:0:0:0:
402,192,221763,128,0,221852:0:0:0:0:
109,192,221852,128,0,222029:0:0:0:0:
36,192,222029,128,0,222117:0:0:0:0:
475,192,222117,128,0,222648:0:0:0:0:
182,192,222117,128,0,222383:0:0:0:0:
36,192,222383,128,0,223179:0:0:0:0:
329,192,222383,128,0,222648:0:0:0:0:
182,192,222648,128,0,223179:0:0:0:0:
402,192,222648,128,0,222914:0:0:0:0:
329,192,223179,128,0,223577:0:0:0:0:
256,192,223179,1,0,0:0:0:0:
402,192,223246,1,0,0:0:0:0:
182,192,223268,1,0,0:0:0:0:
475,192,223312,128,0,223710:0:0:0:0:
109,192,223356,1,0,0:0:0:0:
36,192,223445,1,0,0:0:0:0:
256,192,223644,1,0,0:0:0:0:
182,192,223710,128,0,224108:0:0:0:0:
109,192,223777,1,0,0:0:0:0:
36,192,223843,128,0,224241:0:0:0:0:
256,192,223976,1,0,0:0:0:0:
329,192,224064,1,0,0:0:0:0:
402,192,224153,1,0,0:0:0:0:
329,192,224241,128,0,224639:0:0:0:0:
475,192,224241,1,0,0:0:0:0:
109,192,224308,1,0,0:0:0:0:
182,192,224374,128,0,224772:0:0:0:0:
402,192,224706,1,0,0:0:0:0:
475,192,224772,128,0,225303:0:0:0:0:
402,192,224838,1,0,0:0:0:0:
329,192,224905,128,0,225303:0:0:0:0:
256,192,224971,1,0,0:0:0:0:
182,192,225038,128,0,225303:0:0:0:0:
109,192,225104,1,0,0:0:0:0:
36,192,225170,128,0,225303:0:0:0:0:
402,192,225303,128,0,225834:0:0:0:0:
109,192,225303,128,0,225834:0:0:0:0:
256,192,225303,128,0,225569:0:0:0:0:
36,192,225834,128,0,226365:0:0:0:0:
256,192,225834,128,0,226896:0:0:0:0:
475,192,225834,128,0,226365:0:0:0:0:
329,192,225834,128,0,225923:0:0:0:0:
329,192,226100,128,0,226188:0:0:0:0:
182,192,226188,128,0,226365:0:0:0:0:
402,192,226365,128,0,226631:0:0:0:0:
329,192,226365,128,0,226631:0:0:0:0:
109,192,226631,128,0,227427:0:0:0:0:
182,192,226631,128,0,226896:0:0:0:0:
402,192,226896,128,0,227427:0:0:0:0:
36,192,226896,128,0,227161:0:0:0:0:
475,192,226896,128,0,227161:0:0:0:0:
182,192,227427,1,0,0:0:0:0:
475,192,227427,1,0,0:0:0:0:
256,192,227515,1,0,0:0:0:0:
402,192,227515,1,0,0:0:0:0:
329,192,227604,1,0,0:0:0:0:
402,192,227692,1,0,0:0:0:0:
256,192,227692,1,0,0:0:0:0:
475,192,227781,1,0,0:0:0:0:
182,192,227781,1,0,0:0:0:0:
402,192,227869,1,0,0:0:0:0:
109,192,227869,1,0,0:0:0:0:
329,192,227958,1,0,0:0:0:0:
36,192,227958,1,0,0:0:0:0:
256,192,228046,1,0,0:0:0:0:
109,192,228046,1,0,0:0:0:0:
182,192,228135,1,0,0:0:0:0:
256,192,228223,1,0,0:0:0:0:
36,192,228223,1,0,0:0:0:0:
109,192,228312,1,0,0:0:0:0:
329,192,228312,1,0,0:0:0:0:
182,192,228400,1,0,0:0:0:0:
402,192,228400,1,0,0:0:0:0:
256,192,228489,1,0,0:0:0:0:
475,192,228489,1,0,0:0:0:0:
182,192,228577,1,0,0:0:0:0:
402,192,228577,1,0,0:0:0:0:
109,192,228666,1,0,0:0:0:0:
329,192,228666,1,0,0:0:0:0:
36,192,228754,1,0,0:0:0:0:
256,192,228754,1,0,0:0:0:0:
475,192,228754,1,0,0:0:0:0:
36,192,229020,128,0,229551:0:0:0:0:
256,192,229020,128,0,229551:0:0:0:0:
475,192,229020,128,0,229551:0:0:0:0:
402,192,229020,128,0,229108:0:0:0:0:
329,192,229108,128,0,229197:0:0:0:0:
109,192,229197,128,0,229285:0:0:0:0:
182,192,229285,128,0,229551:0:0:0:0:
109,192,229551,128,0,230082:0:0:0:0:
402,192,229551,128,0,230082:0:0:0:0:
329,192,229949,128,0,230480:0:0:0:0:
182,192,230082,128,0,230480:0:0:0:0:
36,192,230082,128,0,230613:0:0:0:0:
475,192,230082,128,0,230613:0:0:0:0:
256,192,230082,128,0,230347:0:0:0:0:
109,192,230347,128,0,230613:0:0:0:0:
402,192,230436,128,0,230613:0:0:0:0:
329,192,230613,128,0,231144:0:0:0:0:
182,192,230613,128,0,231144:0:0:0:0:
36,192,230878,128,0,231409:0:0:0:0:
475,192,230878,128,0,231409:0:0:0:0:
256,192,231011,128,0,231675:0:0:0:0:
109,192,231144,128,0,231675:0:0:0:0:
402,192,231144,128,0,231675:0:0:0:0:
36,192,231675,1,0,0:0:0:0:
329,192,231675,1,0,0:0:0:0:
109,192,231741,1,0,0:0:0:0:
402,192,231741,1,0,0:0:0:0:
182,192,231808,1,0,0:0:0:0:
475,192,231808,1,0,0:0:0:0:
36,192,231940,1,0,0:0:0:0:
329,192,231940,1,0,0:0:0:0:
109,192,232007,1,0,0:0:0:0:
402,192,232007,1,0,0:0:0:0:
182,192,232073,1,0,0:0:0:0:
475,192,232073,1,0,0:0:0:0:
402,192,232206,1,0,0:0:0:0:
182,192,232206,1,0,0:0:0:0:
329,192,232272,1,0,0:0:0:0:
109,192,232272,1,0,0:0:0:0:
256,192,232338,1,0,0:0:0:0:
36,192,232338,1,0,0:0:0:0:
182,192,232471,1,0,0:0:0:0:
329,192,232471,1,0,0:0:0:0:
256,192,232538,1,0,0:0:0:0:
402,192,232538,1,0,0:0:0:0:
329,192,232604,1,0,0:0:0:0:
475,192,232604,1,0,0:0:0:0:
36,192,232737,1,0,0:0:0:0:
475,192,232737,1,0,0:0:0:0:
402,192,232781,1,0,0:0:0:0:
109,192,232781,1,0,0:0:0:0:
329,192,232825,1,0,0:0:0:0:
182,192,232825,1,0,0:0:0:0:
256,192,232869,1,0,0:0:0:0:
182,192,232914,1,0,0:0:0:0:
329,192,232914,1,0,0:0:0:0:
109,192,232958,1,0,0:0:0:0:
402,192,232958,1,0,0:0:0:0:
36,192,233002,1,0,0:0:0:0:
475,192,233002,1,0,0:0:0:0:
36,192,233135,1,0,0:0:0:0:
475,192,233135,1,0,0:0:0:0:
109,192,233179,1,0,0:0:0:0:
402,192,233179,1,0,0:0:0:0:
182,192,233223,1,0,0:0:0:0:
329,192,233223,1,0,0:0:0:0:
256,192,233268,1,0,0:0:0:0:
109,192,233312,1,0,0:0:0:0:
402,192,233312,1,0,0:0:0:0:
182,192,233356,1,0,0:0:0:0:
329,192,233356,1,0,0:0:0:0:
256,192,233400,1,0,0:0:0:0:
475,192,233400,1,0,0:0:0:0:
36,192,233400,1,0,0:0:0:0:
109,192,233533,1,0,0:0:0:0:
402,192,233533,1,0,0:0:0:0:
182,192,233577,1,0,0:0:0:0:
329,192,233577,1,0,0:0:0:0:
256,192,233622,1,0,0:0:0:0:
182,192,233666,1,0,0:0:0:0:
329,192,233666,1,0,0:0:0:0:
109,192,233710,1,0,0:0:0:0:
402,192,233710,1,0,0:0:0:0:
36,192,233754,1,0,0:0:0:0:
475,192,233754,1,0,0:0:0:0:
109,192,233799,128,0,236452:0:0:0:0:
402,192,233799,128,0,236452:0:0:0:0:
256,192,234330,128,0,234861:0:0:0:0:
256,192,235429,128,0,235998:0:0:0:0:
109,192,236604,128,0,237210:0:0:0:0:
402,192,236604,128,0,237210:0:0:0:0:
256,192,236604,128,0,237210:0:0:0:0:
109,192,237851,128,0,238493:0:0:0:0:
256,192,238493,128,0,239163:0:0:0:0:
182,192,239163,128,0,239833:0:0:0:0:
475,192,239833,128,0,240555:0:0:0:0:
36,192,240555,128,0,241278:0:0:0:0:
256,192,241278,128,0,242057:0:0:0:0:
109,192,242057,128,0,242926:0:0:0:0:
402,192,242926,1,0,0:0:0:0:
182,192,243893,1,0,0:0:0:0:
329,192,243893,1,0,0:0:0:0:
36,192,245030,1,0,0:0:0:0:
475,192,245030,1,0,0:0:0:0:
109,192,261630,132,0,265658:0:0:0:0:
402,192,261630,128,0,265658:0:0:0:0:
256,192,264230,1,0,0:0:0:0:
256,192,265658,1,0,0:0:0:0:
256,192,266991,1,0,0:0:0:0:
256,192,267616,1,0,0:0:0:0:
256,192,268241,1,0,0:0:0:0:
256,192,269417,1,0,0:0:0:0:
256,192,270507,1,0,0:0:0:0:
256,192,271523,1,0,0:0:0:0:
256,192,272014,1,0,0:0:0:0:
256,192,272506,1,0,0:0:0:0:
256,192,273443,1,0,0:0:0:0:
256,192,274312,1,0,0:0:0:0:
256,192,275157,1,0,0:0:0:0:
256,192,275557,1,0,0:0:0:0:
256,192,275957,1,0,0:0:0:0:
256,192,276726,1,0,0:0:0:0:
256,192,277466,1,0,0:0:0:0:
256,192,278180,1,0,0:0:0:0:
256,192,278520,1,0,0:0:0:0:
256,192,278861,1,0,0:0:0:0:
256,192,279527,1,0,0:0:0:0:
256,192,280158,1,0,0:0:0:0:
256,192,280770,1,0,0:0:0:0:
256,192,281067,1,0,0:0:0:0:
256,192,281364,1,0,0:0:0:0:
256,192,281940,1,0,0:0:0:0:
256,192,282490,1,0,0:0:0:0:
256,192,283030,1,0,0:0:0:0:
256,192,283295,1,0,0:0:0:0:
256,192,283560,1,0,0:0:0:0:
256,192,284077,1,0,0:0:0:0:
256,192,284568,1,0,0:0:0:0:
256,192,285044,1,0,0:0:0:0:
256,192,285276,1,0,0:0:0:0:
256,192,285509,1,0,0:0:0:0:
256,192,285967,1,0,0:0:0:0:
256,192,286418,1,0,0:0:0:0:
256,192,286859,1,0,0:0:0:0:
256,192,287073,1,0,0:0:0:0:
256,192,287287,1,0,0:0:0:0:
256,192,287700,1,0,0:0:0:0:
256,192,288105,1,0,0:0:0:0:
256,192,288502,1,0,0:0:0:0:
256,192,288894,1,0,0:0:0:0:
256,192,289281,1,0,0:0:0:0:
256,192,289660,1,0,0:0:0:0:
256,192,290030,1,0,0:0:0:0:
256,192,290393,1,0,0:0:0:0:
256,192,290745,1,0,0:0:0:0:
256,192,291091,1,0,0:0:0:0:
256,192,291431,1,0,0:0:0:0:
256,192,291764,1,0,0:0:0:0:
256,192,292090,1,0,0:0:0:0:
256,192,292409,1,0,0:0:0:0:
256,192,292721,1,0,0:0:0:0:
256,192,293028,1,0,0:0:0:0:
256,192,293328,1,0,0:0:0:0:
256,192,293617,1,0,0:0:0:0:
256,192,293907,1,0,0:0:0:0:
256,192,294190,1,0,0:0:0:0:
256,192,294473,1,0,0:0:0:0:
256,192,294753,1,0,0:0:0:0:
256,192,295033,1,0,0:0:0:0:
256,192,295308,1,0,0:0:0:0:
256,192,295583,1,0,0:0:0:0:
256,192,295858,1,0,0:0:0:0:
256,192,296133,1,0,0:0:0:0:
256,192,296406,1,0,0:0:0:0:
256,192,296680,1,0,0:0:0:0:
256,192,296954,1,0,0:0:0:0:
256,192,297228,1,0,0:0:0:0:
256,192,297500,1,0,0:0:0:0:
182,192,297773,1,0,0:0:0:0:
329,192,297773,1,0,0:0:0:0:
182,192,298046,1,0,0:0:0:0:
329,192,298046,1,0,0:0:0:0:
182,192,298318,1,0,0:0:0:0:
329,192,298318,1,0,0:0:0:0:
182,192,298591,1,0,0:0:0:0:
329,192,298591,1,0,0:0:0:0:
329,192,298864,1,0,0:0:0:0:
182,192,298864,1,0,0:0:0:0:
182,192,299137,1,0,0:0:0:0:
329,192,299137,1,0,0:0:0:0:
109,192,299409,1,0,0:0:0:0:
256,192,299409,1,0,0:0:0:0:
402,192,299409,1,0,0:0:0:0:
109,192,299682,1,0,0:0:0:0:
256,192,299682,1,0,0:0:0:0:
402,192,299682,1,0,0:0:0:0:
109,192,299955,1,0,0:0:0:0:
256,192,299955,1,0,0:0:0:0:
402,192,299955,1,0,0:0:0:0:
109,192,300228,1,0,0:0:0:0:
256,192,300228,1,0,0:0:0:0:
402,192,300228,1,0,0:0:0:0:
36,192,300500,1,0,0:0:0:0:
182,192,300500,1,0,0:0:0:0:
329,192,300500,1,0,0:0:0:0:
475,192,300500,1,0,0:0:0:0:
36,192,300773,1,0,0:0:0:0:
329,192,300773,1,0,0:0:0:0:
182,192,300773,1,0,0:0:0:0:
475,192,300773,1,0,0:0:0:0:
182,192,301046,1,0,0:0:0:0:
329,192,301046,1,0,0:0:0:0:
475,192,301046,1,0,0:0:0:0:
36,192,301046,1,0,0:0:0:0:
182,192,301318,1,0,0:0:0:0:
475,192,301318,1,0,0:0:0:0:
36,192,301318,1,0,0:0:0:0:
329,192,301318,1,0,0:0:0:0:
36,192,301591,1,0,0:0:0:0:
182,192,301728,1,0,0:0:0:0:
329,192,301864,1,0,0:0:0:0:
475,192,302000,1,0,0:0:0:0:
36,192,302137,1,0,0:0:0:0:
182,192,302273,1,0,0:0:0:0:
329,192,302409,1,0,0:0:0:0:
475,192,302546,1,0,0:0:0:0:
36,192,302682,1,0,0:0:0:0:
182,192,302818,1,0,0:0:0:0:
329,192,302955,1,0,0:0:0:0:
475,192,303091,1,0,0:0:0:0:
329,192,303159,1,0,0:0:0:0:
182,192,303228,1,0,0:0:0:0:
36,192,303296,1,0,0:0:0:0:
475,192,303364,1,0,0:0:0:0:
329,192,303432,1,0,0:0:0:0:
182,192,303500,1,0,0:0:0:0:
36,192,303568,1,0,0:0:0:0:
475,192,303637,1,0,0:0:0:0:
329,192,303705,1,0,0:0:0:0:
182,192,303773,1,0,0:0:0:0:
109,192,304591,128,0,304864:0:0:0:0:
402,192,304591,128,0,304864:0:0:0:0:
36,192,304864,128,0,305409:0:0:0:0:
182,192,304864,128,0,305409:0:0:0:0:
256,192,304864,128,0,305409:0:0:0:0:
329,192,304864,128,0,305409:0:0:0:0:
475,192,304864,128,0,305409:0:0:0:0:
109,192,305409,128,0,305954:0:0:0:0:
402,192,305409,1,0,0:0:0:0:
475,192,305772,1,0,0:0:0:0:
256,192,305772,1,0,0:0:0:0:
182,192,305954,128,0,306499:0:0:0:0:
329,192,305954,1,0,0:0:0:0:
36,192,305954,1,0,0:0:0:0:
475,192,306090,1,0,0:0:0:0:
109,192,306090,1,0,0:0:0:0:
256,192,306227,1,0,0:0:0:0:
36,192,306227,1,0,0:0:0:0:
402,192,306363,1,0,0:0:0:0:
109,192,306363,1,0,0:0:0:0:
36,192,306499,128,0,306772:0:0:0:0:
256,192,306499,1,0,0:0:0:0:
475,192,306499,1,0,0:0:0:0:
182,192,306772,128,0,306909:0:0:0:0:
402,192,306772,1,0,0:0:0:0:
256,192,306772,1,0,0:0:0:0:
36,192,306909,128,0,307045:0:0:0:0:
109,192,307045,128,0,307318:0:0:0:0:
256,192,307045,1,0,0:0:0:0:
402,192,307045,1,0,0:0:0:0:
329,192,307249,1,0,0:0:0:0:
182,192,307318,128,0,307454:0:0:0:0:
475,192,307318,1,0,0:0:0:0:
109,192,307454,128,0,307590:0:0:0:0:
402,192,307454,1,0,0:0:0:0:
256,192,307454,1,0,0:0:0:0:
329,192,307590,1,0,0:0:0:0:
36,192,307590,128,0,307863:0:0:0:0:
182,192,307590,1,0,0:0:0:0:
256,192,307727,1,0,0:0:0:0:
109,192,307727,1,0,0:0:0:0:
475,192,307863,1,0,0:0:0:0:
182,192,307863,128,0,307999:0:0:0:0:
329,192,307863,1,0,0:0:0:0:
256,192,307999,128,0,308136:0:0:0:0:
402,192,307999,1,0,0:0:0:0:
109,192,307999,1,0,0:0:0:0:
36,192,308136,128,0,308272:0:0:0:0:
475,192,308136,1,0,0:0:0:0:
329,192,308136,1,0,0:0:0:0:
109,192,308272,128,0,308409:0:0:0:0:
402,192,308272,1,0,0:0:0:0:
182,192,308272,1,0,0:0:0:0:
256,192,308409,128,0,308545:0:0:0:0:
475,192,308409,1,0,0:0:0:0:
329,192,308409,1,0,0:0:0:0:
36,192,308545,128,0,308681:0:0:0:0:
402,192,308545,1,0,0:0:0:0:
182,192,308545,1,0,0:0:0:0:
182,192,308681,128,0,308954:0:0:0:0:
329,192,308681,1,0,0:0:0:0:
402,192,308818,1,0,0:0:0:0:
109,192,308818,1,0,0:0:0:0:
256,192,308954,128,0,309227:0:0:0:0:
475,192,308954,1,0,0:0:0:0:
36,192,308954,1,0,0:0:0:0:
109,192,309090,1,0,0:0:0:0:
402,192,309090,1,0,0:0:0:0:
36,192,309227,128,0,309499:0:0:0:0:
329,192,309227,1,0,0:0:0:0:
182,192,309363,128,0,309499:0:0:0:0:
475,192,309363,1,0,0:0:0:0:
329,192,309499,1,0,0:0:0:0:
256,192,309499,128,0,309772:0:0:0:0:
109,192,309636,128,0,309772:0:0:0:0:
475,192,309636,1,0,0:0:0:0:
36,192,309772,128,0,310318:0:0:0:0:
329,192,309772,1,0,0:0:0:0:
402,192,309772,1,0,0:0:0:0:
182,192,310318,128,0,310863:0:0:0:0:
475,192,310318,1,0,0:0:0:0:
329,192,310318,1,0,0:0:0:0:
329,192,310590,1,0,0:0:0:0:
36,192,310590,1,0,0:0:0:0:
475,192,310727,1,0,0:0:0:0:
109,192,310727,1,0,0:0:0:0:
36,192,310863,128,0,311136:0:0:0:0:
256,192,310863,1,0,0:0:0:0:
402,192,310863,1,0,0:0:0:0:
256,192,311136,128,0,311272:0:0:0:0:
475,192,311136,1,0,0:0:0:0:
182,192,311136,1,0,0:0:0:0:
109,192,311272,128,0,311409:0:0:0:0:
329,192,311272,1,0,0:0:0:0:
182,192,311409,128,0,311681:0:0:0:0:
475,192,311409,1,0,0:0:0:0:
402,192,311409,1,0,0:0:0:0:
36,192,311409,1,0,0:0:0:0:
256,192,311681,128,0,311818:0:0:0:0:
475,192,311681,1,0,0:0:0:0:
36,192,311681,1,0,0:0:0:0:
109,192,311818,128,0,311954:0:0:0:0:
402,192,311818,1,0,0:0:0:0:
36,192,311954,1,0,0:0:0:0:
256,192,311954,1,0,0:0:0:0:
475,192,311954,1,0,0:0:0:0:
109,192,312045,1,0,0:0:0:0:
329,192,312045,1,0,0:0:0:0:
182,192,312136,1,0,0:0:0:0:
402,192,312136,1,0,0:0:0:0:
256,192,312227,1,0,0:0:0:0:
475,192,312227,1,0,0:0:0:0:
182,192,312318,1,0,0:0:0:0:
402,192,312318,1,0,0:0:0:0:
109,192,312409,1,0,0:0:0:0:
329,192,312409,1,0,0:0:0:0:
36,192,312499,1,0,0:0:0:0:
256,192,312499,1,0,0:0:0:0:
109,192,312590,1,0,0:0:0:0:
329,192,312590,1,0,0:0:0:0:
182,192,312681,1,0,0:0:0:0:
402,192,312681,1,0,0:0:0:0:
256,192,312772,1,0,0:0:0:0:
475,192,312772,1,0,0:0:0:0:
182,192,312863,1,0,0:0:0:0:
402,192,312863,1,0,0:0:0:0:
109,192,312954,1,0,0:0:0:0:
329,192,312954,1,0,0:0:0:0:
36,192,313045,1,0,0:0:0:0:
256,192,313045,1,0,0:0:0:0:
475,192,313045,1,0,0:0:0:0:
402,192,313136,1,0,0:0:0:0:
109,192,313136,1,0,0:0:0:0:
329,192,313227,1,0,0:0:0:0:
182,192,313227,128,0,313318:0:0:0:0:
256,192,313318,128,0,313409:0:0:0:0:
182,192,313409,1,0,0:0:0:0:
329,192,313409,128,0,313499:0:0:0:0:
109,192,313499,1,0,0:0:0:0:
402,192,313499,1,0,0:0:0:0:
36,192,313590,1,0,0:0:0:0:
475,192,313590,128,0,313681:0:0:0:0:
402,192,313681,128,0,313772:0:0:0:0:
109,192,313681,1,0,0:0:0:0:
182,192,313772,1,0,0:0:0:0:
329,192,313772,1,0,0:0:0:0:
256,192,313863,128,0,313954:0:0:0:0:
182,192,313954,128,0,314045:0:0:0:0:
329,192,313954,128,0,314045:0:0:0:0:
109,192,314045,128,0,314136:0:0:0:0:
402,192,314045,128,0,314136:0:0:0:0:
36,192,314136,128,0,314681:0:0:0:0:
475,192,314136,1,0,0:0:0:0:
109,192,314681,128,0,315227:0:0:0:0:
256,192,314681,1,0,0:0:0:0:
402,192,314681,1,0,0:0:0:0:
475,192,314681,1,0,0:0:0:0:
182,192,314954,1,0,0:0:0:0:
475,192,314954,1,0,0:0:0:0:
402,192,315090,1,0,0:0:0:0:
256,192,315090,1,0,0:0:0:0:
36,192,315227,128,0,315499:0:0:0:0:
475,192,315227,1,0,0:0:0:0:
182,192,315227,1,0,0:0:0:0:
329,192,315227,1,0,0:0:0:0:
402,192,315499,1,0,0:0:0:0:
182,192,315499,128,0,315636:0:0:0:0:
109,192,315636,128,0,315772:0:0:0:0:
329,192,315636,1,0,0:0:0:0:
182,192,315772,128,0,316318:0:0:0:0:
256,192,315772,1,0,0:0:0:0:
475,192,315772,1,0,0:0:0:0:
36,192,315772,1,0,0:0:0:0:
256,192,316045,1,0,0:0:0:0:
36,192,316045,1,0,0:0:0:0:
475,192,316181,1,0,0:0:0:0:
329,192,316181,1,0,0:0:0:0:
36,192,316318,128,0,316590:0:0:0:0:
402,192,316318,1,0,0:0:0:0:
256,192,316318,1,0,0:0:0:0:
475,192,316454,1,0,0:0:0:0:
329,192,316454,1,0,0:0:0:0:
109,192,316590,128,0,316727:0:0:0:0:
475,192,316590,1,0,0:0:0:0:
329,192,316590,1,0,0:0:0:0:
402,192,316659,1,0,0:0:0:0:
256,192,316659,1,0,0:0:0:0:
182,192,316727,128,0,316863:0:0:0:0:
329,192,316727,1,0,0:0:0:0:
475,192,316795,1,0,0:0:0:0:
36,192,316863,128,0,317136:0:0:0:0:
329,192,316863,1,0,0:0:0:0:
182,192,316931,1,0,0:0:0:0:
402,192,316999,1,0,0:0:0:0:
256,192,316999,1,0,0:0:0:0:
182,192,317136,128,0,317272:0:0:0:0:
329,192,317136,1,0,0:0:0:0:
475,192,317136,1,0,0:0:0:0:
109,192,317272,128,0,317409:0:0:0:0:
402,192,317272,1,0,0:0:0:0:
475,192,317409,1,0,0:0:0:0:
36,192,317409,128,0,317545:0:0:0:0:
256,192,317409,1,0,0:0:0:0:
256,192,317545,128,0,317681:0:0:0:0:
109,192,317681,128,0,317954:0:0:0:0:
329,192,317681,1,0,0:0:0:0:
475,192,317681,1,0,0:0:0:0:
36,192,317954,128,0,318090:0:0:0:0:
475,192,317954,1,0,0:0:0:0:
256,192,317954,1,0,0:0:0:0:
402,192,318022,1,0,0:0:0:0:
182,192,318090,128,0,318227:0:0:0:0:
329,192,318090,1,0,0:0:0:0:
402,192,318159,1,0,0:0:0:0:
36,192,318227,128,0,318363:0:0:0:0:
329,192,318227,1,0,0:0:0:0:
475,192,318227,1,0,0:0:0:0:
256,192,318295,1,0,0:0:0:0:
109,192,318363,128,0,318499:0:0:0:0:
329,192,318363,1,0,0:0:0:0:
256,192,318431,1,0,0:0:0:0:
36,192,318499,128,0,319045:0:0:0:0:
182,192,318499,128,0,319045:0:0:0:0:
475,192,318499,1,0,0:0:0:0:
402,192,318499,1,0,0:0:0:0:
256,192,318636,1,0,0:0:0:0:
475,192,318636,1,0,0:0:0:0:
329,192,318772,1,0,0:0:0:0:
475,192,318909,1,0,0:0:0:0:
256,192,318909,1,0,0:0:0:0:
109,192,319045,128,0,319590:0:0:0:0:
402,192,319045,128,0,319590:0:0:0:0:
329,192,319181,1,0,0:0:0:0:
475,192,319181,1,0,0:0:0:0:
182,192,319318,1,0,0:0:0:0:
36,192,319318,1,0,0:0:0:0:
329,192,319454,1,0,0:0:0:0:
475,192,319454,1,0,0:0:0:0:
182,192,319590,128,0,319863:0:0:0:0:
36,192,319590,1,0,0:0:0:0:
475,192,319590,1,0,0:0:0:0:
256,192,319590,1,0,0:0:0:0:
329,192,319772,1,0,0:0:0:0:
475,192,319772,1,0,0:0:0:0:
36,192,319863,128,0,319999:0:0:0:0:
256,192,319863,1,0,0:0:0:0:
402,192,319954,1,0,0:0:0:0:
182,192,319954,1,0,0:0:0:0:
109,192,319999,128,0,320136:0:0:0:0:
36,192,320136,128,0,320681:0:0:0:0:
256,192,320136,1,0,0:0:0:0:
475,192,320136,1,0,0:0:0:0:
329,192,320318,1,0,0:0:0:0:
109,192,320318,1,0,0:0:0:0:
402,192,320409,1,0,0:0:0:0:
182,192,320409,1,0,0:0:0:0:
109,192,320590,1,0,0:0:0:0:
402,192,320590,1,0,0:0:0:0:
182,192,320681,128,0,320996:0:0:0:0:
329,192,320681,1,0,0:0:0:0:
475,192,320681,1,0,0:0:0:0:
256,192,320786,1,0,0:0:0:0:
402,192,320786,1,0,0:0:0:0:
329,192,320891,1,0,0:0:0:0:
475,192,320891,1,0,0:0:0:0:
36,192,320996,128,0,321312:0:0:0:0:
402,192,320996,1,0,0:0:0:0:
109,192,320996,1,0,0:0:0:0:
329,192,321102,1,0,0:0:0:0:
475,192,321102,1,0,0:0:0:0:
256,192,321207,1,0,0:0:0:0:
402,192,321207,1,0,0:0:0:0:
182,192,321312,128,0,321786:0:0:0:0:
475,192,321312,1,0,0:0:0:0:
329,192,321312,1,0,0:0:0:0:
402,192,321417,1,0,0:0:0:0:
256,192,321417,1,0,0:0:0:0:
329,192,321523,1,0,0:0:0:0:
109,192,321523,1,0,0:0:0:0:
256,192,321628,1,0,0:0:0:0:
36,192,321628,1,0,0:0:0:0:
475,192,321733,1,0,0:0:0:0:
329,192,321733,1,0,0:0:0:0:
109,192,321786,128,0,321944:0:0:0:0:
402,192,321838,1,0,0:0:0:0:
256,192,321838,1,0,0:0:0:0:
36,192,321944,128,0,322277:0:0:0:0:
329,192,321944,1,0,0:0:0:0:
475,192,321944,1,0,0:0:0:0:
182,192,321944,1,0,0:0:0:0:
402,192,322166,1,0,0:0:0:0:
256,192,322166,1,0,0:0:0:0:
182,192,322277,128,0,322610:0:0:0:0:
109,192,322610,128,0,322777:0:0:0:0:
329,192,322610,1,0,0:0:0:0:
475,192,322610,1,0,0:0:0:0:
402,192,322832,1,0,0:0:0:0:
256,192,322832,1,0,0:0:0:0:
36,192,322944,128,0,323277:0:0:0:0:
329,192,322944,1,0,0:0:0:0:
475,192,322944,1,0,0:0:0:0:
182,192,322944,1,0,0:0:0:0:
256,192,323055,1,0,0:0:0:0:
402,192,323055,1,0,0:0:0:0:
329,192,323166,1,0,0:0:0:0:
475,192,323166,1,0,0:0:0:0:
182,192,323277,128,0,323982:0:0:0:0:
402,192,323277,1,0,0:0:0:0:
256,192,323277,1,0,0:0:0:0:
329,192,323394,1,0,0:0:0:0:
109,192,323394,1,0,0:0:0:0:
475,192,323512,1,0,0:0:0:0:
36,192,323512,1,0,0:0:0:0:
256,192,323629,1,0,0:0:0:0:
109,192,323629,1,0,0:0:0:0:
475,192,323747,1,0,0:0:0:0:
402,192,323747,1,0,0:0:0:0:
329,192,323865,128,0,324571:0:0:0:0:
109,192,323982,128,0,324688:0:0:0:0:
402,192,324571,128,0,324924:0:0:0:0:
182,192,324688,128,0,325041:0:0:0:0:
256,192,324924,1,0,0:0:0:0:
36,192,325041,128,0,325218:0:0:0:0:
475,192,325041,1,0,0:0:0:0:
329,192,325159,1,0,0:0:0:0:
109,192,325218,128,0,325394:0:0:0:0:
256,192,325277,1,0,0:0:0:0:
36,192,325394,128,0,325571:0:0:0:0:
475,192,325394,1,0,0:0:0:0:
329,192,325394,1,0,0:0:0:0:
256,192,325571,1,0,0:0:0:0:
402,192,325571,1,0,0:0:0:0:
36,192,325747,128,0,325924:0:0:0:0:
329,192,325747,1,0,0:0:0:0:
182,192,325747,1,0,0:0:0:0:
109,192,325924,128,0,326100:0:0:0:0:
256,192,325924,1,0,0:0:0:0:
402,192,325924,1,0,0:0:0:0:
182,192,326100,128,0,326453:0:0:0:0:
329,192,326100,1,0,0:0:0:0:
475,192,326100,1,0,0:0:0:0:
402,192,326277,1,0,0:0:0:0:
256,192,326277,1,0,0:0:0:0:
36,192,326453,128,0,326806:0:0:0:0:
329,192,326453,1,0,0:0:0:0:
475,192,326453,1,0,0:0:0:0:
256,192,326629,1,0,0:0:0:0:
109,192,326629,1,0,0:0:0:0:
329,192,326806,1,0,0:0:0:0:
182,192,326806,128,0,326982:0:0:0:0:
475,192,326806,1,0,0:0:0:0:
256,192,326982,128,0,327159:0:0:0:0:
109,192,326982,1,0,0:0:0:0:
402,192,326982,1,0,0:0:0:0:
402,192,327159,128,0,327512:0:0:0:0:
36,192,327159,128,0,327335:0:0:0:0:
182,192,327335,128,0,327512:0:0:0:0:
329,192,327335,1,0,0:0:0:0:
475,192,327512,1,0,0:0:0:0:
36,192,327512,128,0,327865:0:0:0:0:
256,192,327512,1,0,0:0:0:0:
109,192,327688,128,0,327865:0:0:0:0:
329,192,327688,1,0,0:0:0:0:
475,192,327777,1,0,0:0:0:0:
182,192,327865,128,0,328218:0:0:0:0:
256,192,327865,1,0,0:0:0:0:
109,192,328041,128,0,328218:0:0:0:0:
329,192,328041,1,0,0:0:0:0:
475,192,328041,1,0,0:0:0:0:
36,192,328218,128,0,328571:0:0:0:0:
402,192,328218,1,0,0:0:0:0:
256,192,328218,1,0,0:0:0:0:
182,192,328394,128,0,328571:0:0:0:0:
402,192,328394,1,0,0:0:0:0:
475,192,328482,1,0,0:0:0:0:
256,192,328571,128,0,328924:0:0:0:0:
329,192,328571,1,0,0:0:0:0:
109,192,328747,128,0,328924:0:0:0:0:
402,192,328747,1,0,0:0:0:0:
475,192,328924,1,0,0:0:0:0:
36,192,328924,1,0,0:0:0:0:
182,192,328924,128,0,329629:0:0:0:0:
402,192,329041,1,0,0:0:0:0:
109,192,329041,1,0,0:0:0:0:
329,192,329159,1,0,0:0:0:0:
256,192,329159,1,0,0:0:0:0:
475,192,329277,1,0,0:0:0:0:
109,192,329277,1,0,0:0:0:0:
256,192,329394,1,0,0:0:0:0:
36,192,329394,1,0,0:0:0:0:
402,192,329512,1,0,0:0:0:0:
109,192,329512,1,0,0:0:0:0:
36,192,329629,128,0,330335:0:0:0:0:
329,192,329629,1,0,0:0:0:0:
475,192,329629,1,0,0:0:0:0:
402,192,329747,1,0,0:0:0:0:
256,192,329865,1,0,0:0:0:0:
109,192,329865,1,0,0:0:0:0:
329,192,329982,1,0,0:0:0:0:
182,192,329982,1,0,0:0:0:0:
256,192,330100,1,0,0:0:0:0:
475,192,330100,1,0,0:0:0:0:
182,192,330218,1,0,0:0:0:0:
402,192,330218,1,0,0:0:0:0:
329,192,330335,128,0,330688:0:0:0:0:
475,192,330335,128,0,331041:0:0:0:0:
109,192,330335,1,0,0:0:0:0:
256,192,330453,1,0,0:0:0:0:
182,192,330571,1,0,0:0:0:0:
109,192,330688,128,0,331041:0:0:0:0:
36,192,330806,1,0,0:0:0:0:
182,192,330924,1,0,0:0:0:0:
256,192,331041,128,0,331747:0:0:0:0:
329,192,331041,128,0,331747:0:0:0:0:
182,192,331159,1,0,0:0:0:0:
36,192,331277,1,0,0:0:0:0:
109,192,331394,1,0,0:0:0:0:
475,192,331394,1,0,0:0:0:0:
402,192,331512,1,0,0:0:0:0:
109,192,331629,1,0,0:0:0:0:
36,192,331747,128,0,332453:0:0:0:0:
182,192,331747,128,0,332453:0:0:0:0:
475,192,331747,128,0,332100:0:0:0:0:
402,192,331747,1,0,0:0:0:0:
329,192,331865,1,0,0:0:0:0:
256,192,331982,1,0,0:0:0:0:
402,192,332100,128,0,332453:0:0:0:0:
109,192,332100,1,0,0:0:0:0:
256,192,332218,1,0,0:0:0:0:
329,192,332335,1,0,0:0:0:0:
109,192,332453,128,0,332806:0:0:0:0:
256,192,332453,128,0,332806:0:0:0:0:
475,192,332453,128,0,333159:0:0:0:0:
182,192,332806,128,0,332982:0:0:0:0:
329,192,332806,128,0,332982:0:0:0:0:
256,192,332982,128,0,333159:0:0:0:0:
402,192,332982,128,0,333159:0:0:0:0:
36,192,333159,128,0,334571:0:0:0:0:
329,192,333159,128,0,333865:0:0:0:0:
109,192,333277,1,0,0:0:0:0:
182,192,333394,1,0,0:0:0:0:
256,192,333512,128,0,333865:0:0:0:0:
182,192,333629,1,0,0:0:0:0:
402,192,333747,1,0,0:0:0:0:
109,192,333865,128,0,334100:0:0:0:0:
475,192,333865,128,0,334218:0:0:0:0:
182,192,334100,128,0,334335:0:0:0:0:
402,192,334100,1,0,0:0:0:0:
329,192,334218,128,0,334571:0:0:0:0:
256,192,334335,128,0,334571:0:0:0:0:
475,192,334335,128,0,334571:0:0:0:0:
182,192,334571,128,0,335277:0:0:0:0:
402,192,334571,128,0,335277:0:0:0:0:
109,192,334688,1,0,0:0:0:0:
36,192,334806,1,0,0:0:0:0:
109,192,334924,1,0,0:0:0:0:
329,192,335041,1,0,0:0:0:0:
256,192,335159,1,0,0:0:0:0:
36,192,335277,128,0,335982:0:0:0:0:
475,192,335277,128,0,335982:0:0:0:0:
329,192,335277,128,0,335512:0:0:0:0:
256,192,335512,128,0,335747:0:0:0:0:
182,192,335747,128,0,335982:0:0:0:0:
329,192,335982,128,0,336335:0:0:0:0:
402,192,335982,128,0,336688:0:0:0:0:
256,192,336100,1,0,0:0:0:0:
109,192,336100,1,0,0:0:0:0:
182,192,336218,1,0,0:0:0:0:
36,192,336218,1,0,0:0:0:0:
109,192,336335,128,0,336688:0:0:0:0:
475,192,336453,1,0,0:0:0:0:
256,192,336453,1,0,0:0:0:0:
329,192,336571,1,0,0:0:0:0:
36,192,336571,1,0,0:0:0:0:
256,192,336688,128,0,337394:0:0:0:0:
475,192,336688,128,0,337394:0:0:0:0:
182,192,336688,128,0,336924:0:0:0:0:
36,192,336924,128,0,337159:0:0:0:0:
329,192,336924,1,0,0:0:0:0:
109,192,337159,128,0,337394:0:0:0:0:
402,192,337159,1,0,0:0:0:0:
182,192,337277,1,0,0:0:0:0:
36,192,337394,128,0,338100:0:0:0:0:
329,192,337394,128,0,337747:0:0:0:0:
402,192,337512,1,0,0:0:0:0:
182,192,337629,1,0,0:0:0:0:
256,192,337747,128,0,337924:0:0:0:0:
475,192,337747,1,0,0:0:0:0:
402,192,337865,1,0,0:0:0:0:
182,192,337924,128,0,338100:0:0:0:0:
329,192,337982,1,0,0:0:0:0:
109,192,338100,128,0,338806:0:0:0:0:
475,192,338100,128,0,338806:0:0:0:0:
402,192,338100,1,0,0:0:0:0:
256,192,338277,128,0,338453:0:0:0:0:
36,192,338453,128,0,338629:0:0:0:0:
329,192,338453,128,0,338806:0:0:0:0:
182,192,338629,128,0,338806:0:0:0:0:
36,192,338806,128,0,339512:0:0:0:0:
402,192,338806,128,0,338924:0:0:0:0:
182,192,338924,128,0,339041:0:0:0:0:
475,192,339041,128,0,339159:0:0:0:0:
256,192,339159,128,0,339865:0:0:0:0:
109,192,339159,128,0,339277:0:0:0:0:
329,192,339277,128,0,339394:0:0:0:0:
475,192,339394,128,0,339512:0:0:0:0:
182,192,339512,128,0,339865:0:0:0:0:
402,192,339512,128,0,339865:0:0:0:0:
329,192,339629,128,0,339747:0:0:0:0:
109,192,339688,128,0,339865:0:0:0:0:
36,192,339688,128,0,340218:0:0:0:0:
475,192,339747,128,0,340218:0:0:0:0:
329,192,339865,128,0,340218:0:0:0:0:
256,192,340041,128,0,340218:0:0:0:0:
182,192,340218,128,0,340924:0:0:0:0:
402,192,340218,128,0,340335:0:0:0:0:
109,192,340335,128,0,340453:0:0:0:0:
36,192,340453,128,0,340571:0:0:0:0:
475,192,340571,128,0,340688:0:0:0:0:
256,192,340688,128,0,340806:0:0:0:0:
402,192,340806,128,0,340924:0:0:0:0:
36,192,340924,128,0,341629:0:0:0:0:
329,192,340924,128,0,341041:0:0:0:0:
256,192,341041,128,0,341159:0:0:0:0:
475,192,341159,128,0,341277:0:0:0:0:
182,192,341277,128,0,341394:0:0:0:0:
402,192,341394,128,0,341512:0:0:0:0:
256,192,341512,128,0,341629:0:0:0:0:
329,192,341629,128,0,341982:0:0:0:0:
109,192,341629,128,0,341747:0:0:0:0:
182,192,341747,128,0,341865:0:0:0:0:
475,192,341865,128,0,341982:0:0:0:0:
109,192,341982,128,0,342335:0:0:0:0:
256,192,341982,128,0,342100:0:0:0:0:
402,192,342100,128,0,342218:0:0:0:0:
36,192,342218,128,0,342335:0:0:0:0:
256,192,342335,128,0,343041:0:0:0:0:
182,192,342335,128,0,342571:0:0:0:0:
402,192,342453,128,0,342571:0:0:0:0:
475,192,342571,128,0,342806:0:0:0:0:
329,192,342688,128,0,342806:0:0:0:0:
109,192,342806,128,0,343041:0:0:0:0:
402,192,342924,128,0,343041:0:0:0:0:
36,192,343041,128,0,343747:0:0:0:0:
182,192,343041,128,0,343747:0:0:0:0:
475,192,343041,128,0,343394:0:0:0:0:
109,192,343394,128,0,344100:0:0:0:0:
256,192,343394,128,0,344100:0:0:0:0:
402,192,343394,128,0,343747:0:0:0:0:
475,192,343747,128,0,344453:0:0:0:0:
329,192,343747,128,0,344453:0:0:0:0:
402,192,344100,128,0,344806:0:0:0:0:
182,192,344100,128,0,344806:0:0:0:0:
36,192,344453,128,0,345159:0:0:0:0:
256,192,344453,128,0,345159:0:0:0:0:
109,192,344806,128,0,345512:0:0:0:0:
329,192,344806,128,0,345512:0:0:0:0:
182,192,345159,128,0,345865:0:0:0:0:
402,192,345159,128,0,345865:0:0:0:0:
256,192,345512,128,0,345688:0:0:0:0:
36,192,345512,128,0,345688:0:0:0:0:
109,192,345688,128,0,345865:0:0:0:0:
329,192,345688,128,0,345865:0:0:0:0:
256,192,345865,128,0,346278:0:0:0:0:
475,192,345865,128,0,346278:0:0:0:0:
109,192,346278,128,0,347106:0:0:0:0:
402,192,346278,128,0,347106:0:0:0:0:
182,192,347106,128,0,347520:0:0:0:0:
329,192,347106,128,0,347520:0:0:0:0:
36,192,347520,128,0,347908:0:0:0:0:
109,192,347714,128,0,348102:0:0:0:0:
475,192,347908,128,0,348296:0:0:0:0:
402,192,348102,128,0,348490:0:0:0:0:
329,192,348296,128,0,348879:0:0:0:0:
182,192,348685,128,0,349073:0:0:0:0:
109,192,349073,128,0,349655:0:0:0:0:
402,192,349267,128,0,349850:0:0:0:0:
36,192,349850,128,0,350683:0:0:0:0:
475,192,350016,128,0,350350:0:0:0:0:
402,192,350350,128,0,351016:0:0:0:0:
256,192,350516,128,0,350850:0:0:0:0:
182,192,350850,128,0,351350:0:0:0:0:
329,192,351016,128,0,351516:0:0:0:0:
36,192,351350,128,0,351516:0:0:0:0:
109,192,351516,128,0,351683:0:0:0:0:
402,192,351516,128,0,351683:0:0:0:0:
182,192,351683,128,0,351850:0:0:0:0:
475,192,351683,128,0,351850:0:0:0:0:
402,192,351850,1,0,0:0:0:0:
36,192,351850,1,0,0:0:0:0:
329,192,351850,1,0,0:0:0:0:
36,192,352577,128,0,352977:0:0:0:0:
256,192,352577,128,0,352977:0:0:0:0:
109,192,352843,128,0,353243:0:0:0:0:
329,192,352843,128,0,353243:0:0:0:0:
182,192,353110,128,0,353510:0:0:0:0:
402,192,353110,128,0,353510:0:0:0:0:
109,192,353377,128,0,353777:0:0:0:0:
256,192,353377,128,0,353777:0:0:0:0:
36,192,353643,128,0,354043:0:0:0:0:
329,192,353643,128,0,354043:0:0:0:0:
182,192,353910,128,0,354310:0:0:0:0:
402,192,353910,128,0,354310:0:0:0:0:
109,192,354177,128,0,354577:0:0:0:0:
475,192,354177,128,0,354577:0:0:0:0:
182,192,354443,128,0,354843:0:0:0:0:
402,192,354443,128,0,354843:0:0:0:0:
36,192,354710,128,0,355110:0:0:0:0:
329,192,354710,128,0,355110:0:0:0:0:
109,192,354977,128,0,355377:0:0:0:0:
475,192,354977,128,0,355377:0:0:0:0:
182,192,355243,128,0,355643:0:0:0:0:
402,192,355243,128,0,355643:0:0:0:0:
36,192,355510,128,0,355777:0:0:0:0:
329,192,355510,128,0,355777:0:0:0:0:
109,192,355777,128,0,359777:0:0:0:0:
402,192,355777,128,0,359777:0:0:0:0:
256,192,355777,128,0,359777:0:0:0:0:
329,192,359777,128,0,360977:0:0:0:0:
182,192,359777,128,0,360977:0:0:0:0:
475,192,360977,128,0,362977:0:0:0:0:
36,192,360977,128,0,362977:0:0:0:0:
109,192,362177,128,0,364796:0:0:0:0:
402,192,362177,128,0,364796:0:0:0:0:
256,192,364923,1,0,0:0:0:0:
329,192,364923,1,0,0:0:0:0:
475,192,364923,1,0,0:0:0:0:
182,192,364923,1,0,0:0:0:0:
36,192,364923,1,0,0:0:0:0:
