osu file format v12

[General]
AudioFilename: Kigiku - Romantic Breaker .mp3
AudioLeadIn: 1004
PreviewTime: 68268
Countdown: 0
SampleSet: None
StackLeniency: 0.8
Mode: 0
LetterboxInBreaks: 0

[Editor]
DistanceSpacing: 1
BeatDivisor: 4
GridSize: 4

[Metadata]
Title:Romantic Breaker
TitleUnicode:ロマンちっくブレイカー
Artist:Kigiku
ArtistUnicode:黄菊
Creator:ryuu
Version:Insane
Source:Piston-P
Tags:hatsune miku vocaloid nico douga
BeatmapID:233289
BeatmapSetID:84742

[Difficulty]
HPDrainRate:7
CircleSize:4
OverallDifficulty:7
ApproachRate:8
SliderMultiplier:1.2
SliderTickRate:1

[Events]
//Background and Video events
0,0,"me hug rock.png",0,0
//Break Periods
//Storyboard Layer 0 (Background)
//Storyboard Layer 1 (Fail)
//Storyboard Layer 2 (Pass)
//Storyboard Layer 3 (Foreground)
//Storyboard Sound Samples
//Background Colour Transformations
3,100,163,162,255

[TimingPoints]
829,324.061571698623,4,1,1,45,1,0
15098,324.061571698623,4,1,1,45,1,0
25467,-133.333333333333,4,1,1,45,0,0
26764,-100,4,1,1,45,0,0
30652,-133.333333333333,4,1,1,45,0,0
31949,-100,4,1,1,45,0,0
36162,-100,4,1,2,45,0,0
38268,-100,4,1,1,45,0,0
38308,-100,4,1,2,45,0,0
38440,324.236692785734,4,1,2,45,1,0
40547,-100,4,1,1,45,0,0
43952,-100,4,1,1,20,0,0
44843,-100,4,1,1,45,0,0
46221,324.061571698623,4,1,1,45,1,0
46221,-133.333333333333,4,1,1,45,0,0
47355,-100,4,1,1,45,0,0
51405,-133.333333333333,4,1,1,45,0,0
52540,-100,4,1,1,45,0,0
56590,-133.333333333333,4,1,1,45,0,0
57725,-100,4,1,1,45,0,0
59189,324.499729583559,4,1,1,45,1,0
61794,324.499729583559,4,1,1,45,1,0
65850,-133.333333333333,4,1,1,45,0,0
66093,-100,4,1,1,45,0,0
66499,-66.6666666666667,4,1,1,45,0,0
66742,-100,4,1,1,45,0,0
68268,324.061571698623,4,1,1,45,1,0
68283,-100,4,1,1,45,0,1
72166,324.061571698623,4,1,1,45,1,1
73477,324.061571698623,4,1,1,45,1,1
87816,-100,4,1,1,45,0,0

[Colours]
Combo1 : 255,99,23
Combo2 : 169,250,80
Combo3 : 0,128,255
Combo4 : 255,251,89
Combo5 : 255,62,62

[HitObjects]
440,48,1963,1,0,0:0:0:0:
440,48,2044,1,0,0:0:0:0:
440,48,2125,1,0,0:0:0:0:
212,76,2287,1,0,0:0:0:0:
68,48,2449,1,0,0:0:0:0:
100,188,2611,5,0,0:0:0:0:
100,188,2692,1,0,0:0:0:0:
100,188,2773,1,0,0:0:0:0:
328,216,2935,1,0,0:0:0:0:
472,188,3097,1,0,0:0:0:0:
460,304,3259,5,0,0:0:0:0:
460,304,3340,1,0,0:0:0:0:
460,304,3421,1,0,0:0:0:0:
200,352,3583,1,0,0:0:0:0:
56,324,3745,1,0,0:0:0:0:
200,352,3907,1,0,0:0:0:0:
328,216,4231,5,8,0:0:0:0:
472,188,4393,1,8,0:0:0:0:
72,68,4717,6,0,P|68:104|80:152,1,60
186,234,5041,2,0,P|188:208|180:176,1,60,8|0,0:0|0:0,0:0:0:0:
368,324,5365,2,0,P|400:316|424:300,2,60,0|0|8,0:0|0:0|0:0,0:0:0:0:
328,216,5851,1,0,0:0:0:0:
156,80,6176,5,0,0:0:0:0:
156,80,6257,1,0,0:0:0:0:
156,80,6338,2,0,P|188:68|220:68,1,60,8|0,0:0|0:0,0:0:0:0:
332,72,6662,2,0,P|340:136|392:172,1,120,0|8,0:0|0:0,0:0:0:0:
464,256,7148,1,0,0:0:0:0:
236,279,7310,5,0,0:0:0:0:
117,342,7472,1,0,0:0:0:0:
54,223,7634,1,8,0:0:0:0:
172,160,7796,1,8,0:0:0:0:
166,292,7958,5,0,0:0:0:0:
102,272,8120,1,0,0:0:0:0:
122,208,8282,1,8,0:0:0:0:
186,228,8444,1,0,0:0:0:0:
440,324,8768,5,0,0:0:0:0:
412,324,8849,1,0,0:0:0:0:
388,308,8930,1,8,0:0:0:0:
456,204,9092,1,8,0:0:0:0:
232,68,9416,1,8,0:0:0:0:
356,136,9578,1,8,0:0:0:0:
228,208,9740,1,8,0:0:0:0:
104,272,9902,6,0,P|116:312|132:332,1,60
440,324,10226,1,8,0:0:0:0:
228,208,10388,1,8,0:0:0:0:
350,194,10550,2,0,P|350:150|362:126,1,60
356,136,10793,1,0,0:0:0:0:
356,136,10874,1,8,0:0:0:0:
264,52,11036,1,0,0:0:0:0:
116,48,11361,6,0,L|68:40,2,30,0|0|8,0:0|0:0|0:0,0:0:0:0:
156,160,11685,1,8,0:0:0:0:
356,136,11847,2,0,P|416:128|472:184,1,120,0|8,0:0|0:0,0:0:0:0:
372,280,12333,1,0,0:0:0:0:
176,321,12495,6,0,L|124:261,1,60
96,168,12819,2,0,L|168:154,1,60,8|0,0:0|0:0,0:0:0:0:
269,174,13143,2,0,L|245:238,1,60
248,232,13386,1,0,0:0:0:0:
248,232,13467,1,8,0:0:0:0:
416,200,13629,1,0,0:0:0:0:
308,56,13953,2,0,L|376:32,2,60,0|8|0,0:0|0:0|0:0,0:0:0:0:
72,104,14601,5,8,0:0:0:0:
145,250,14763,1,8,0:0:0:0:
228,114,14925,1,12,0:0:0:0:
405,331,15260,5,0,0:0:0:0:
435,202,15422,1,8,0:0:0:0:
306,212,15584,1,8,0:0:0:0:
276,341,15746,1,0,0:0:0:0:
108,164,16070,1,8,0:0:0:0:
224,140,16232,1,0,0:0:0:0:
435,202,16556,5,0,0:0:0:0:
465,73,16718,1,8,0:0:0:0:
335,82,16880,1,8,0:0:0:0:
172,288,17204,1,0,0:0:0:0:
288,264,17366,1,8,0:0:0:0:
144,112,17852,5,0,0:0:0:0:
256,68,18014,1,8,0:0:0:0:
368,112,18176,1,0,0:0:0:0:
456,336,18500,1,0,0:0:0:0:
380,244,18662,1,8,0:0:0:0:
264,308,18824,6,0,B|232:320|196:323|144:307,1,120
144,308,19229,1,0,0:0:0:0:
144,308,19310,1,8,0:0:0:0:
104,196,19472,1,8,0:0:0:0:
304,60,19796,1,0,0:0:0:0:
328,76,19877,1,0,0:0:0:0:
356,80,19958,1,8,0:0:0:0:
256,168,20120,1,4,0:0:0:0:
168,64,20445,6,0,L|120:32,2,30,0|0|8,0:0|0:0|0:0,0:0:0:0:
416,124,20769,2,0,P|416:196|420:208,1,60
308,244,21093,1,0,0:0:0:0:
404,316,21255,1,8,0:0:0:0:
208,320,21417,2,0,P|140:292|84:304,1,120
144,168,21903,2,0,P|144:84|172:60,1,120,8|0,0:0|0:0,0:0:0:0:
288,64,22389,1,0,0:0:0:0:
280,92,22470,1,0,0:0:0:0:
292,120,22551,1,8,0:0:0:0:
408,84,22713,6,0,P|440:108|456:144,1,60
456,152,22956,1,0,0:0:0:0:
456,180,23037,2,0,P|428:212|428:252,1,60,0|8,0:0|0:0,0:0:0:0:
311,285,23361,1,8,0:0:0:0:
137,290,23523,1,0,0:0:0:0:
305,331,23685,1,0,0:0:0:0:
148,244,23847,1,8,0:0:0:0:
184,104,24009,5,0,0:0:0:0:
184,104,24090,1,0,0:0:0:0:
184,104,24171,2,0,P|252:112|308:76,1,120,0|8,0:0|0:0,0:0:0:0:
408,128,24657,1,0,0:0:0:0:
408,128,24819,1,8,0:0:0:0:
216,60,25143,5,8,0:0:0:0:
216,60,25224,1,0,0:0:0:0:
216,60,25305,1,8,0:0:0:0:
216,60,25386,1,0,0:0:0:0:
216,60,25467,2,0,B|162:26|102:85|125:148|176:177|176:177|131:195|106:237|130:289|173:296,1,360.000013732911,12|0,0:0|0:0,0:0:0:0:
284,292,26926,5,0,0:0:0:0:
392,240,27088,2,0,L|452:276,2,60,8|0|0,0:0|0:0|0:0,0:0:0:0:
288,40,27574,1,0,0:0:0:0:
380,120,27736,1,8,0:0:0:0:
172,64,27898,5,0,0:0:0:0:
172,64,27979,1,0,0:0:0:0:
172,64,28060,2,0,P|168:124|108:164,1,120,0|8,0:0|0:0,0:0:0:0:
108,280,28546,1,0,0:0:0:0:
220,316,28708,2,0,L|280:264,2,60,0|0|8,0:0|0:0|0:0,0:0:0:0:
400,280,29194,6,0,P|384:216|401:164,1,120
340,60,29680,1,8,0:0:0:0:
300,172,29842,2,0,P|272:180|232:180,1,60,0|0,0:0|0:0,0:0:0:0:
136,132,30166,1,8,0:0:0:0:
136,132,30328,1,8,0:0:0:0:
340,60,30490,5,0,0:0:0:0:
340,60,30571,1,0,0:0:0:0:
340,60,30652,2,0,B|394:26|454:85|431:148|380:177|380:177|425:195|450:237|426:289|383:296,1,360.000013732911,4|0,0:0|0:0,0:0:0:0:
272,280,32111,5,0,0:0:0:0:
248,164,32273,2,0,P|224:140|196:124,1,60,8|0,0:0|0:0,0:0:0:0:
160,240,32597,1,0,0:0:0:0:
356,196,32759,1,8,0:0:0:0:
272,280,32921,1,8,0:0:0:0:
328,80,33083,5,0,0:0:0:0:
356,68,33164,1,0,0:0:0:0:
384,68,33245,1,0,0:0:0:0:
428,144,33407,2,0,P|472:160|508:152,1,60,0|8,0:0|0:0,0:0:0:0:
328,80,33731,2,0,P|276:116|208:84,2,120,0|0|8,0:0|0:0|0:0,0:0:0:0:
404,260,34541,5,0,0:0:0:0:
428,144,34703,1,0,0:0:0:0:
284,264,34865,2,0,P|220:272|192:320,1,120,8|0,0:0|0:0,0:0:0:0:
192,316,35270,1,8,0:0:0:0:
192,316,35351,1,0,0:0:0:0:
100,236,35513,2,0,L|59:192,1,60,0|4,0:0|0:0,0:0:0:0:
256,192,35999,5,0,0:0:0:0:
168,256,36162,2,0,L|171:324,1,60,8|0,0:0|0:0,0:0:0:0:
344,128,36486,2,0,L|341:60,1,60,8|0,0:0|0:0,0:0:0:0:
400,288,36810,2,0,L|464:280,1,60,8|0,0:0|0:0,0:0:0:0:
112,96,37134,2,0,L|48:104,1,60,8|0,0:0|0:0,0:0:0:0:
400,288,37458,5,8,0:0:0:0:
112,96,37782,1,8,0:0:0:0:
256,192,38106,1,8,0:0:0:0:
288,48,38268,5,8,0:0:0:0:
288,48,38349,1,0,0:0:0:0:
288,48,38440,2,0,P|344:104|396:116,1,120,8|8,0:0|0:0,0:0:0:0:
444,220,38926,2,0,L|416:280,2,60,0|8|0,0:0|0:0|0:0,0:0:0:0:
332,260,39412,1,8,0:0:0:0:
232,324,39574,6,0,P|176:268|124:256,1,120,8|8,0:0|0:0,0:0:0:0:
140,256,39980,1,0,0:0:0:0:
140,256,40061,1,8,0:0:0:0:
324,124,40223,1,8,0:0:0:0:
220,68,40385,1,8,0:0:0:0:
220,68,40466,1,0,0:0:0:0:
220,68,40547,1,8,0:0:0:0:
160,196,40709,1,0,0:0:0:0:
48,96,40871,1,12,0:0:0:0:
412,240,41196,6,0,P|416:272|436:312,2,60,0|8|8,0:0|0:0|0:0,0:0:0:0:
404,120,41682,2,0,P|412:88|412:56,1,60
300,190,42006,1,8,0:0:0:0:
300,190,42168,1,0,0:0:0:0:
284,304,42330,2,0,P|220:312|192:332,2,90,0|0|0,0:0|0:0|0:0,0:0:0:0:
300,190,42979,1,0,0:0:0:0:
212,92,43141,2,0,L|148:52,1,60,0|8,0:0|0:0,0:0:0:0:
364,80,43465,5,8,0:0:0:0:
364,80,43546,1,0,0:0:0:0:
364,80,43627,1,0,0:0:0:0:
182,241,43952,1,0,0:0:0:0:
424,216,44276,1,0,0:0:0:0:
213,94,44600,1,0,0:0:0:0:
311,316,44924,5,8,0:0:0:0:
299,190,45248,1,8,0:0:0:0:
361,174,45573,1,8,0:0:0:0:
283,251,45735,1,8,0:0:0:0:
253,144,45897,1,8,0:0:0:0:
164,48,46059,5,8,0:0:0:0:
164,48,46140,1,8,0:0:0:0:
164,48,46221,2,0,B|116:18|63:70|83:126|128:151|128:151|89:167|67:204|88:250|126:256,1,315.000012016297,12|0,0:0|0:0,0:0:0:0:
116,252,47436,1,0,0:0:0:0:
116,252,47517,1,0,0:0:0:0:
220,312,47679,6,0,L|276:288,1,60,0|8,0:0|0:0,0:0:0:0:
262,118,48003,2,0,L|236:180,2,60
352,196,48489,1,8,0:0:0:0:
420,96,48651,5,0,0:0:0:0:
420,96,48732,1,0,0:0:0:0:
420,96,48813,2,0,P|432:156|480:200,2,120,0|8|8,0:0|0:0|0:0,0:0:0:0:
284,286,49623,2,0,P|300:236|352:196,1,120
100,111,50271,5,0,0:0:0:0:
70,254,50433,1,8,0:0:0:0:
213,210,50595,1,0,0:0:0:0:
213,210,50676,1,0,0:0:0:0:
213,210,50757,1,0,0:0:0:0:
220,88,50919,6,0,L|240:116,1,30,8|0,0:0|0:0,0:0:0:0:
324,144,51081,2,0,L|292:100,1,30,8|0,0:0|0:0,0:0:0:0:
316,32,51243,2,0,L|332:57,1,30,8|0,0:0|0:0,0:0:0:0:
396,80,51405,2,0,B|444:49|498:102|477:159|431:185|431:185|472:201|494:238|473:285|434:291,1,315.000012016297,12|0,0:0|0:0,0:0:0:0:
449,285,52621,1,0,0:0:0:0:
449,285,52702,1,0,0:0:0:0:
328,292,52864,6,0,P|288:312|256:312,1,60,0|8,0:0|0:0,0:0:0:0:
212,212,53188,1,0,0:0:0:0:
212,212,53350,1,0,0:0:0:0:
164,324,53512,2,8,L|140:360,2,30,0|0|8,0:0|0:0|0:0,0:0:0:0:
88,248,53836,2,0,P|72:208|72:168,1,60
88,72,54160,5,0,0:0:0:0:
88,72,54241,1,0,0:0:0:0:
88,72,54322,2,0,P|140:52|164:52,1,60,8|0,0:0|0:0,0:0:0:0:
292,164,54646,2,0,P|240:184|216:184,1,60,8|0,0:0|0:0,0:0:0:0:
200,40,54970,1,8,0:0:0:0:
184,192,55132,1,0,0:0:0:0:
424,136,55294,1,0,0:0:0:0:
424,136,55456,2,0,P|428:192|440:212,2,60,0|8|0,0:0|0:0|0:0,0:0:0:0:
396,300,55942,2,0,P|336:280|264:296,1,120,0|8,0:0|0:0,0:0:0:0:
212,80,56428,5,8,0:0:0:0:
212,80,56509,1,8,0:0:0:0:
212,80,56590,2,0,B|164:50|110:103|131:159|176:185|176:185|136:201|114:238|135:284|173:290,1,315.000012016297,12|0,0:0|0:0,0:0:0:0:
160,288,57806,1,0,0:0:0:0:
160,288,57887,1,0,0:0:0:0:
276,324,58049,5,0,0:0:0:0:
392,292,58211,1,8,0:0:0:0:
356,176,58373,2,0,L|400:112,1,60
176,76,58697,1,8,0:0:0:0:
296,56,58859,1,8,0:0:0:0:
116,180,59021,5,0,0:0:0:0:
104,152,59102,1,0,0:0:0:0:
80,132,59189,1,0,0:0:0:0:
232,204,59351,2,0,P|264:180|272:148,1,60,0|8,0:0|0:0,0:0:0:0:
368,88,59675,1,0,0:0:0:0:
376,208,59837,2,0,P|412:192|448:192,1,60
324,340,60162,1,8,0:0:0:0:
440,312,60324,1,0,0:0:0:0:
208,316,60486,6,0,P|190:297|152:276,1,60
160,280,60730,1,0,0:0:0:0:
160,280,60811,1,8,0:0:0:0:
100,176,60973,1,8,0:0:0:0:
112,148,61054,1,0,0:0:0:0:
136,128,61135,1,8,0:0:0:0:
164,116,61217,1,0,0:0:0:0:
192,108,61298,1,8,0:0:0:0:
220,108,61379,1,0,0:0:0:0:
248,112,61460,1,8,0:0:0:0:
276,124,61541,1,0,0:0:0:0:
304,132,61622,1,8,0:0:0:0:
332,132,61703,1,0,0:0:0:0:
364,124,61794,1,8,0:0:0:0:
256,276,62118,6,0,L|228:332,1,60,8|0,0:0|0:0,0:0:0:0:
428,192,62605,1,0,0:0:0:0:
428,192,62767,1,8,0:0:0:0:
152,48,63091,6,0,P|112:96|108:156,1,120,0|8,0:0|0:0,0:0:0:0:
172,272,63578,1,0,0:0:0:0:
312,76,63903,1,0,0:0:0:0:
312,76,64065,1,8,0:0:0:0:
256,192,64389,12,0,65525,0:0:0:0:
100,72,65850,2,0,L|108:136,1,45.0000017166138,0|8,0:0|0:0,0:0:0:0:
220,172,66174,6,0,L|228:244,1,60,0|8,0:0|0:0,0:0:0:0:
344,260,66499,6,0,L|356:352,1,90.0000034332277,0|8,0:0|0:0,0:0:0:0:
468,340,66823,5,0,0:0:0:0:
452,220,66985,5,8,0:0:0:0:
268,64,67310,1,8,0:0:0:0:
61,137,67634,5,8,0:0:0:0:
113,293,67797,1,8,0:0:0:0:
220,172,67959,1,8,0:0:0:0:
348,108,68268,6,0,P|388:64|452:44,1,120,4|8,0:0|0:0,0:0:0:0:
376,272,68754,2,0,P|336:316|279:335,1,120,0|8,0:0|0:0,0:0:0:0:
56,212,69240,1,8,0:0:0:0:
220,172,69402,1,0,0:0:0:0:
176,320,69564,1,0,0:0:0:0:
104,40,69726,1,0,0:0:0:0:
344,168,69888,6,0,P|408:180|468:168,1,120,8|0,0:0|0:0,0:0:0:0:
280,68,70374,1,0,0:0:0:0:
404,64,70536,1,8,0:0:0:0:
164,44,70698,6,0,P|140:64|112:72,1,60
71,258,71022,2,0,P|88:232|112:216,1,60,0|8,0:0|0:0,0:0:0:0:
204,288,71346,1,0,0:0:0:0:
384,300,71670,2,0,L|453:269,2,60,0|8|0,0:0|0:0|0:0,0:0:0:0:
424,180,72166,6,0,P|432:152|425:120,1,60
320,64,72490,1,0,0:0:0:0:
225,210,72652,1,0,0:0:0:0:
157,126,72814,1,0,0:0:0:0:
325,171,72976,1,0,0:0:0:0:
216,36,73138,1,0,0:0:0:0:
96,312,73477,5,4,0:0:0:0:
448,240,73963,1,4,0:0:0:0:
256,96,74287,1,0,0:0:0:0:
256,96,74368,1,0,0:0:0:0:
256,96,74449,1,8,0:0:0:0:
96,312,74773,5,4,0:0:0:0:
448,240,75097,1,8,0:0:0:0:
256,96,75259,1,4,0:0:0:0:
436,48,75745,6,0,P|432:104|396:176,1,120,8|0,0:0|0:0,0:0:0:0:
408,160,76150,1,0,0:0:0:0:
408,160,76231,1,0,0:0:0:0:
360,328,76393,1,8,0:0:0:0:
360,328,76474,1,0,0:0:0:0:
360,328,76555,2,0,P|340:292|308:272,1,60
156,336,76879,2,0,P|112:296|92:240,1,120
92,240,77284,1,0,0:0:0:0:
92,240,77365,1,0,0:0:0:0:
80,88,77527,5,0,0:0:0:0:
100,108,77608,1,0,0:0:0:0:
128,120,77689,1,8,0:0:0:0:
228,108,77851,1,0,0:0:0:0:
208,88,77932,1,0,0:0:0:0:
192,60,78013,1,8,0:0:0:0:
384,64,78175,5,8,0:0:0:0:
380,92,78256,1,0,0:0:0:0:
364,116,78337,1,8,0:0:0:0:
344,136,78418,1,0,0:0:0:0:
316,148,78499,1,8,0:0:0:0:
292,164,78580,1,0,0:0:0:0:
268,184,78661,1,12,0:0:0:0:
48,84,78986,5,0,0:0:0:0:
104,192,79148,1,0,0:0:0:0:
336,252,79472,1,0,0:0:0:0:
456,264,79634,1,8,0:0:0:0:
444,144,79796,1,0,0:0:0:0:
240,352,79958,5,0,0:0:0:0:
260,112,80282,2,0,L|180:84,1,60,8|0,0:0|0:0,0:0:0:0:
440,52,80768,1,0,0:0:0:0:
440,52,80930,1,8,0:0:0:0:
360,140,81092,6,0,P|336:148|312:175,1,60
454,323,81416,2,0,P|460:296|456:264,1,60,0|8,0:0|0:0,0:0:0:0:
216,280,81902,1,0,0:0:0:0:
104,320,82064,1,0,0:0:0:0:
307,185,82388,6,0,P|407:89|350:209,1,360
280,284,83522,1,8,0:0:0:0:
280,284,83603,1,0,0:0:0:0:
280,284,83684,1,0,0:0:0:0:
72,212,83847,1,4,0:0:0:0:
160,296,84009,1,0,0:0:0:0:
92,80,84171,6,0,L|140:40,1,60,8|0,0:0|0:0,0:0:0:0:
288,40,84495,2,0,L|241:78,1,60
272,208,84819,2,0,L|320:168,1,60,8|0,0:0|0:0,0:0:0:0:
432,216,85143,2,0,B|444:264|408:304|368:308,1,120,0|8,0:0|0:0,0:0:0:0:
124,284,85629,1,0,0:0:0:0:
236,324,85791,1,8,0:0:0:0:
84,136,86115,1,8,0:0:0:0:
408,72,86439,5,0,0:0:0:0:
171,224,86763,1,8,0:0:0:0:
452,238,87087,1,0,0:0:0:0:
234,61,87411,1,8,0:0:0:0:
306,333,87735,1,4,0:0:0:0:
