osu file format v6

[General]
AudioFilename: Kidz Bop - Disturbia.mp3
AudioLeadIn: 0
PreviewTime: 52940
Countdown: 1
SampleSet: Normal
StackLeniency: 0.7
Mode: 0
LetterboxInBreaks: 1

[Editor]
Bookmarks: 4220
DistanceSpacing: 0.5
BeatDivisor: 4
GridSize: 8

[Metadata]
Title:Disturbia
Artist:Kidz Bop
Creator:Agent Spin Here
Version:Excellent
Source:
Tags:lol gay

[Difficulty]
HPDrainRate:10
CircleSize:5
OverallDifficulty:10
SliderMultiplier:2
SliderTickRate:1

[Events]
//Background and Video events
0,0,"img3882z.jpg"
//Break Periods
2,68739,72890
//Storyboard Layer 0 (Background)
//Storyboard Layer 1 (Fail)
//Storyboard Layer 2 (Pass)
//Storyboard Layer 3 (Foreground)
//Storyboard Sound Samples
//Background Colour Transformations
3,100,0,0,0

[TimingPoints]
380.651934713838,240,4,1,0,31,1,0
77900,-50,4,1,0,31,0,0
78560,-200,4,1,0,31,0,0
79820,-100,4,1,0,31,0,0
99860,-50,4,1,0,31,0,0
100340,-100,4,1,0,31,0,0
103700,-200,4,1,0,31,0,0
104180,-100,4,1,0,31,0,0
130820,-200,4,1,0,31,0,0
131900,-100,4,1,0,31,0,0
153620,-200,4,1,0,31,0,0
154460,-100,4,1,0,31,0,0

[Colours]
Combo1 : 255,128,192
Combo2 : 255,0,255
Combo3 : 255,128,255
Combo4 : 255,0,128

[HitObjects]
416,264,8300,5,0
400,208,8540,1,0
368,160,8780,2,0,B|320:88|256:80|160:112,1,200,0|8
224,152,9260,1,0
280,160,9500,1,0
328,200,9740,2,0,B|360:240|384:280|368:352|312:368,1,200,0|8
256,344,10220,5,0
208,312,10460,1,0
256,280,10700,1,0
208,248,10940,1,8
256,216,11180,1,0
208,184,11420,1,0
256,152,11660,1,0
96,264,12140,5,0
112,208,12380,1,0
144,160,12620,2,0,B|192:88|256:80|352:112,1,200,0|8
288,152,13100,1,0
232,160,13340,1,0
184,200,13580,2,0,B|152:240|128:280|144:352|200:368,1,200,0|8
256,344,14060,5,0
304,312,14300,1,0
256,280,14540,1,0
304,248,14780,1,8
256,216,15020,1,0
304,184,15260,1,0
256,152,15500,1,0
160,80,15980,6,2,B|160:296,1,200
160,80,16460,1,2
352,80,16940,2,2,B|352:296,1,200
352,80,17420,1,2
256,152,17900,6,0,B|424:-16,1,200,0|8
256,152,18380,2,0,B|88:-16,1,200,0|8
256,152,18860,2,0,B|424:-16,1,200,0|8
256,152,19340,1,0
336,360,19820,6,0,B|128:304,1,200,0|2
142,308,20300,2,0,B|344:256,1,200,0|2
335,258,20780,2,0,B|136:200,1,200,0|2
142,202,21260,2,0,B|336:144,1,200,0|2
333,144,21740,2,2,B|136:80,1,200
256,208,22220,12,4,23420
88,296,23660,5,8
144,296,23900,1,0
200,296,24140,2,0,B|144:184|288:240|360:216|184:128,1,200,8|0
192,168,24620,2,0,B|200:104|312:64|344:224,1,200,8|0
256,168,25100,2,0,B|240:215|232:264|416:136|304:336,1,200,8|0
384,296,25580,1,8
440,296,25820,1,0
496,296,26060,1,8
256,208,26300,12,12,27260
408,88,27500,5,0
408,144,27740,1,0
352,112,27980,2,0,B|136:112,1,200,8|0
152,168,28460,2,0,B|360:168,1,200,8|0
352,224,28940,2,8,B|136:224,1,200,8|0
96,192,29420,1,0
96,248,29660,1,8
40,216,29900,1,0
40,272,30140,1,8
96,304,30380,1,0
152,280,30620,1,8
152,216,30860,1,2
96,248,31100,1,2
96,184,31340,5,0
96,120,31580,1,0
96,56,31820,2,8,B|128:48|184:72|152:224,1,200,8|0
96,56,32300,2,8,B|64:48|8:72|40:224,1,200,8|0
96,56,32780,1,8
256,208,33260,12,4,34700
176,200,34940,5,2
400,64,35420,1,0
96,48,35900,1,2
200,320,36380,1,2
200,320,36620,1,2
376,272,37100,1,0
304,160,37580,6,8,B|184:160,8,100,8|8|8|8|4|4|4|0|0
304,160,38780,6,2,B|394:248|238:320,1,200
204,160,39260,2,2,B|115:247|270:320,1,200
256,120,39980,1,0
208,160,40220,1,8
256,200,40460,1,0
304,160,40700,1,8
256,120,40940,1,0
224,64,41180,1,8
288,64,41420,2,2,B|352:112|439:167|368:280|272:320|232:304|144:280|92:149|144:115|231:59,1,600
256,120,42380,6,0,B|256:224,4,100,0|0|8|0|8
288,64,43100,1,4
224,64,43340,1,4
120,128,43820,5,0
172,161,44060,1,2
226,127,44300,1,0
285,128,44540,1,2
332,168,44780,1,0
376,128,45020,1,2
392,184,45260,6,2,B|384:240|361:313|240:288,1,200,2|0
120,184,45740,2,2,B|128:240|146:310|272:288,1,200,2|0
256,232,46220,6,0,B|176:144,2,100,0|0|4
256,232,46700,2,0,B|336:144,2,100,0|0|4
256,232,47180,1,4
216,120,47660,5,0
186,72,47900,1,2
226,32,48140,1,0
286,32,48380,1,2
325,72,48620,1,0
296,120,48860,1,2
256,168,49100,2,8,B|232:224|232:224|288:256|288:256|240:360,1,200
255,323,49580,2,8,B|224:256|224:256|288:224|288:224|256:168,1,200
224,112,50060,6,0,B|136:152|96:280,1,200,0|8
240,120,50540,6,0,B|152:160|112:288,1,200,0|8
256,128,51020,6,0,B|168:168|128:296,1,200,0|8
272,136,51500,5,0
168,296,51740,1,2
272,136,51980,1,2
256,208,52220,12,4,53180
256,224,53420,5,4
256,224,53660,5,4
256,224,53900,5,4
256,224,54140,6,8,B|288:192|288:192|224:168|224:168|288:144|288:144|232:112|232:112|280:88|280:88|240:64|240:64|280:24|280:24,2,400
200,248,55340,1,0
160,200,55580,1,0
200,152,55820,1,0
256,136,56060,2,2,B|312:152|352:216|336:256|256:256,1,200,2|0
216,304,56540,1,0
208,240,56780,2,2,B|152:256|112:320|128:360|208:360,3,200
256,328,57740,5,0
256,328,57980,2,2,B|256:288|256:288|176:240|176:240|336:240|336:240|256:208|256:208|256:136|256:136,2,400
312,312,59180,2,8,B|464:312|376:184,1,200
328,144,59660,2,2,B|248:16|176:152,1,200
144,192,60140,2,8,B|60:315|212:315,5,200
256,352,61580,5,8
256,352,61820,2,2,B|256:136,1,200
368,328,62300,2,2,B|256:152,1,200,2|2
144,328,62780,2,12,B|256:152,1,200
256,88,63260,5,0
256,152,63500,1,0
256,216,63740,1,2
200,120,64220,1,0
200,184,64460,1,2
312,120,64940,1,0
312,184,65180,1,2
256,216,65420,5,4
256,216,65660,2,12,B|136:216|112:240|136:264|344:264|464:280|344:296|256:296,1,400
261,295,66380,1,0
261,295,66620,1,2
261,295,66860,1,0
256,176,67340,5,0
256,176,67580,2,4,B|136:176|112:152|136:128|344:128|464:112|344:96|256:96,2,400
72,96,73340,6,2,B|72:312,1,200,2|0
152,192,73820,1,2
440,96,74300,6,2,B|440:312,1,200,2|0
360,192,74780,1,0
256,192,75020,1,2
184,288,75500,1,2
328,288,75980,1,0
256,320,76220,1,10
256,256,76460,1,0
256,192,76700,1,8
344,112,77180,6,0,B|304:48|144:56|160:96|144:128|304:104|344:152|304:184|144:152,1,400,0|8
344,112,78140,6,0,B|304:48|144:56|160:96|144:128|304:104|344:152|304:184|144:152,1,400,0|8
344,112,78620,6,0,B|304:48|144:56|160:96|144:128|304:104|344:152|304:184|144:152,1,400,0|8
344,112,80060,6,0,B|304:48|144:56|160:96|144:128|304:104|344:152|304:184|144:152,1,400,0|8
256,312,81260,5,0
216,264,81500,1,10
176,216,81740,1,0
136,168,81980,1,0
192,136,82220,2,0,C|320:304,4,200,10|0|2|0|10
192,192,83420,5,2
192,248,83660,1,0
224,296,83900,1,2
288,296,84140,1,0
320,248,84380,1,4
320,192,84620,1,4
256,312,85100,5,0
296,264,85340,1,0
336,216,85580,1,2
376,168,85820,1,2
320,136,86060,2,0,C|192:304,4,200,10|0|2|0|10
256,136,87260,5,4
336,272,87740,1,0
288,312,87980,1,0
224,312,88220,1,0
176,272,88460,1,2
176,152,88940,6,0,B|24:0,2,200,0|2|0
336,152,89660,2,0,B|488:0,2,200,0|2|0
256,192,90380,1,12
34,10,90860,6,2,B|176:152,2,100,2|2|2
477,10,91820,2,6,B|336:152,1,100
448,344,92540,5,8
448,32,93020,5,0
64,40,93500,5,8
64,344,93980,5,0
256,344,94220,5,12
256,40,94700,5,12
256,208,95180,12,4,96380
192,256,96620,5,0
256,256,96860,1,0
320,256,97100,2,2,B|311:189|260:164|201:192|192:216|189:257|192:320,1,200,2|0
320,256,97580,2,2,B|311:323|260:348|201:320|192:296|189:255|192:192,1,200,2|0
256,256,98060,1,2
224,136,98540,5,0
288,136,98780,1,8
312,80,99020,1,0
256,48,99260,2,8,B|224:136|288:168|248:264,1,200,8|0
208,280,99740,1,8
152,256,99980,6,2,C|128:216|160:216|128:184|160:184|128:152|160:152|128:120|160:120|128:80|160:80,1,400
320,128,100460,5,0
256,128,100700,1,0
192,128,100940,2,2,B|201:195|252:220|311:192|320:168|323:127|320:64,1,200,2|0
192,128,101420,2,2,B|201:61|252:36|311:64|320:88|323:129|320:192,1,200,2|0
256,128,101900,1,2
288,248,102380,5,0
224,248,102620,1,8
200,304,102860,1,0
256,336,103100,2,8,B|288:248|224:216|264:120,1,200,8|0
304,104,103580,1,8
360,128,103820,6,2,C|384:168|352:168|384:200|352:200|384:232|352:232|384:264|352:264|384:304|352:304,1,400
256,240,105260,2,2,B|256:24,1,200,2|0
328,240,105740,2,2,B|328:24,1,200,2|0
384,40,106220,1,0
424,88,106460,1,8
392,136,106700,1,0
432,184,106940,2,8,B|416:288|312:344,1,200,8|0
256,336,107420,1,8
256,192,107660,6,0,C|384:192,1,100
256,192,107900,6,2,C|128:192,1,100
256,192,108140,6,2,C|256:64,1,100
256,192,108380,6,6,C|240:264|280:296|256:376,1,200
336,272,109100,5,0
336,272,109220,1,8
336,272,109340,1,8
336,208,109580,2,8,B|320:168|224:104|160:240,1,200
176,272,110060,5,0
176,272,110180,1,8
176,272,110300,1,8
176,208,110540,2,8,B|192:168|288:104|352:240,1,200
368,160,111020,5,2
320,120,111260,1,2
256,112,111500,1,0
192,120,111740,6,6,B|136:144|104:192|88:256|144:344|192:392|328:360,1,400
256,232,112460,1,10
296,120,112940,6,0,B|296:96|296:96|296:280,1,200,0|8
216,120,113420,6,0,B|216:96|216:96|216:280,1,200,0|8
256,168,113900,6,0,B|256:144|256:144|256:328,1,200,0|8
204,281,114380,6,10,B|198:319|207:340|240:368|263:363|312:344|316:321|304:272,3,200
256,296,115340,1,2
256,232,115580,6,2,B|216:176|216:176|272:200|272:200|216:112,1,200,2|0
256,232,116060,6,2,B|296:176|296:176|240:200|240:200|296:112,1,200,2|0
256,232,116540,6,8,B|216:176|216:176|272:200|272:200|216:112,1,200
256,232,117020,6,8,B|296:176|296:176|240:200|240:200|296:112,1,200
317,43,117500,5,2
256,80,117740,1,2
195,43,117980,1,2
256,16,118220,2,2,B|312:48|312:48|256:80|256:80|200:48|200:48|168:16,1,200
256,16,118700,1,8
136,24,119180,6,0,B|120:80|184:128|184:224,1,200,0|2
376,24,119660,2,0,B|392:80|328:128|328:224,1,200,0|2
256,232,120140,1,6
160,304,120620,2,8,B|256:256|256:352|368:296,4,200
160,240,121820,6,6,B|224:200|312:208|392:264,1,200
256,280,122300,5,4
256,216,122540,5,4
256,152,122780,5,4
256,88,123020,5,4
200,120,123260,6,2,C|200:261|309:262|312:112,1,400
384,224,124220,2,2,B|376:320|320:344|248:344,1,200
256,280,124700,1,8
256,280,124940,1,8
256,344,125180,2,2,B|190:345|134:321|120:216,3,200
224,152,126380,5,12
288,152,126620,1,12
256,96,126860,1,0
256,32,127100,2,6,B|256:-24|256:240,2,200
128,208,128060,6,8,B|8:136|208:384|40:280,1,200
160,256,128540,1,0
208,224,128780,2,0,C|168:280|240:288|184:352,2,200,0|2|0
256,192,129500,1,0
304,224,129740,2,0,C|344:280|272:288|328:352,2,200,0|2|0
256,192,130460,1,2
256,128,130700,1,0
320,128,130940,6,12,B|320:24|320:24|232:24,1,150
192,256,131420,6,12,B|192:360|192:360|288:360,1,150
256,192,131900,5,2
256,192,132140,1,0
296,144,132380,1,0
256,96,132620,1,0
216,144,132860,2,8,B|216:280|216:264|96:264,2,200
296,144,133580,2,12,B|296:280|296:264|416:264,3,200
256,192,134780,6,2,B|248:248|248:248|176:248|176:168|184:104|248:104|328:112|344:168|336:248|256:248,1,400
256,192,135740,1,8
256,192,135980,1,8
256,208,136700,12,4,137660
256,192,138140,5,4
256,192,138620,1,4
432,64,139100,5,0
416,168,139340,6,0,B|376:240|320:280|264:312|232:312,2,200,8|0|8
184,152,140300,6,0,B|192:240|312:240|312:128,2,200,8|0|8
256,208,141320,12,4,141980
168,192,142220,5,4
360,192,142940,6,2,B|288:272|448:296|352:376,1,200,2|0
256,200,143420,6,2,B|184:280|344:304|248:384,1,200,2|0
160,200,143900,6,2,B|88:280|248:304|152:384,1,200,2|0
72,200,144380,5,12
96,144,144620,1,0
136,104,144860,1,12
192,80,145100,1,0
248,72,145340,1,12
304,72,145580,2,0,B|320:136|320:120|200:128|168:144|144:192,3,200,0|8|0|8
256,296,146780,5,2
256,296,147020,1,2
256,296,147260,2,2,B|224:240|296:240|248:192,1,100
192,256,147980,6,0,L|360:80,1,200,8|0
256,80,148460,2,0,L|256:288,1,200,8|0
320,256,148940,2,0,L|181:111,1,200,8|0
160,184,149420,2,0,L|384:184,1,200
257,93,149840,1,4
257,93,150080,1,4
304,288,150620,5,2
256,328,150860,1,0
208,288,151100,1,2
256,248,151340,1,0
72,296,151820,6,0,L|72:72,1,200,0|12
256,296,152300,2,0,L|256:72,1,200,0|12
448,296,152780,2,0,L|448:80,1,200,0|12
256,296,153260,2,0,L|256:80,1,200,0|12
72,296,153740,6,0,B|72:80,1,200
408,128,155180,6,2,L|384:248|384:248|296:160|296:160|256:328,1,400
104,128,155900,2,2,L|128:248|128:248|216:160|216:160|256:328,1,400
304,280,156620,2,4,B|320:328|296:376|232:384|184:352|192:312|208:272,1,200
256,176,157100,1,4
256,56,157340,6,0,L|360:56,1,100,8|0
256,152,157580,2,0,L|400:152,1,100,8|0
256,248,157820,2,0,L|464:248,2,200,8|0|8
256,352,158540,1,8
256,280,159020,6,0,B|192:272|160:224|160:208,2,100,0|0|2
344,192,159500,6,0,B|336:256|288:288|272:288,2,100,0|0|2
256,104,159980,6,0,B|320:112|352:160|352:176,2,100,0|0|2
168,192,160460,6,0,B|176:128|224:96|240:96,2,100,0|0|2
256,328,160940,6,2,B|256:56|256:232,1,200
256,96,161420,6,4,B|232:144|232:144|272:128|272:128|232:168|240:168|272:168|272:168|232:216|232:216|280:200|264:200|248:288,1,300
256,245,161900,1,0
152,264,162140,1,8
120,224,162260,1,0
112,176,162380,1,8
144,136,162500,1,0
192,136,162620,1,8
216,176,162740,1,0
176,200,162860,6,0,B|224:272|312:272|368:168,1,200,0|10
342,204,163340,6,0,B|311:138|222:138|173:202,1,200,0|10
176,200,163820,6,0,B|224:272|312:272|368:168,1,200,0|10
342,204,164300,6,0,B|311:138|222:138|173:202,1,200,0|10
264,200,164780,5,14
256,208,165140,12,4,167420
256,192,168380,5,8
256,192,168620,5,0
256,192,168860,5,8
256,192,169100,5,0
256,192,169340,6,2,B|288:152|288:152|232:104|232:104|224:168|224:168|184:200|184:200|304:232|304:232|272:264,2,400
312,192,170540,2,8,B|352:136|352:136|240:40,1,200,0|8
200,56,171020,2,0,B|176:72|176:72|168:136|168:136|136:160|136:160|120:232|120:232,97,200
