osu file format v14

[General]
AudioFilename: Pupa 3rd Try.mp3
AudioLeadIn: 0
PreviewTime: 319
Countdown: 0
SampleSet: Normal
StackLeniency: 0.7
Mode: 1
LetterboxInBreaks: 0
WidescreenStoryboard: 0

[Editor]
DistanceSpacing: 0.7
BeatDivisor: 4
GridSize: 32
TimelineZoom: 3.399998

[Metadata]
Title:pupa
TitleUnicode:pupa
Artist:Kido Ibuki & Yamazaki Erii
ArtistUnicode:木戸 衣吹 & 山崎 エリイ
Creator:bank78952
Version:Rew's Muzukashii
Source:ピューパ
Tags:pupa Rew0825
BeatmapID:613239
BeatmapSetID:269409

[Difficulty]
HPDrainRate:5
CircleSize:4
OverallDifficulty:4
ApproachRate:9
SliderMultiplier:1.2
SliderTickRate:1

[Events]
//Background and Video events
0,0,"BG.jpg",0,70
//Break Periods
//Storyboard Layer 0 (Background)
//Storyboard Layer 1 (Fail)
//Storyboard Layer 2 (Pass)
//Storyboard Layer 3 (Foreground)
//Storyboard Sound Samples

[TimingPoints]
569,250,4,1,0,80,1,0
22505,187.5,4,1,0,75,1,0
22505,-133.333333333333,4,1,0,75,0,1
28692,-133.333333333333,4,1,0,75,0,0

[Colours]
Combo1 : 0,0,255
Combo2 : 255,0,0

[HitObjects]
384,96,319,5,8,0:0:0:0:
256,192,569,1,0,0:0:0:0:
256,192,944,1,0,0:0:0:0:
384,96,1319,1,8,0:0:0:0:
384,96,1819,1,8,0:0:0:0:
256,192,2069,1,0,0:0:0:0:
384,96,2319,1,8,0:0:0:0:
256,192,2569,1,0,0:0:0:0:
384,96,3319,1,8,0:0:0:0:
384,96,3819,1,8,0:0:0:0:
256,192,4069,1,0,0:0:0:0:
384,96,4319,1,8,0:0:0:0:
256,192,4569,1,0,0:0:0:0:
256,192,4944,1,0,0:0:0:0:
384,96,5319,1,8,0:0:0:0:
384,96,5819,1,8,0:0:0:0:
256,192,6069,1,0,0:0:0:0:
384,96,6319,1,0,0:0:0:0:
256,192,6569,1,8,0:0:0:0:
384,96,7319,1,8,0:0:0:0:
384,96,7819,1,8,0:0:0:0:
256,192,8069,1,0,0:0:0:0:
384,96,8319,1,0,0:0:0:0:
256,192,8569,1,8,0:0:0:0:
256,192,8944,1,0,0:0:0:0:
384,96,9319,1,8,0:0:0:0:
256,192,9569,1,0,0:0:0:0:
256,192,9944,1,0,0:0:0:0:
384,96,10319,1,8,0:0:0:0:
256,192,10569,1,0,0:0:0:0:
256,192,10944,1,0,0:0:0:0:
256,192,11569,1,4,0:0:0:0:
256,192,11944,1,4,0:0:0:0:
384,96,12319,1,12,0:0:0:0:
256,192,12569,1,0,0:0:0:0:
384,96,13319,1,8,0:0:0:0:
384,96,13819,1,8,0:0:0:0:
256,192,14069,1,0,0:0:0:0:
384,96,14319,1,8,0:0:0:0:
256,192,14569,1,4,0:0:0:0:
256,192,15444,1,4,0:0:0:0:
256,192,15569,1,4,0:0:0:0:
256,192,16569,1,4,0:0:0:0:
256,192,18569,1,4,0:0:0:0:
256,192,19444,1,4,0:0:0:0:
256,192,19569,1,4,0:0:0:0:
256,192,20569,1,4,0:0:0:0:
256,192,22505,1,0,0:0:0:0:
384,96,22692,1,8,0:0:0:0:
384,96,23067,1,8,0:0:0:0:
384,96,23442,1,8,0:0:0:0:
256,192,23630,1,0,0:0:0:0:
256,192,23817,1,8,0:0:0:0:
256,192,24005,1,0,0:0:0:0:
384,96,24192,1,0,0:0:0:0:
384,96,24567,1,8,0:0:0:0:
128,96,24942,1,4,0:0:0:0:
128,96,25130,1,4,0:0:0:0:
256,192,25505,1,0,0:0:0:0:
384,96,25692,1,8,0:0:0:0:
384,96,26067,1,8,0:0:0:0:
384,96,26442,1,8,0:0:0:0:
256,192,26630,1,0,0:0:0:0:
256,192,26817,1,8,0:0:0:0:
256,192,27005,1,0,0:0:0:0:
384,96,27192,1,0,0:0:0:0:
384,96,27567,1,8,0:0:0:0:
128,96,27942,1,4,0:0:0:0:
128,96,28130,1,4,0:0:0:0:
384,96,28505,1,12,0:0:0:0:
384,96,28692,1,12,0:0:0:0:
