osu file format v14

[General]
AudioFilename: Pupa 3rd Try.mp3
AudioLeadIn: 0
PreviewTime: 319
Countdown: 0
SampleSet: Normal
StackLeniency: 0.7
Mode: 1
LetterboxInBreaks: 0
WidescreenStoryboard: 0

[Editor]
Bookmarks: 14569,16569
DistanceSpacing: 0.7
BeatDivisor: 2
GridSize: 4
TimelineZoom: 2.699999

[Metadata]
Title:pupa
TitleUnicode:pupa
Artist:Kido Ibuki & Yamazaki Erii
ArtistUnicode:木戸 衣吹 & 山崎 エリイ
Creator:bank78952
Version:Oni
Source:ピューパ
Tags:pupa Rew0825
BeatmapID:613235
BeatmapSetID:269409

[Difficulty]
HPDrainRate:6
CircleSize:4
OverallDifficulty:5
ApproachRate:9
SliderMultiplier:1.2
SliderTickRate:1

[Events]
//Background and Video events
0,0,"BG.jpg",0,70
//Break Periods
//Storyboard Layer 0 (Background)
//Storyboard Layer 1 (Fail)
//Storyboard Layer 2 (Pass)
//Storyboard Layer 3 (Foreground)
//Storyboard Sound Samples

[TimingPoints]
569,250,4,1,0,80,1,0
22505,187.5,4,1,0,75,1,0
22505,-100,4,1,0,75,0,1
28692,-100,4,1,0,75,0,0

[Colours]
Combo1 : 0,0,255
Combo2 : 255,0,0

[HitObjects]
252,196,319,5,8,0:0:0:0:
252,196,569,1,0,0:0:0:0:
252,196,819,1,8,0:0:0:0:
252,196,944,1,0,0:0:0:0:
252,196,1319,1,8,0:0:0:0:
252,196,1569,1,0,0:0:0:0:
252,196,1819,1,8,0:0:0:0:
252,196,2069,1,0,0:0:0:0:
252,196,2194,1,8,0:0:0:0:
252,196,2319,1,8,0:0:0:0:
252,196,2569,1,0,0:0:0:0:
252,196,2944,1,0,0:0:0:0:
252,196,3319,1,8,0:0:0:0:
252,196,3569,1,0,0:0:0:0:
252,196,3819,1,8,0:0:0:0:
252,196,3944,1,8,0:0:0:0:
252,196,4069,1,0,0:0:0:0:
252,196,4319,1,8,0:0:0:0:
252,196,4569,1,0,0:0:0:0:
252,196,4819,1,8,0:0:0:0:
252,196,4944,1,0,0:0:0:0:
252,196,5319,1,8,0:0:0:0:
252,196,5569,1,0,0:0:0:0:
252,196,5819,1,8,0:0:0:0:
252,196,6069,1,0,0:0:0:0:
252,196,6194,1,8,0:0:0:0:
252,196,6319,1,8,0:0:0:0:
252,196,6569,1,0,0:0:0:0:
252,196,6944,1,0,0:0:0:0:
252,196,7319,1,8,0:0:0:0:
252,196,7569,1,0,0:0:0:0:
252,196,7694,1,0,0:0:0:0:
252,196,7819,1,8,0:0:0:0:
252,196,8069,1,0,0:0:0:0:
252,196,8319,1,8,0:0:0:0:
252,196,8569,1,0,0:0:0:0:
252,196,8819,1,8,0:0:0:0:
252,196,8944,1,0,0:0:0:0:
252,196,9319,1,8,0:0:0:0:
248,192,9569,1,0,0:0:0:0:
252,196,9819,1,8,0:0:0:0:
252,196,9944,1,0,0:0:0:0:
248,192,10319,1,8,0:0:0:0:
252,196,10569,1,0,0:0:0:0:
252,196,10819,1,8,0:0:0:0:
252,196,10944,1,0,0:0:0:0:
248,192,11319,1,8,0:0:0:0:
252,196,11569,1,4,0:0:0:0:
248,192,11944,1,4,0:0:0:0:
248,192,12319,1,12,0:0:0:0:
248,192,12569,1,0,0:0:0:0:
248,192,12944,1,0,0:0:0:0:
248,188,13319,1,8,0:0:0:0:
248,192,13819,1,8,0:0:0:0:
248,192,14069,1,0,0:0:0:0:
248,192,14194,1,0,0:0:0:0:
248,192,14319,1,8,0:0:0:0:
248,192,14569,1,4,0:0:0:0:
248,192,15444,1,4,0:0:0:0:
248,192,15569,1,4,0:0:0:0:
248,192,16569,1,4,0:0:0:0:
256,200,18569,1,4,0:0:0:0:
256,200,19444,1,4,0:0:0:0:
256,200,19569,1,4,0:0:0:0:
256,200,20569,1,4,0:0:0:0:
256,192,22505,1,0,0:0:0:0:
256,192,22692,1,8,0:0:0:0:
256,192,22786,1,0,0:0:0:0:
256,192,23067,1,8,0:0:0:0:
256,192,23255,1,0,0:0:0:0:
256,192,23348,1,0,0:0:0:0:
256,192,23442,1,8,0:0:0:0:
256,192,23630,1,0,0:0:0:0:
256,192,23817,1,8,0:0:0:0:
256,192,24005,1,0,0:0:0:0:
256,192,24192,1,8,0:0:0:0:
256,192,24286,1,0,0:0:0:0:
256,192,24567,1,8,0:0:0:0:
256,192,24942,1,12,0:0:0:0:
256,192,25130,1,12,0:0:0:0:
256,192,25505,1,0,0:0:0:0:
256,192,25692,1,8,0:0:0:0:
256,192,25786,1,0,0:0:0:0:
260,188,26067,1,8,0:0:0:0:
256,184,26255,1,0,0:0:0:0:
256,192,26348,1,0,0:0:0:0:
256,192,26442,1,8,0:0:0:0:
256,192,26630,1,0,0:0:0:0:
256,192,26817,1,8,0:0:0:0:
256,192,27005,1,0,0:0:0:0:
256,192,27192,1,8,0:0:0:0:
256,192,27286,1,0,0:0:0:0:
260,188,27567,1,8,0:0:0:0:
260,188,27942,1,4,0:0:0:0:
256,192,28130,1,4,0:0:0:0:
256,192,28505,1,12,0:0:0:0:
256,192,28692,1,12,0:0:0:0:
