osu file format v12

[General]
AudioFilename: 100727_Fire_Aura.mp3
AudioLeadIn: 0
PreviewTime: 63948
Countdown: 0
SampleSet: Soft
StackLeniency: 0.7
Mode: 0
LetterboxInBreaks: 1
EpilepsyWarning: 1
WidescreenStoryboard: 1

[Editor]
Bookmarks: 21337,42670,53337,64003,74670,85337,90670,101337,112003,122670,133337,144003,154670,157337,168003,178670,189337,200003,210670
DistanceSpacing: 1.4
BeatDivisor: 4
GridSize: 4
TimelineZoom: 1

[Metadata]
Title:Fire Aura
TitleUnicode:Fire Aura
Artist:Kid2Will
ArtistUnicode:Kid2Will
Creator:eeezzzeee
Version:Insane
Source:Newgrounds
Tags:Impossible Game
BeatmapID:384316
BeatmapSetID:156904

[Difficulty]
HPDrainRate:7
CircleSize:4
OverallDifficulty:8
ApproachRate:9
SliderMultiplier:1.9
SliderTickRate:1

[Events]
//Background and Video events
0,0,"defaultbg.jpg",0,0
//Break Periods
2,4203,7070
2,10703,12403
2,14870,17737
2,122786,132737
2,157537,167403
//Storyboard Layer 0 (Background)
//Storyboard Layer 1 (Fail)
//Storyboard Layer 2 (Pass)
//Storyboard Layer 3 (Foreground)
//Storyboard Sound Samples
//Background Colour Transformations
3,100,0,0,0

[TimingPoints]
4,333.333333333333,4,2,0,100,1,0
1337,-200,4,2,0,100,0,0
21337,-111.111111111111,4,2,0,100,0,0
42670,-100,4,2,0,100,0,0
53337,-125,4,2,0,100,0,0
54670,-166.666666666667,4,2,0,100,0,0
58670,-125,4,2,0,100,0,0
60003,-166.666666666667,4,2,0,100,0,0
62670,-125,4,2,0,100,0,0
64003,-111.111111111111,4,2,0,100,0,1
74670,-100,4,2,0,100,0,1
85337,-100,4,2,0,100,0,0
89337,-200,4,2,0,100,0,0
90670,-111.111111111111,4,2,0,100,0,0
101003,-76.9230769230769,4,2,0,100,0,0
101170,-66.6666666666667,4,2,0,100,0,0
101337,-125,4,2,0,100,0,0
112003,-100,4,2,0,100,0,1
121670,-90.9090909090909,4,2,0,100,0,1
121837,-83.3333333333333,4,2,0,100,0,1
122170,-76.9230769230769,4,2,0,100,0,1
122503,-66.6666666666667,4,2,0,100,0,1
122670,-100,4,2,0,100,0,0
133337,-166.666666666667,4,2,0,100,0,0
144003,-111.111111111111,4,2,0,100,0,0
149337,-142.857142857143,4,2,0,100,0,0
168003,-166.666666666667,4,2,0,100,0,0
178670,-111.111111111111,4,2,0,100,0,1
189337,-100,4,2,0,100,0,1
200003,-90.9090909090909,4,2,0,100,0,1
205337,-83.3333333333333,4,2,0,100,0,1
209670,-66.6666666666667,4,2,0,100,0,0

[Colours]
Combo1 : 128,255,191
Combo2 : 128,255,255
Combo3 : 255,128,255
Combo4 : 255,128,128

[HitObjects]
136,148,2337,5,0,0:0:0:0:
152,128,2503,1,0,0:0:0:0:
152,100,2670,1,0,0:0:0:0:
420,240,4003,1,0,0:0:0:0:
428,56,7670,5,0,0:0:0:0:
428,56,7837,2,0,L|388:96,1,47.5
112,248,9170,6,0,L|72:200,1,47.5
208,136,9670,1,0,0:0:0:0:
240,176,10003,1,0,0:0:0:0:
396,204,10170,1,0,0:0:0:0:
300,264,10337,1,0,0:0:0:0:
324,72,10503,1,0,0:0:0:0:
432,272,13003,5,0,0:0:0:0:
408,284,13170,1,0,0:0:0:0:
376,272,13337,1,0,0:0:0:0:
332,64,14670,1,0,0:0:0:0:
96,84,18337,5,0,0:0:0:0:
60,144,18503,1,0,0:0:0:0:
96,208,18670,1,0,0:0:0:0:
324,80,19337,2,0,L|260:108,1,47.5
192,276,19837,2,0,L|248:296,1,47.5
292,140,20337,5,0,0:0:0:0:
316,244,20503,1,0,0:0:0:0:
408,96,20670,1,0,0:0:0:0:
260,32,20837,1,0,0:0:0:0:
232,28,20920,1,0,0:0:0:0:
200,28,21003,1,0,0:0:0:0:
168,28,21087,1,0,0:0:0:0:
140,32,21170,1,0,0:0:0:0:
116,168,21337,6,0,L|56:156,1,42.7499986953736
120,272,21670,2,0,L|208:252,1,85.4999973907472,0|0,0:0|0:0,0:0:0:0:
388,208,22003,2,0,B|340:236|336:276|336:276|300:308,1,128.249996086121
300,308,22337,1,0,0:0:0:0:
348,100,22503,1,0,0:0:0:0:
452,140,22670,5,0,0:0:0:0:
468,172,22753,1,0,0:0:0:0:
476,204,22837,1,0,0:0:0:0:
392,256,23003,1,0,0:0:0:0:
400,288,23087,1,0,0:0:0:0:
416,320,23170,1,0,0:0:0:0:
348,332,23337,2,0,L|252:300,1,85.4999973907472
256,244,23670,2,0,L|192:180,1,85.4999973907472
348,100,24003,5,0,0:0:0:0:
128,64,24337,1,0,0:0:0:0:
128,64,24503,2,0,P|92:92|84:132,1,85.4999973907472
176,172,24837,1,0,0:0:0:0:
100,240,25003,2,0,P|128:272|172:276,1,85.4999973907472
256,240,25337,5,0,0:0:0:0:
256,240,25420,1,0,0:0:0:0:
256,240,25503,1,0,0:0:0:0:
344,308,25670,1,0,0:0:0:0:
344,308,25753,1,0,0:0:0:0:
344,308,25837,2,0,L|416:232,1,85.4999973907472
220,320,26337,1,0,0:0:0:0:
384,80,26670,5,0,0:0:0:0:
364,212,27003,1,0,0:0:0:0:
220,136,27170,1,0,0:0:0:0:
72,180,27337,2,0,P|56:124|76:44,1,128.249996086121
72,49,27670,1,0,0:0:0:0:
220,136,27837,1,0,0:0:0:0:
240,248,28003,6,0,L|272:276,2,42.7499986953736
144,248,28337,1,0,0:0:0:0:
140,276,28420,1,0,0:0:0:0:
124,296,28503,1,0,0:0:0:0:
204,328,28670,2,0,L|288:296,1,85.4999973907472
340,320,29003,2,0,L|360:228,1,85.4999973907472
396,72,29337,5,0,0:0:0:0:
260,104,29670,2,0,L|216:88,1,42.7499986953736
196,136,29837,2,0,L|144:120,1,42.7499986953736
160,192,30003,1,0,0:0:0:0:
128,280,30170,2,0,P|156:320|204:332,1,85.4999973907472
276,296,30503,1,0,0:0:0:0:
384,232,30670,5,0,0:0:0:0:
392,228,30753,2,0,L|436:184,1,42.7499986953736
396,120,31003,1,0,0:0:0:0:
392,112,31086,2,0,L|416:56,1,42.7499986953736
300,36,31337,1,0,0:0:0:0:
256,180,31670,1,0,0:0:0:0:
112,248,32003,5,0,0:0:0:0:
200,144,32337,1,0,0:0:0:0:
144,32,32503,1,0,0:0:0:0:
260,88,32670,2,0,P|280:192|312:232,1,128.249996086121
304,216,33003,2,0,P|368:164|372:128,1,85.4999973907472
408,48,33337,5,0,0:0:0:0:
380,40,33420,1,0,0:0:0:0:
360,40,33503,2,0,L|256:72,1,85.4999973907472
264,80,33753,1,0,0:0:0:0:
248,96,33837,2,0,P|180:116|128:108,1,85.4999973907472
368,228,34337,1,0,0:0:0:0:
368,228,34670,5,0,0:0:0:0:
112,216,35003,1,0,0:0:0:0:
172,288,35170,1,0,0:0:0:0:
312,160,35337,2,0,L|256:96,1,85.4999973907472
168,108,35670,2,0,L|224:172,1,85.4999973907472
300,288,36003,6,0,L|260:304,1,42.7499986953736
320,312,36170,2,0,P|360:332|416:332,1,85.4999973907472
424,320,36420,1,0,0:0:0:0:
448,332,36503,2,0,P|460:288|444:236,1,85.4999973907472
340,152,37003,1,0,0:0:0:0:
112,60,37337,5,0,0:0:0:0:
196,244,37670,1,0,0:0:0:0:
360,308,37837,1,0,0:0:0:0:
284,256,38003,2,0,B|268:188|268:188|236:172|220:108,1,128.249996086121
229,137,38337,1,0,0:0:0:0:
312,56,38503,1,0,0:0:0:0:
420,128,38670,6,0,L|448:168,1,42.7499986953736
436,180,38837,2,0,B|452:220|452:220|460:284,1,85.4999973907472
448,288,39087,1,0,0:0:0:0:
428,308,39170,2,0,B|408:324|408:324|344:332,1,85.4999973907472
288,208,39670,2,0,L|196:176,1,85.4999973907472
256,192,39920,12,0,41170,0:0:0:0:
256,192,41253,12,0,42503,0:0:0:0:
112,96,42670,6,0,L|200:60,1,95
288,88,43003,1,0,0:0:0:0:
376,244,43170,2,0,L|288:208,1,95
200,236,43503,1,0,0:0:0:0:
312,336,43670,1,0,0:0:0:0:
76,236,43837,1,0,0:0:0:0:
200,236,44003,5,0,0:0:0:0:
380,224,44170,2,0,B|380:172|380:172|336:132,1,95
303,75,44503,2,0,B|271:103|271:103|271:155,1,95
452,168,44836,1,0,0:0:0:0:
380,264,45003,1,0,0:0:0:0:
228,48,45170,1,0,0:0:0:0:
216,56,45253,1,0,0:0:0:0:
208,68,45337,6,0,P|200:116|216:164,1,95
380,224,45670,1,0,0:0:0:0:
212,276,45837,2,0,P|164:284|116:268,2,95
224,284,46337,1,0,0:0:0:0:
360,48,46503,1,0,0:0:0:0:
304,96,46670,6,0,L|280:196,1,95
288,200,47003,1,0,0:0:0:0:
364,168,47170,2,0,L|388:268,1,95
384,268,47420,1,0,0:0:0:0:
380,276,47503,1,0,0:0:0:0:
288,308,47670,1,0,0:0:0:0:
272,296,47753,1,0,0:0:0:0:
248,280,47837,1,0,0:0:0:0:
216,256,47920,1,0,0:0:0:0:
176,224,48003,5,0,0:0:0:0:
80,80,48170,2,0,B|120:68|120:68|152:60|176:28,1,95
260,24,48503,1,0,0:0:0:0:
364,168,48670,1,0,0:0:0:0:
284,196,48837,1,0,0:0:0:0:
364,80,49003,1,0,0:0:0:0:
452,288,49170,1,0,0:0:0:0:
356,280,49337,6,0,P|348:232|316:176,1,95
200,144,49670,1,0,0:0:0:0:
316,48,49837,1,0,0:0:0:0:
328,192,50003,2,0,P|285:212|238:220,1,95,0|0,0:0|0:0,0:0:0:0:
84,224,50337,1,0,0:0:0:0:
224,40,50503,1,0,0:0:0:0:
224,40,50587,1,0,0:0:0:0:
224,40,50670,6,0,L|268:136,1,95
308,272,51003,1,0,0:0:0:0:
412,164,51170,1,0,0:0:0:0:
264,128,51337,1,0,0:0:0:0:
412,164,51503,1,0,0:0:0:0:
308,272,51670,1,0,0:0:0:0:
364,52,51837,1,0,0:0:0:0:
292,108,52003,6,0,P|248:140|176:144,1,95
360,216,52337,1,0,0:0:0:0:
224,216,52503,1,0,0:0:0:0:
112,292,52670,1,0,0:0:0:0:
108,284,52753,1,0,0:0:0:0:
108,276,52837,1,0,0:0:0:0:
136,176,53003,1,0,0:0:0:0:
148,164,53087,1,0,0:0:0:0:
172,148,53170,1,0,0:0:0:0:
208,132,53253,1,0,0:0:0:0:
256,128,53337,6,0,B|308:128|324:188|388:200,1,152
360,232,53753,2,0,B|296:196|388:132|312:64,1,152
328,84,54170,1,0,0:0:0:0:
248,48,54337,2,0,P|200:40|160:56,1,76
96,112,54670,6,0,B|84:172|228:160|140:304|196:312,1,227.999993041992
260,308,55503,1,0,0:0:0:0:
380,332,55670,1,0,0:0:0:0:
432,156,55837,1,0,0:0:0:0:
412,164,55920,1,0,0:0:0:0:
392,180,56003,6,0,B|296:248|296:248|212:248|176:220|176:220,1,227.999993041992
148,168,56837,1,0,0:0:0:0:
264,152,57003,1,0,0:0:0:0:
96,316,57170,1,0,0:0:0:0:
196,324,57337,6,0,B|288:272|212:168|308:116,1,227.999993041992
304,124,58087,1,0,0:0:0:0:
316,124,58170,1,0,0:0:0:0:
416,68,58337,1,0,0:0:0:0:
404,60,58420,1,0,0:0:0:0:
376,48,58503,1,0,0:0:0:0:
336,40,58587,1,0,0:0:0:0:
288,40,58670,6,0,B|224:60|224:60|156:144,1,152
204,136,59087,2,0,B|228:184|228:184|228:232|228:232|260:288,1,152
284,256,59503,1,0,0:0:0:0:
376,320,59670,2,0,L|412:248,1,76
452,116,60003,6,0,B|368:116|312:164|312:164|280:236,1,227.999993041992
216,216,60837,1,0,0:0:0:0:
160,104,61003,1,0,0:0:0:0:
92,280,61170,1,0,0:0:0:0:
96,300,61253,1,0,0:0:0:0:
108,312,61337,6,0,B|164:300|224:240|224:240|276:268|276:268|324:296,1,227.999993041992
368,300,62170,1,0,0:0:0:0:
328,212,62337,1,0,0:0:0:0:
424,68,62503,1,0,0:0:0:0:
304,48,62670,6,0,P|252:64|212:112,1,114
220,124,63003,2,0,P|196:176|108:236,1,152
112,232,63420,1,0,0:0:0:0:
104,228,63503,1,0,0:0:0:0:
148,328,63670,2,0,L|104:344,2,38
168,312,63920,1,0,0:0:0:0:
188,284,64003,6,0,L|224:196,1,85.4999973907472
316,256,64337,2,0,L|380:176,1,85.4999973907472
312,88,64670,1,0,0:0:0:0:
200,28,64837,2,0,P|148:20|92:52,1,85.4999973907472
72,292,65337,5,0,0:0:0:0:
351,214,65670,2,0,L|328:132,1,85.4999973907472
376,52,66003,1,0,0:0:0:0:
440,105,66170,2,0,L|464:188,1,85.4999973907472
416,268,66503,1,0,0:0:0:0:
416,268,66587,1,0,0:0:0:0:
416,268,66670,6,0,B|376:300|376:300|316:296,1,85.4999973907472
200,236,67003,2,0,B|165:233|165:233|125:265,1,85.4999973907472
188,304,67337,1,0,0:0:0:0:
288,328,67503,2,0,P|324:292|336:240,1,85.4999973907472
328,48,68003,5,0,0:0:0:0:
76,268,68337,1,0,0:0:0:0:
156,136,68503,1,0,0:0:0:0:
192,252,68670,1,0,0:0:0:0:
212,252,68753,1,0,0:0:0:0:
232,252,68837,1,0,0:0:0:0:
272,184,69003,1,0,0:0:0:0:
292,184,69086,1,0,0:0:0:0:
312,184,69170,1,0,0:0:0:0:
364,316,69337,6,0,P|384:276|368:200,1,85.4999973907472
344,128,69670,2,0,P|324:88|340:12,1,85.4999973907472
444,48,70003,1,0,0:0:0:0:
460,172,70170,2,0,P|432:216|384:240,1,85.4999973907472
100,260,70670,5,0,0:0:0:0:
176,84,71003,1,0,0:0:0:0:
236,184,71170,2,0,L|260:92,1,85.4999973907472
320,120,71503,2,0,L|292:32,1,85.4999973907472
428,220,71837,1,0,0:0:0:0:
420,236,71920,1,0,0:0:0:0:
408,248,72003,6,0,P|364:280|308:280,1,85.4999973907472
144,280,72337,1,0,0:0:0:0:
236,184,72503,1,0,0:0:0:0:
144,280,72670,1,0,0:0:0:0:
64,164,72837,2,0,P|80:120|120:92,1,85.4999973907472
388,32,73337,5,0,0:0:0:0:
384,200,73670,2,0,P|360:240|308:264,1,85.4999973907472
312,192,74003,2,0,L|272:168,2,42.7499986953736
368,120,74337,1,0,0:0:0:0:
360,108,74420,1,0,0:0:0:0:
340,88,74503,1,0,0:0:0:0:
308,64,74587,1,0,0:0:0:0:
256,56,74670,6,0,L|272:104,1,47.5
292,136,74837,2,0,L|248:232,1,95
148,248,75170,2,0,L|192:152,1,95
136,80,75503,2,0,L|92:176,1,95
28,204,75837,1,0,0:0:0:0:
176,328,76003,5,0,0:0:0:0:
176,328,76087,1,0,0:0:0:0:
176,328,76170,2,0,P|228:312|264:268,1,95
400,248,76503,2,0,P|384:196|340:160,1,95
336,40,76837,2,0,P|284:56|248:100,1,95
112,120,77170,2,0,L|72:84,2,47.5
116,144,77420,5,0,0:0:0:0:
120,168,77503,2,0,B|136:216|136:216|172:252,1,95
344,247,77837,2,0,B|376:216|376:216|392:168,1,95
304,56,78170,2,0,B|252:48|252:48|208:64,1,95,0|0,0:0|0:0,0:0:0:0:
256,184,78503,1,0,0:0:0:0:
280,332,78670,5,0,0:0:0:0:
268,324,78753,1,0,0:0:0:0:
256,316,78837,2,0,L|160:248,1,95
256,184,79170,2,0,L|352:116,1,95
256,56,79503,2,0,L|178:1,1,95
176,32,79753,2,0,L|128:40,1,47.5
156,76,79920,2,0,L|108:104,1,47.5
148,128,80087,5,0,0:0:0:0:
148,148,80170,2,0,P|172:204|208:224,1,95
132,272,80503,2,0,P|200:288|240:268,1,95
204,360,80837,2,0,P|260:336|280:300,1,95
312,80,81170,1,0,0:0:0:0:
424,144,81337,5,0,0:0:0:0:
424,144,81420,1,0,0:0:0:0:
424,144,81503,2,0,L|456:256,1,95
300,196,81837,2,0,L|300:312,1,95
180,244,82170,2,0,L|148:356,1,95
52,296,82503,1,0,0:0:0:0:
48,284,82587,1,0,0:0:0:0:
48,268,82670,5,0,0:0:0:0:
52,252,82753,1,0,0:0:0:0:
60,236,82837,2,0,P|76:204|60:144,1,95
204,48,83170,2,0,P|236:64|296:48,1,95
424,148,83503,2,0,P|410:192|427:235,1,95
256,320,83837,1,0,0:0:0:0:
256,184,84003,5,0,0:0:0:0:
256,204,84087,1,0,0:0:0:0:
256,224,84170,2,0,L|256:336,1,95
88,184,84503,2,0,L|188:88,1,95
424,184,84837,2,0,L|355:249,1,95
156,249,85170,1,0,0:0:0:0:
256,340,85337,5,0,0:0:0:0:
340,296,85670,1,0,0:0:0:0:
392,216,86003,1,0,0:0:0:0:
388,120,86337,1,0,0:0:0:0:
256,340,86670,5,0,0:0:0:0:
296,236,87003,1,0,0:0:0:0:
300,120,87337,1,0,0:0:0:0:
236,28,87670,1,0,0:0:0:0:
152,200,87837,1,0,0:0:0:0:
256,340,88003,5,0,0:0:0:0:
224,212,88337,1,0,0:0:0:0:
144,108,88670,1,0,0:0:0:0:
28,44,89003,1,0,0:0:0:0:
64,168,89337,6,0,B|96:196|96:196|128:172|128:172|160:196|160:196|192:172|192:172|224:196|224:196|256:172|256:172|288:196|288:196|320:172|320:172|352:196,1,356.25
356,200,90670,6,0,L|412:304,1,85.4999973907472
296,316,91003,1,0,0:0:0:0:
176,260,91170,2,0,L|100:300,1,85.4999973907472
144,144,91503,1,0,0:0:0:0:
232,76,91670,2,0,P|312:64|420:92,1,170.999994781494
444,184,92170,5,0,0:0:0:0:
396,92,92337,1,0,0:0:0:0:
256,156,92503,1,0,0:0:0:0:
176,260,92670,1,0,0:0:0:0:
120,52,92837,1,0,0:0:0:0:
252,64,93003,2,0,L|268:160,1,85.4999973907472
260,156,93253,1,0,0:0:0:0:
256,164,93337,6,0,B|248:204|248:204|240:236|256:256,1,85.4999973907472
360,328,93670,2,0,B|336:288|336:288|340:260|372:240,1,85.4999973907472
336,124,94003,1,0,0:0:0:0:
176,124,94170,1,0,0:0:0:0:
252,64,94337,2,0,B|268:104|268:104|248:176,1,85.4999973907472
312,252,94670,6,0,L|272:336,1,85.4999973907472
184,248,95003,2,0,L|144:164,1,85.4999973907472
148,160,95253,1,0,0:0:0:0:
148,148,95337,1,0,0:0:0:0:
232,68,95503,1,0,0:0:0:0:
244,60,95587,1,0,0:0:0:0:
272,52,95670,1,0,0:0:0:0:
312,48,95753,1,0,0:0:0:0:
360,56,95837,1,0,0:0:0:0:
412,84,95920,1,0,0:0:0:0:
456,132,96003,6,0,P|476:188|456:268,1,128.249996086121
456,260,96337,1,0,0:0:0:0:
336,200,96503,2,0,P|292:188|240:216,1,85.4999973907472
184,300,96837,1,0,0:0:0:0:
68,208,97003,2,0,B|112:168|76:88|136:32,1,170.999994781494
276,104,97503,5,0,0:0:0:0:
368,240,97670,1,0,0:0:0:0:
216,180,97837,1,0,0:0:0:0:
372,140,98003,1,0,0:0:0:0:
268,264,98170,2,0,L|308:184,1,85.4999973907472
416,60,98503,1,0,0:0:0:0:
404,48,98587,1,0,0:0:0:0:
388,40,98670,5,0,0:0:0:0:
236,32,98837,2,0,P|196:32|144:60,1,85.4999973907472
232,144,99170,1,0,0:0:0:0:
224,264,99337,2,0,P|266:263|304:245,1,85.4999973907472
392,124,99670,2,0,B|440:144|440:144|456:176,1,85.4999973907472
352,196,100003,6,0,L|264:156,1,85.4999973907472
184,168,100337,2,0,L|153:218,3,42.7499986953736
132,136,100671,2,0,L|91:121,3,42.7499986953736
180,92,101003,2,0,L|256:36,1,61.7499971733095
288,92,101170,2,0,L|340:0,1,71.2500027179719
324,136,101337,6,0,B|348:192|348:192|332:264|368:304,1,152
264,268,101837,1,0,0:0:0:0:
268,260,102003,1,0,0:0:0:0:
424,232,102170,1,0,0:0:0:0:
324,136,102337,2,0,B|280:88|280:88|220:64,1,114
240,100,102670,6,0,P|176:100|104:52,1,152
192,32,103170,1,0,0:0:0:0:
128,188,103337,2,0,P|140:236|172:268,1,76
232,196,103670,1,0,0:0:0:0:
332,116,103837,1,0,0:0:0:0:
336,124,103920,1,0,0:0:0:0:
340,136,104003,6,0,B|392:184|324:256|412:292,1,152
304,332,104503,1,0,0:0:0:0:
196,276,104670,1,0,0:0:0:0:
116,176,104837,2,0,P|172:164|196:132,1,76
248,40,105170,1,0,0:0:0:0:
120,48,105337,6,0,L|272:128,1,152
400,116,105837,2,0,B|408:160|408:160|384:208,1,76
388,196,106087,1,0,0:0:0:0:
380,204,106170,1,0,0:0:0:0:
268,252,106337,2,0,L|236:224,3,38
208,272,106670,6,0,B|148:224|148:224|116:136,1,152
256,64,107170,1,0,0:0:0:0:
128,148,107337,1,0,0:0:0:0:
264,56,107503,1,0,0:0:0:0:
344,136,107670,2,0,P|372:208|368:260,1,114
392,244,108003,6,0,B|360:288|360:288|320:312|240:308,1,152
132,256,108503,1,0,0:0:0:0:
127,147,108670,2,0,P|92:132|68:104,1,76
148,60,109003,2,0,P|183:75|207:103,1,76
212,112,109253,1,0,0:0:0:0:
216,120,109337,6,0,P|240:192|296:240,1,152
428,256,109837,1,0,0:0:0:0:
328,168,110003,1,0,0:0:0:0:
260,312,110170,1,0,0:0:0:0:
132,308,110337,2,0,P|137:270|159:240,1,76
228,216,110670,5,0,0:0:0:0:
340,236,111003,1,0,0:0:0:0:
352,224,111087,1,0,0:0:0:0:
360,208,111170,1,0,0:0:0:0:
364,188,111253,1,0,0:0:0:0:
388,168,111337,5,0,0:0:0:0:
380,152,111421,1,0,0:0:0:0:
368,136,111504,1,0,0:0:0:0:
352,124,111587,1,0,0:0:0:0:
364,96,111670,5,0,0:0:0:0:
348,84,111753,1,0,0:0:0:0:
328,76,111837,1,0,0:0:0:0:
308,72,111920,1,0,0:0:0:0:
304,44,112003,6,0,B|260:32|200:44,1,95
196,168,112337,1,0,0:0:0:0:
172,300,112503,2,0,B|216:312|276:300,1,95,0|0,0:0|0:0,0:0:0:0:
436,184,113003,2,0,B|448:140|436:80,1,95,0|0,0:0|0:0,0:0:0:0:
356,144,113337,5,0,0:0:0:0:
276,232,113503,1,0,0:0:0:0:
144,264,113670,1,0,0:0:0:0:
276,232,113837,2,0,L|204:156,1,95
152,24,114337,1,0,0:0:0:0:
264,56,114503,2,0,L|308:28,1,47.5
284,80,114670,6,0,P|332:116|372:180,1,95
360,264,115003,2,0,P|312:228|272:164,1,95
128,192,115337,2,0,P|155:153|192:124,1,95
136,309,115670,2,0,P|172:278|200:240,1,95
120,200,116003,5,0,0:0:0:0:
72,88,116170,1,0,0:0:0:0:
288,152,116337,1,0,0:0:0:0:
356,68,116504,1,0,0:0:0:0:
448,200,116670,2,0,L|476:148,2,47.5
352,276,117003,1,0,0:0:0:0:
340,288,117087,1,0,0:0:0:0:
316,300,117170,1,0,0:0:0:0:
276,308,117253,1,0,0:0:0:0:
228,304,117337,5,0,0:0:0:0:
100,256,117503,2,0,B|116:212|116:212|84:144,1,95
88,156,117837,1,0,0:0:0:0:
232,80,118003,1,0,0:0:0:0:
428,272,118337,1,0,0:0:0:0:
288,192,118503,1,0,0:0:0:0:
436,88,118670,6,0,B|404:68|404:68|364:60|304:84,1,95
256,108,119003,1,0,0:0:0:0:
172,160,119170,2,0,B|140:180|140:180|100:188|40:164,1,95
264,280,119670,1,0,0:0:0:0:
368,240,119837,1,0,0:0:0:0:
372,224,119920,1,0,0:0:0:0:
376,208,120003,6,0,L|316:108,1,95
260,196,120337,2,0,L|211:114,1,95
100,92,120670,2,0,L|148:173,1,95
212,276,121003,2,0,L|260:194,1,95
376,208,121337,6,0,B|404:168|404:168|392:112,1,95
328,56,121670,2,0,L|336:-4,1,52.2500015945435
276,84,121837,2,0,L|256:16,1,56.9999982604981
252,140,122003,2,0,L|192:92,1,56.9999982604981
256,204,122170,2,0,L|172:196,1,61.7499971733095
300,256,122337,2,0,L|236:312,1,61.7499971733095
368,280,122503,2,0,L|344:352,1,71.2500027179719
256,184,133337,5,0,0:0:0:0:
357,126,133503,2,0,L|340:104,2,28.4999991302491
172,104,133837,2,0,L|154:126,2,28.4999991302491
154,241,134170,2,0,L|172:264,2,28.4999991302491
340,264,134503,2,0,L|368:228,1,28.4999991302491
368,228,134670,6,0,B|400:172|468:108|344:28,1,227.999993041992
248,60,135503,1,0,0:0:0:0:
304,140,135670,1,0,0:0:0:0:
160,256,135837,1,0,0:0:0:0:
144,252,135920,1,0,0:0:0:0:
128,244,136003,6,0,B|104:156|104:156|100:88|184:24,1,227.999993041992
292,80,136837,1,0,0:0:0:0:
396,48,137003,1,0,0:0:0:0:
416,236,137170,2,0,L|452:204,1,28.4999991302491
404,248,137337,6,0,L|168:268,1,227.999993041992
168,264,138087,1,0,0:0:0:0:
156,260,138170,1,0,0:0:0:0:
60,156,138337,1,0,0:0:0:0:
64,140,138420,1,0,0:0:0:0:
72,112,138503,1,0,0:0:0:0:
92,72,138587,1,0,0:0:0:0:
124,32,138670,5,0,0:0:0:0:
264,52,138837,1,0,0:0:0:0:
264,52,138920,2,0,L|308:36,1,28.4999991302491
340,124,139170,1,0,0:0:0:0:
340,124,139253,1,0,0:0:0:0:
340,124,139337,1,0,0:0:0:0:
404,208,139503,1,0,0:0:0:0:
404,208,139587,2,0,L|440:204,1,28.4999991302491
400,308,139837,1,0,0:0:0:0:
400,308,139920,1,0,0:0:0:0:
400,308,140003,6,0,P|292:284|188:224,1,227.999993041992
92,144,140837,1,0,0:0:0:0:
160,52,141003,1,0,0:0:0:0:
348,136,141170,1,0,0:0:0:0:
336,148,141253,1,0,0:0:0:0:
324,164,141337,6,0,B|280:200|256:248|256:248|152:308,1,227.999993041992
56,244,142170,1,0,0:0:0:0:
208,200,142337,1,0,0:0:0:0:
344,248,142503,1,0,0:0:0:0:
420,80,142670,5,0,0:0:0:0:
312,116,142837,1,0,0:0:0:0:
296,140,142920,1,0,0:0:0:0:
276,164,143003,1,0,0:0:0:0:
204,140,143170,1,0,0:0:0:0:
188,164,143253,1,0,0:0:0:0:
168,192,143337,2,0,L|128:248,1,56.9999982604981
188,316,143670,1,0,0:0:0:0:
204,312,143753,1,0,0:0:0:0:
236,308,143837,1,0,0:0:0:0:
276,312,143920,1,0,0:0:0:0:
320,328,144003,5,0,0:0:0:0:
444,180,144337,2,0,P|420:136|336:88,1,128.249996086121
344,96,144670,1,0,0:0:0:0:
232,200,144837,2,0,L|116:272,1,128.249996086121
116,268,145170,1,0,0:0:0:0:
184,92,145337,5,0,0:0:0:0:
444,256,145670,1,0,0:0:0:0:
185,311,146003,2,0,P|111:271|88:192,1,170.999994781494
300,240,146503,1,0,0:0:0:0:
304,228,146587,1,0,0:0:0:0:
308,216,146670,6,0,L|276:96,1,85.4999973907472
120,80,147003,2,0,B|116:152|116:152|140:200|124:276,1,170.999994781494
240,192,147587,1,0,0:0:0:0:
240,184,147670,2,0,L|312:128,1,85.4999973907472
440,172,148003,5,0,0:0:0:0:
248,300,148337,2,0,P|196:296|112:228,1,128.249996086121
128,248,148670,1,0,0:0:0:0:
124,240,148753,2,0,L|88:168,1,42.7499986953736
240,192,149003,2,0,L|288:168,3,42.7499986953736
224,136,149337,6,0,P|252:92|324:48,1,132.999995941162
420,84,149837,1,0,0:0:0:0:
356,244,150003,2,0,P|256:260|160:224,1,199.499993911743
156,216,150587,1,0,0:0:0:0:
148,204,150670,6,0,B|112:144|112:144|136:100|168:88,1,132.999995941162
280,156,151170,1,0,0:0:0:0:
420,84,151337,2,0,P|324:40|232:40,1,199.499993911743
224,52,151920,1,0,0:0:0:0:
216,64,152003,6,0,L|128:192,1,132.999995941162
92,76,152503,1,0,0:0:0:0:
140,184,152670,2,0,B|232:248|232:248|272:224|344:236,1,199.499993911743
328,236,153253,1,0,0:0:0:0:
404,276,153337,6,0,L|448:248,1,33.2499989852906
392,200,153503,2,0,L|428:120,1,66.4999979705811
348,96,153837,1,0,0:0:0:0:
256,184,154003,1,0,0:0:0:0:
256,48,154170,2,0,L|192:80,1,66.4999979705811
256,192,154420,12,0,157337,0:0:0:0:
352,44,168003,5,0,0:0:0:0:
200,48,168170,1,0,0:0:0:0:
172,64,168253,1,0,0:0:0:0:
152,88,168337,1,0,0:0:0:0:
72,192,168503,1,0,0:0:0:0:
72,192,168587,1,0,0:0:0:0:
72,192,168670,1,0,0:0:0:0:
188,292,168837,1,0,0:0:0:0:
212,296,168921,1,0,0:0:0:0:
236,312,169004,1,0,0:0:0:0:
376,316,169170,2,0,L|424:328,1,28.4999991302491
396,288,169337,6,0,B|324:196|324:196|228:120,1,227.999993041992
160,192,170170,1,0,0:0:0:0:
144,284,170337,1,0,0:0:0:0:
364,304,170503,1,0,0:0:0:0:
380,296,170587,1,0,0:0:0:0:
396,288,170670,6,0,B|376:176|376:176|320:72,1,227.999993041992
368,12,171503,1,0,0:0:0:0:
272,140,171670,1,0,0:0:0:0:
448,232,171837,1,0,0:0:0:0:
400,288,172003,6,0,B|288:232|288:232|180:208,1,227.999993041992
180,216,172753,1,0,0:0:0:0:
172,224,172837,1,0,0:0:0:0:
100,312,173003,2,0,L|128:352,4,28.4999991302491
76,196,173503,6,0,L|72:152,1,28.4999991302491
76,156,173670,1,0,0:0:0:0:
188,112,173837,2,0,L|204:80,2,28.4999991302491
340,96,174170,2,0,L|384:80,1,28.4999991302491
376,92,174337,1,0,0:0:0:0:
464,172,174503,2,0,L|508:172,1,28.4999991302491
440,192,174670,6,0,B|436:272|408:296|408:296|284:328,1,227.999993041992,0|0,0:0|0:0,0:0:0:0:
196,312,175503,1,0,0:0:0:0:
328,248,175670,1,0,0:0:0:0:
128,160,175837,1,0,0:0:0:0:
120,176,175920,1,0,0:0:0:0:
116,188,176003,6,0,P|212:240|304:344,1,227.999993041992
328,248,176837,1,0,0:0:0:0:
444,124,177003,1,0,0:0:0:0:
272,140,177170,1,0,0:0:0:0:
248,36,177337,6,0,P|196:56|160:96,1,85.4999973907472
168,84,177670,2,0,P|156:128|168:208,1,113.999996520996
168,208,178087,1,0,0:0:0:0:
176,220,178170,1,0,0:0:0:0:
224,316,178337,1,0,0:0:0:0:
240,316,178420,1,0,0:0:0:0:
272,304,178503,1,0,0:0:0:0:
312,280,178587,1,0,0:0:0:0:
352,248,178670,5,0,0:0:0:0:
468,128,178837,1,0,0:0:0:0:
468,128,179003,2,0,L|400:72,1,85.4999973907472
312,156,179337,1,0,0:0:0:0:
184,272,179503,2,0,L|272:252,1,85.4999973907472
92,48,180003,5,0,0:0:0:0:
248,192,180337,2,0,P|272:156|272:104,1,85.4999973907472
184,272,180670,1,0,0:0:0:0:
344,312,180837,2,0,P|388:288|412:248,1,85.4999973907472
172,340,181170,1,0,0:0:0:0:
156,336,181253,1,0,0:0:0:0:
144,328,181337,6,0,B|112:296|112:296|96:224,1,85.4999973907472
224,212,181670,2,0,B|215:172|215:172|183:140,1,85.4999973907472
288,56,182003,1,0,0:0:0:0:
428,124,182170,2,0,L|476:232,1,85.4999973907472
184,272,182670,5,0,0:0:0:0:
96,124,183003,2,0,L|200:124,1,85.4999973907472
356,128,183337,1,0,0:0:0:0:
356,128,183420,1,0,0:0:0:0:
356,128,183503,1,0,0:0:0:0:
436,260,183670,1,0,0:0:0:0:
436,260,183753,1,0,0:0:0:0:
436,260,183837,1,0,0:0:0:0:
436,260,183920,1,0,0:0:0:0:
436,260,184003,6,0,L|324:228,1,85.4999973907472
356,128,184337,2,0,L|308:36,1,85.4999973907472
432,32,184670,1,0,0:0:0:0:
472,124,184837,1,0,0:0:0:0:
296,288,185003,1,0,0:0:0:0:
296,288,185337,5,0,0:0:0:0:
88,208,185670,2,0,P|72:148|96:92,1,85.4999973907472
216,76,186003,1,0,0:0:0:0:
388,104,186170,2,0,L|476:124,2,85.4999973907472
376,104,186587,1,0,0:0:0:0:
364,104,186670,6,0,P|324:132|288:172,1,85.4999973907472
248,312,187003,2,0,P|283:287|313:257,1,85.4999973907472,0|0,0:0|0:0,0:0:0:0:
164,236,187337,1,0,0:0:0:0:
72,104,187503,2,0,P|148:116|176:136,1,85.4999973907472
76,304,188003,5,0,0:0:0:0:
164,236,188337,1,0,0:0:0:0:
388,144,188503,1,0,0:0:0:0:
332,60,188670,2,0,L|312:16,2,42.7499986953736
244,52,189003,1,0,0:0:0:0:
224,52,189087,1,0,0:0:0:0:
200,52,189170,1,0,0:0:0:0:
160,52,189253,1,0,0:0:0:0:
112,52,189337,6,0,L|156:156,1,95
152,296,189670,2,0,L|280:324,1,95
368,240,190003,1,0,0:0:0:0:
444,48,190170,2,0,L|368:136,1,95
200,136,190670,5,0,0:0:0:0:
104,212,191003,1,0,0:0:0:0:
272,320,191170,2,0,P|328:304|368:264,1,95
436,132,191503,1,0,0:0:0:0:
304,24,191670,1,0,0:0:0:0:
276,192,191837,1,0,0:0:0:0:
264,200,191920,1,0,0:0:0:0:
252,208,192003,6,0,B|208:224|208:224|144:188,1,95
344,312,192337,2,0,B|388:328|388:328|452:292,1,95,0|0,0:0|0:0,0:0:0:0:
368,144,192670,1,0,0:0:0:0:
416,220,192837,1,0,0:0:0:0:
416,32,193003,2,0,L|204:96,1,190
112,248,193670,6,0,L|40:360,1,95
232,248,194003,1,0,0:0:0:0:
76,116,194170,2,0,L|184:56,1,95
188,64,194420,2,0,L|180:8,2,47.5
224,72,194670,6,0,L|307:118,1,95,0|0,0:0|0:0,0:0:0:0:
416,268,195003,1,0,0:0:0:0:
400,96,195170,1,0,0:0:0:0:
308,236,195337,1,0,0:0:0:0:
300,124,195503,1,0,0:0:0:0:
464,180,195670,1,0,0:0:0:0:
360,260,196003,5,0,0:0:0:0:
200,304,196337,2,0,P|128:288|96:264,2,95
360,260,196837,1,0,0:0:0:0:
200,184,197003,1,0,0:0:0:0:
124,112,197170,2,0,L|96:64,1,47.5
136,76,197337,6,0,B|160:56|192:52|192:52|248:68,1,95
452,144,197670,2,0,B|428:164|396:168|396:168|340:152,1,95,0|0,0:0|0:0,0:0:0:0:
336,68,198003,1,0,0:0:0:0:
148,272,198170,2,0,P|212:252|248:216,1,95
432,300,198670,5,0,0:0:0:0:
328,268,199003,1,0,0:0:0:0:
424,72,199170,1,0,0:0:0:0:
284,52,199337,1,0,0:0:0:0:
268,56,199420,1,0,0:0:0:0:
240,68,199503,1,0,0:0:0:0:
120,152,199670,1,0,0:0:0:0:
100,172,199753,1,0,0:0:0:0:
80,212,199837,1,0,0:0:0:0:
64,264,199920,1,0,0:0:0:0:
84,328,200003,6,0,L|184:272,1,104.500003189087
256,236,200337,1,0,0:0:0:0:
424,140,200503,2,0,L|324:196,1,104.500003189087
256,112,200837,1,0,0:0:0:0:
112,71,201003,2,0,L|204:20,1,104.500003189087
356,68,201337,6,0,P|404:100|424:172,1,104.500003189087
256,184,201670,1,0,0:0:0:0:
155,299,201837,2,0,P|112:272|88:226,1,104.500003189087
356,300,202170,1,0,0:0:0:0:
420,228,202337,1,0,0:0:0:0:
256,48,202503,1,0,0:0:0:0:
176,112,202670,6,0,L|132:216,1,104.500003189087
256,304,203003,1,0,0:0:0:0:
336,112,203170,2,0,L|380:216,1,104.500003189087
456,324,203503,1,0,0:0:0:0:
372,260,203670,1,0,0:0:0:0:
432,40,203837,1,0,0:0:0:0:
432,152,204003,6,0,B|398:191|344:204,1,104.500003189087,0|0,0:0|0:0,0:0:0:0:
304,92,204337,2,0,B|252:104|252:104|208:156,1,104.500003189087
248,260,204670,2,0,B|214:299|160:312,1,104.500003189087,0|0,0:0|0:0,0:0:0:0:
120,200,205004,2,0,B|68:212|68:212|24:264,1,104.500003189087
152,308,205337,5,0,0:0:0:0:
332,292,205503,2,0,P|404:260|412:216,1,113.999996520996
360,60,205837,1,0,0:0:0:0:
176,76,206003,2,0,P|104:108|96:152,1,113.999996520996
196,172,206337,1,0,0:0:0:0:
448,288,206503,1,0,0:0:0:0:
356,128,206670,6,0,L|356:280,1,113.999996520996
256,76,207003,1,0,0:0:0:0:
156,242,207170,2,0,L|156:128,1,113.999996520996
54,75,207503,1,0,0:0:0:0:
156,128,207670,1,0,0:0:0:0:
420,48,207837,1,0,0:0:0:0:
388,240,208003,6,0,B|360:288|360:288|300:308,1,113.999996520996
124,128,208337,2,0,B|152:80|152:80|212:60,1,113.999996520996
378,135,208670,2,0,B|360:80|360:80|312:52,1,113.999996520996
133,232,209003,2,0,B|152:288|152:288|200:316,1,113.999996520996
388,240,209337,6,0,L|256:184,1,113.999996520996
124,128,209670,1,0,0:0:0:0:
240,112,209753,2,0,L|152:20,1,71.2500027179719
424,84,210170,1,0,0:0:0:0:
300,240,210337,1,0,0:0:0:0:
124,128,210503,1,0,0:0:0:0:
124,128,210587,1,0,0:0:0:0:
