osu file format v12

[General]
AudioFilename: 100727_Fire_Aura.mp3
AudioLeadIn: 0
PreviewTime: 63948
Countdown: 0
SampleSet: Soft
StackLeniency: 0.7
Mode: 0
LetterboxInBreaks: 1
EpilepsyWarning: 1
WidescreenStoryboard: 1

[Editor]
Bookmarks: 21337,42670,48503,53337,64003,74670,85337,90670,101337,112003,122670,133337,144003,154670,157337,168003,178670,189337,200003,210670
DistanceSpacing: 2
BeatDivisor: 4
GridSize: 4
TimelineZoom: 1

[Metadata]
Title:Fire Aura
TitleUnicode:Fire Aura
Artist:Kid2Will
ArtistUnicode:Kid2Will
Creator:eeezzzeee
Version:Hard
Source:Newgrounds
Tags:Impossible Game
BeatmapID:386017
BeatmapSetID:156904

[Difficulty]
HPDrainRate:5
CircleSize:4
OverallDifficulty:5
ApproachRate:8
SliderMultiplier:1.6
SliderTickRate:1

[Events]
//Background and Video events
0,0,"defaultbg.jpg",0,0
//Break Periods
2,4203,6920
2,10703,12253
2,14870,17587
2,90870,100587
2,122703,132587
//Storyboard Layer 0 (Background)
//Storyboard Layer 1 (Fail)
//Storyboard Layer 2 (Pass)
//Storyboard Layer 3 (Foreground)
//Storyboard Sound Samples
//Background Colour Transformations
3,100,0,0,0

[TimingPoints]
4,333.333333333333,4,2,0,100,1,0
1337,-133.333333333333,4,2,0,100,0,0
21337,-111.111111111111,4,2,0,100,0,0
42670,-100,4,2,0,100,0,0
53337,-125,4,2,0,100,0,0
54670,-166.666666666667,4,2,0,100,0,0
58670,-125,4,2,0,100,0,0
60003,-166.666666666667,4,2,0,100,0,0
62670,-125,4,2,0,100,0,0
64003,-100,4,2,0,100,0,1
74670,-100,4,2,0,100,0,1
85337,-100,4,2,0,100,0,0
89337,-166.666666666667,4,2,0,100,0,0
90670,-111.111111111111,4,2,0,100,0,0
101003,-76.9230769230769,4,2,0,100,0,0
101170,-66.6666666666667,4,2,0,100,0,0
101337,-125,4,2,0,100,0,0
112003,-100,4,2,0,100,0,1
121670,-100,4,2,0,100,0,1
121837,-100,4,2,0,100,0,1
122170,-100,4,2,0,100,0,1
122503,-100,4,2,0,100,0,1
122670,-100,4,2,0,100,0,0
133337,-125,4,2,0,100,0,0
134670,-166.666666666667,4,2,0,100,0,0
138670,-125,4,2,0,100,0,0
140003,-166.666666666667,4,2,0,100,0,0
142670,-125,4,2,0,100,0,0
144003,-125,4,2,0,100,0,0
149337,-142.857142857143,4,2,0,100,0,0
168003,-166.666666666667,4,2,0,100,0,0
178670,-111.111111111111,4,2,0,100,0,1
189337,-100,4,2,0,100,0,1
200003,-90.9090909090909,4,2,0,100,0,1
205337,-83.3333333333333,4,2,0,100,0,1
209670,-66.6666666666667,4,2,0,100,0,0

[Colours]
Combo1 : 128,255,191
Combo2 : 128,255,255
Combo3 : 255,128,255
Combo4 : 255,128,128

[HitObjects]
144,136,2337,5,0,0:0:0:0:
144,136,2504,2,0,L|208:176,1,60.0000022888184
364,272,4003,5,0,0:0:0:0:
368,136,7670,5,0,0:0:0:0:
368,136,7837,2,0,L|304:176,1,60.0000022888184
208,296,9170,6,0,L|128:264,1,60.0000022888184
120,192,9670,1,0,0:0:0:0:
152,110,10003,2,0,L|208:88,1,60.0000022888184
240,144,10337,2,0,L|292:88,1,60.0000022888184
316,192,13003,5,0,0:0:0:0:
288,192,13170,1,0,0:0:0:0:
256,192,13337,1,0,0:0:0:0:
256,316,14670,5,0,0:0:0:0:
404,300,18337,5,0,0:0:0:0:
404,300,18503,2,0,L|368:224,1,60.0000022888184
408,96,19337,6,0,P|404:64|376:40,1,60.0000022888184
320,120,19837,2,0,P|296:96|268:96,1,60.0000022888184
260,192,20337,1,0,0:0:0:0:
188,224,20503,2,0,P|158:220|139:198,1,60.0000022888184
152,120,20837,2,0,L|112:84,2,30.0000011444092
220,80,21170,1,0,0:0:0:0:
312,60,21337,5,0,0:0:0:0:
368,240,21670,1,0,0:0:0:0:
436,176,21837,1,0,0:0:0:0:
456,268,22003,2,0,P|416:308|312:320,1,143.999995605469
260,264,22503,2,0,L|252:188,1,71.9999978027344
172,240,22837,2,0,L|140:152,1,71.9999978027344
68,224,23170,1,0,0:0:0:0:
60,132,23337,2,0,P|112:80|196:76,1,143.999995605469
368,76,24003,5,0,0:0:0:0:
440,248,24337,2,0,P|488:216|500:176,2,71.9999978027344
272,328,25003,2,0,P|224:296|212:256,1,71.9999978027344
280,212,25337,1,0,0:0:0:0:
264,120,25503,2,0,P|242:91|209:76,1,71.9999978027344
167,159,25837,2,0,P|132:156|100:171,1,71.9999978027344
188,336,26337,2,0,P|224:288|256:192,1,143.999995605469
340,44,27003,5,0,0:0:0:0:
412,104,27170,1,0,0:0:0:0:
408,196,27337,2,0,B|392:264|360:296|360:296|304:300,1,143.999995605469
248,348,27837,2,0,L|184:284,1,71.9999978027344
200,204,28170,1,0,0:0:0:0:
112,172,28337,1,0,0:0:0:0:
184,116,28503,1,0,0:0:0:0:
200,204,28670,2,0,P|280:200|344:156,1,143.999995605469
460,304,29337,6,0,P|412:256|380:180,1,143.999995605469
428,108,29837,1,0,0:0:0:0:
356,48,30003,1,0,0:0:0:0:
244,200,30337,2,0,L|244:112,1,71.9999978027344
160,168,30670,1,0,0:0:0:0:
92,104,30837,2,0,P|68:148|76:184,1,71.9999978027344
112,252,31170,2,0,L|176:304,1,71.9999978027344
352,252,31670,1,0,0:0:0:0:
408,192,32003,5,0,0:0:0:0:
244,100,32337,2,0,P|208:68|168:52,1,71.9999978027344
168,148,32670,1,0,0:0:0:0:
156,336,33003,2,0,L|88:256,1,71.9999978027344
204,272,33337,1,0,0:0:0:0:
280,216,33503,1,0,0:0:0:0:
272,124,33670,1,0,0:0:0:0:
184,88,33837,2,0,P|212:48|248:40,1,71.9999978027344
420,56,34337,1,0,0:0:0:0:
416,244,34670,6,0,B|380:288|380:288|336:312|280:304,1,143.999995605469
204,296,35170,2,0,P|160:276|132:244,1,71.9999978027344
192,80,35670,1,0,0:0:0:0:
192,80,35837,2,0,L|256:144,1,71.9999978027344
312,68,36170,2,0,L|376:132,1,71.9999978027344
304,192,36503,1,0,0:0:0:0:
396,188,36670,2,0,P|384:260|316:328,1,143.999995605469
156,276,37337,5,0,0:0:0:0:
80,104,37670,1,0,0:0:0:0:
160,152,37837,1,0,0:0:0:0:
240,104,38003,1,0,0:0:0:0:
424,64,38337,2,0,P|436:108|432:148,1,71.9999978027344
356,188,38670,1,0,0:0:0:0:
372,280,38837,2,0,B|332:284|332:284|280:256,1,71.9999978027344
224,316,39170,1,0,0:0:0:0:
144,268,39337,2,0,B|92:224|152:168|92:120,1,143.999995605469
256,192,39837,12,0,42503,0:0:0:0:
152,156,42670,6,0,L|236:88,1,80
320,96,43003,1,0,0:0:0:0:
344,196,43170,2,0,L|436:256,1,80
328,304,43503,1,0,0:0:0:0:
224,312,43670,2,0,L|112:336,1,80
96,236,44003,6,0,P|76:180|44:148,2,80
196,212,44503,2,0,P|204:152|196:120,2,80
304,256,45003,1,0,0:0:0:0:
400,172,45170,1,0,0:0:0:0:
352,80,45337,5,0,0:0:0:0:
352,80,45503,2,0,L|256:136,1,80
188,76,45837,1,0,0:0:0:0:
104,136,46003,1,0,0:0:0:0:
56,228,46170,1,0,0:0:0:0:
120,312,46337,2,0,P|156:280|160:240,1,80
232,172,46670,6,0,L|336:220,1,80
272,108,47003,2,0,L|360:112,1,80
456,116,47337,1,0,0:0:0:0:
392,196,47503,1,0,0:0:0:0:
488,240,47670,1,0,0:0:0:0:
424,320,47837,1,0,0:0:0:0:
424,320,47920,1,0,0:0:0:0:
424,320,48003,6,0,P|376:332|328:320,1,80
256,276,48337,1,0,0:0:0:0:
156,308,48503,2,0,P|152:268|163:230,1,80,0|0,0:0|0:0,0:0:0:0:
264,200,48837,2,0,P|308:164|324:136,2,80
168,152,49337,6,0,L|124:76,1,80
228,104,49670,2,0,L|206:26,1,80
305,22,50003,2,0,L|284:100,1,80
344,148,50336,2,0,L|384:78,1,80
456,152,50670,5,0,0:0:0:0:
452,256,50837,2,0,P|448:312|416:344,1,80
356,264,51170,1,0,0:0:0:0:
252,284,51337,2,0,P|256:228|288:196,1,80
364,168,51670,2,0,B|352:128|352:128|304:96,1,80
232,52,52003,6,0,L|148:120,1,80
88,168,52337,1,0,0:0:0:0:
172,228,52503,2,0,L|234:177,2,80
88,288,53003,2,0,L|172:356,1,80,0|0,0:0|0:0,0:0:0:0:
168,340,53253,1,0,0:0:0:0:
184,340,53337,6,0,P|264:332|360:240,1,192
404,268,53920,2,0,P|408:212|376:128,1,128
428,108,54337,2,0,P|400:84|356:72,1,64
292,56,54670,6,0,B|200:96|268:232|136:300,1,287.999991210938
100,228,55837,1,0,0:0:0:0:
104,148,56003,6,0,B|208:148|280:232|280:232|380:228,1,287.999991210938
432,280,57170,1,0,0:0:0:0:
368,332,57337,6,0,B|296:320|216:256|76:276,1,287.999991210938
96,192,58503,1,0,0:0:0:0:
108,176,58587,1,0,0:0:0:0:
120,164,58670,6,0,P|168:128|304:108,1,192
276,156,59253,2,0,P|360:136|392:108,1,128
400,56,59670,2,0,P|432:80|460:120,1,64
472,176,60003,6,0,P|356:272|224:296,1,287.999991210938
156,252,61170,1,0,0:0:0:0:
200,184,61337,6,0,P|339:211|448:303,1,287.999991210938
372,336,62503,1,0,0:0:0:0:
264,312,62670,6,0,P|188:264|164:204,1,128
156,144,63337,2,0,L|96:100,1,64
184,84,63670,2,0,L|184:36,3,32
240,84,64003,6,0,P|276:100|320:152,1,80
244,212,64337,2,0,P|273:239|309:255,1,80,0|0,0:0|0:0,0:0:0:0:
396,196,64670,1,0,0:0:0:0:
488,240,64837,2,0,L|396:280,1,80
220,328,65337,5,0,0:0:0:0:
56,204,65670,2,0,L|144:276,1,80
164,160,66003,1,0,0:0:0:0:
260,116,66170,2,0,L|268:200,2,80
344,56,66670,6,0,L|432:32,1,80
384,132,67003,2,0,L|472:156,1,80,0|0,0:0|0:0,0:0:0:0:
384,224,67337,1,0,0:0:0:0:
460,296,67503,1,0,0:0:0:0:
360,324,67670,2,0,P|268:336|200:324,1,160
88,152,68337,6,0,B|112:120|112:120|164:96,1,80
244,144,68670,1,0,0:0:0:0:
320,72,68837,2,0,L|400:132,1,80
392,224,69170,1,0,0:0:0:0:
392,224,69253,1,0,0:0:0:0:
392,224,69337,6,0,P|416:288|400:328,1,80
312,288,69670,2,0,B|288:324|288:324|240:340,1,80
212,244,70003,1,0,0:0:0:0:
212,244,70170,2,0,L|128:244,1,80
252,72,70670,5,0,0:0:0:0:
80,188,71003,1,0,0:0:0:0:
128,96,71170,1,0,0:0:0:0:
228,64,71337,2,0,P|268:52|324:68,1,80
288,160,71670,2,0,P|324:188|336:236,1,80
328,324,72003,5,0,0:0:0:0:
328,324,72170,1,0,0:0:0:0:
416,272,72337,2,0,L|440:176,1,80
356,124,72670,1,0,0:0:0:0:
272,188,72837,1,0,0:0:0:0:
176,224,73003,2,0,P|136:144|136:72,1,160
344,56,73670,6,0,P|376:88|384:140,1,80
328,208,74003,1,0,0:0:0:0:
304,308,74170,1,0,0:0:0:0:
232,236,74337,1,0,0:0:0:0:
160,308,74503,1,0,0:0:0:0:
160,308,74587,1,0,0:0:0:0:
160,308,74670,5,0,0:0:0:0:
128,208,74837,2,0,P|124:168|144:136,1,80
240,180,75170,2,0,P|280:144|332:152,1,80
352,236,75503,2,0,P|392:248|416:296,1,80
328,336,75837,1,0,0:0:0:0:
256,260,76003,5,0,0:0:0:0:
164,308,76170,2,0,L|116:244,1,80
132,140,76503,2,0,L|196:188,1,80
300,172,76837,2,0,L|252:108,1,80
300,16,77170,1,0,0:0:0:0:
400,36,77337,5,0,0:0:0:0:
400,36,77503,2,0,B|432:72|432:72|436:112,1,80
332,124,77837,2,0,B|335:155|335:155|367:191,1,80,0|0,0:0|0:0,0:0:0:0:
456,244,78170,2,0,B|420:276|420:276|388:279,1,80,0|0,0:0|0:0,0:0:0:0:
296,232,78503,1,0,0:0:0:0:
248,324,78670,5,0,0:0:0:0:
152,284,78837,2,0,P|120:248|120:204,1,80
120,112,79170,2,0,P|140:72|180:56,1,80
252,124,79503,2,0,P|288:112|320:80,1,80
420,60,79837,2,0,L|400:24,2,40
380,156,80170,6,0,L|424:232,1,80
376,320,80503,2,0,L|332:244,1,80
232,244,80837,2,0,L|276:320,1,80
168,324,81170,1,0,0:0:0:0:
104,244,81337,5,0,0:0:0:0:
104,244,81503,2,0,L|132:140,1,80
228,180,81837,2,0,P|265:168|291:138,1,80
212,72,82170,2,0,P|237:41|275:30,1,80
364,84,82503,1,0,0:0:0:0:
464,52,82670,5,0,0:0:0:0:
364,84,82837,2,0,L|264:84,1,80
248,180,83170,2,0,L|152:180,1,80
132,280,83503,2,0,L|48:280,1,80
80,180,83837,1,0,0:0:0:0:
192,68,84003,5,0,0:0:0:0:
192,68,84170,2,0,P|248:84|264:112,1,80
184,172,84503,1,0,0:0:0:0:
284,196,84670,1,0,0:0:0:0:
184,172,84837,1,0,0:0:0:0:
88,208,85003,2,0,L|80:256,2,40
156,288,85337,5,0,0:0:0:0:
252,324,85670,1,0,0:0:0:0:
300,232,86003,1,0,0:0:0:0:
204,196,86337,1,0,0:0:0:0:
204,196,86670,5,0,0:0:0:0:
156,68,87004,1,0,0:0:0:0:
108,160,87337,1,0,0:0:0:0:
252,104,87670,1,0,0:0:0:0:
252,104,88003,5,0,0:0:0:0:
300,196,88336,1,0,0:0:0:0:
348,68,88669,1,0,0:0:0:0:
396,160,89003,1,0,0:0:0:0:
408,264,89337,6,0,B|376:248|376:248|360:296|360:296|328:264|328:264|312:312|312:312|280:280|280:280|264:328|264:328|232:296|232:296|204:350,1,383.99998828125
136,64,101337,6,0,P|100:124|112:192,1,128
244,272,102003,2,0,P|280:212|268:144,1,128
136,64,102670,6,0,L|204:184,1,128
280,192,103170,1,0,0:0:0:0:
360,220,103337,2,0,L|428:340,1,128
256,336,104003,6,0,B|200:320|184:284|184:284|128:280,1,128
308,232,104670,2,0,B|344:229|344:229|360:193|416:177,1,128
276,84,105337,6,0,P|208:68|148:76,1,128
184,152,105837,1,0,0:0:0:0:
220,228,106003,2,0,P|156:234|94:219,1,128
232,312,106670,6,0,P|288:276|308:212,1,128
240,176,107170,1,0,0:0:0:0:
312,136,107337,2,0,P|276:80|212:60,1,128
72,136,108003,6,0,B|128:184|128:184|208:184,1,128
236,120,108503,1,0,0:0:0:0:
280,48,108670,2,0,B|334:48|334:48|390:96,1,128
376,264,109337,6,0,B|300:240|300:240|276:220|284:184,1,128
360,164,109837,1,0,0:0:0:0:
344,84,110003,2,0,P|300:64|196:64,1,128
120,188,110670,6,0,P|128:236|188:284,1,128
212,204,111170,1,0,0:0:0:0:
280,252,111337,2,0,L|300:216,2,32
368,248,111670,1,0,0:0:0:0:
440,196,111837,1,0,0:0:0:0:
448,108,112003,5,0,0:0:0:0:
448,108,112170,1,0,0:0:0:0:
352,68,112337,2,0,P|312:52|264:48,1,80
180,88,112670,1,0,0:0:0:0:
88,276,113003,2,0,P|80:236|85:197,1,80,0|0,0:0|0:0,0:0:0:0:
120,100,113337,6,0,P|164:72|216:72,1,80
216,168,113670,1,0,0:0:0:0:
220,272,113837,2,0,B|256:280|256:280|320:264,1,80
424,316,114337,1,0,0:0:0:0:
448,200,114670,6,0,P|424:168|368:136,1,80
292,172,115003,2,0,P|259:148|235:117,1,80
132,124,115337,2,0,P|99:147|75:178,1,80,0|0,0:0|0:0,0:0:0:0:
112,276,115670,2,0,P|144:252|168:221,1,80,0|0,0:0|0:0,0:0:0:0:
248,288,116003,6,0,P|264:252|260:192,1,80
368,236,116337,2,0,P|364:200|324:140,1,80
284,80,116670,2,0,L|304:40,2,40
188,120,117003,2,0,L|168:80,2,40
140,212,117337,6,0,L|104:300,1,80
212,268,117670,1,0,0:0:0:0:
276,352,117837,2,0,P|304:324|316:268,1,80
364,84,118337,1,0,0:0:0:0:
280,148,118503,1,0,0:0:0:0:
196,84,118670,6,0,P|160:40|112:20,2,80
280,148,119170,2,0,B|324:168|276:224|304:240,1,80
200,320,119670,1,0,0:0:0:0:
88,224,120003,6,0,L|136:152,1,80
132,52,120337,2,0,L|204:100,1,80,0|0,0:0|0:0,0:0:0:0:
300,108,120670,2,0,L|252:180,1,80
256,280,121004,2,0,L|184:232,1,80,0|0,0:0|0:0,0:0:0:0:
160,136,121337,5,0,0:0:0:0:
232,60,121503,1,0,0:0:0:0:
268,160,121670,2,0,P|320:164|364:144,2,80
316,252,122170,2,0,L|364:224,2,40
368,344,122503,1,0,0:0:0:0:
136,96,133337,6,0,B|208:88|240:64|240:64|320:108,1,192
328,64,133920,2,0,P|372:100|408:164,1,128
440,136,134337,2,0,P|452:184|444:212,1,64
380,244,134670,6,0,B|340:304|272:340|316:264|212:316|212:316|112:292,1,287.999991210938
164,224,135837,1,0,0:0:0:0:
244,248,136003,6,0,B|256:200|252:152|180:88|48:88,1,287.999991210938
72,168,137170,1,0,0:0:0:0:
136,216,137337,6,0,B|192:168|192:168|304:156|400:252,1,287.999991210938
432,172,138503,1,0,0:0:0:0:
428,160,138587,1,0,0:0:0:0:
420,152,138670,6,0,P|364:96|252:72,1,192
284,120,139253,2,0,P|220:128|136:96,1,128
104,100,139670,2,0,P|92:140|104:188,1,64
68,240,140003,6,0,B|192:240|192:240|352:168,1,287.999991210938
416,204,141170,1,0,0:0:0:0:
416,284,141337,6,0,B|316:248|252:376|124:336,1,287.999991210938
96,272,142503,1,0,0:0:0:0:
200,248,142670,6,0,P|176:192|104:160,1,128
116,60,143337,2,0,P|164:68|196:84,1,64
256,52,143670,2,0,L|292:36,3,32
292,104,144003,6,0,P|348:136|400:208,1,128
