osu file format v5

[General]
AudioFilename: DDisco.mp3
AudioLeadIn: 0
PreviewTime: 77769
Countdown: 1
SampleSet: Soft
StackLeniency: 0.7
Mode: 0
LetterboxInBreaks: 1
EditorDistanceSpacing: 1

[Metadata]
Title:Disconnected Disco
Artist:Kid Whatever
Creator:Starrodkirby86
Version:Medium
Source:
Tags:in the groove itg stepmania inspector k

[Difficulty]
HPDrainRate:4
CircleSize:4
OverallDifficulty:5
SliderMultiplier:1.3
SliderTickRate:1

[Events]
//Background and Video events
0,0,"disconnecteddisco-bg.png"
//Break Periods
2,36876,49254
2,91558,97478
//Storyboard Layer 0 (Background)
//Storyboard Layer 1 (Failing)
//Storyboard Layer 2 (Passing)
//Storyboard Layer 3 (Foreground)
//Storyboard Sound Samples
//Background Colour Transformations
3,100,89,172,255

[TimingPoints]
2249.89202780538,430.570505920344,4,1,0,60,1,0
21188,-200,4,2,0,100,0,0
22909,-100,4,1,0,60,0,0
34961,-200,4,2,0,100,0,0
36683,-100,4,1,0,60,0,0
62508,-200,4,2,0,100,0,0
64229,-100,4,1,0,60,0,0
76738,-100,4,1,0,100,0,1
76953,-100,4,1,0,60,0,0
105549,-100,4,1,0,61,0,1

[Colours]
Combo1 : 128,128,255
Combo2 : 0,128,255
Combo3 : 5,5,240
Combo4 : 158,254,252

[HitObjects]
320,96,9139,2,2,B|256:32|192:112,1,130
256,168,10000,1,0
224,224,10215,1,0
288,224,10430,1,4
192,288,10861,6,2,B|256:352|336:272,1,130
256,216,11722,1,0
224,160,11937,1,0
288,160,12153,1,4
256,64,12583,5,0
160,64,13014,1,8
160,160,13444,1,2
224,160,13660,1,2
288,160,13875,1,10
384,160,14305,5,0
384,256,14736,1,8
288,256,15167,1,2
224,256,15382,1,2
160,256,15597,1,6
160,160,16028,6,2,B|256:176|256:96,1,130
320,48,16889,1,8
256,48,17104,1,0
192,48,17319,1,12
256,160,17750,5,4
256,160,17965,1,0
256,160,18181,1,4
256,256,18611,1,4
256,256,18826,1,0
256,256,19042,1,4
352,208,19472,6,2,B|256:192|256:272,1,130
192,336,20333,1,8
256,336,20549,1,0
320,336,20764,1,12
416,192,21194,6,6,B|128:192,1,260
128,96,23347,5,8
192,96,23563,1,0
256,96,23778,1,8
256,192,24208,1,2
256,192,24639,1,2
352,192,25070,2,4,B|352:288|224:256,1,130
128,192,26361,5,2
128,288,26792,1,8
192,288,27007,1,0
256,288,27222,1,8
256,192,27653,1,2
256,192,28084,1,2
352,192,28514,2,4,B|352:96|224:128,2,130
416,256,29806,5,2
320,256,30236,1,4
320,192,30452,1,0
320,256,30667,1,4
96,128,31528,5,2
192,128,31959,1,4
192,192,32174,1,0
192,128,32389,1,4
288,128,32820,1,2
352,192,33250,1,2
288,256,33681,1,2
224,256,33896,2,6,B|128:256,3,65,6|6|6|14
256,192,34973,12,6,36695
416,192,50473,6,0,L|384:96|320:160,1,130,0|8
256,120,51334,1,2
160,120,51765,1,4
64,120,52196,2,0,L|32:184|64:248,1,130,0|8
160,248,53057,2,8,L|224:280|288:248,1,130
416,192,53918,6,0,L|384:288|320:224,1,130,0|8
256,264,54779,1,2
160,264,55210,1,4
64,264,55640,2,0,L|32:200|64:136,1,130,0|8
160,136,56501,2,8,L|224:104|288:136,1,130
384,96,57362,5,0
384,160,57578,1,0
384,224,57793,1,6
288,224,58224,5,0
288,160,58439,1,0
288,96,58654,1,6
192,96,59085,5,0
192,160,59300,1,0
192,224,59515,1,6
96,224,59946,5,0
96,160,60161,1,0
96,96,60376,1,6
96,224,60807,6,2,B|256:320|480:224,1,390
256,192,62529,12,6,63821
448,192,64252,6,0,B|448:64|352:96,1,130
288,88,65113,1,8
224,88,65328,1,0
160,88,65543,1,6
64,96,65974,6,0,B|64:192|128:256,1,130
192,192,66835,2,0,B|352:192,1,130,0|4
64,192,67696,6,0,B|64:320|160:288,1,130
224,296,68557,1,8
288,296,68773,1,0
352,296,68988,1,6
448,296,69418,6,0,B|448:200|384:136,1,130
320,192,70280,2,0,B|160:192,1,130,0|4
80,160,71141,6,0,B|144:128,1,65,0|2
192,128,71571,2,0,B|288:128,1,65,0|2
320,128,72002,2,0,B|384:192,1,65,0|2
384,224,72432,2,0,B|288:224,1,65,2|2
256,224,72863,2,0,B|160:224,1,65,2|6
128,224,73294,2,12,B|64:192|64:160|160:128,2,130,14|14|14
256,192,74585,12,4,76738
320,128,78030,6,8,L|352:96|416:192,1,130
320,224,78891,2,2,L|288:256|256:224,2,65
288,128,79752,1,4
256,96,79967,1,0
224,64,80183,1,4
192,96,80398,1,0
160,64,80613,2,2,L|0:64,1,130,2|6
192,256,81474,6,8,L|160:288|96:192,1,130
192,160,82336,2,2,L|224:128|256:160,2,65
224,256,83197,1,4
256,288,83412,1,0
288,320,83627,1,4
320,288,83843,1,0
352,320,84058,2,2,L|512:320,1,130,2|6
448,224,84919,6,8,L|416:192|384:224,3,65
352,232,85780,2,2,L|320:264|288:232,3,65
288,192,86641,2,2,L|192:192,1,65
192,128,87072,2,2,L|288:128,1,65
256,64,87502,2,4,B|352:96|352:192,2,130
256,64,88794,2,4,B|160:96|160:192,2,130
256,64,90086,5,8
256,128,90301,1,0
256,192,90516,1,12
256,288,90947,2,2,B|320:256|352:160,1,130
448,192,98697,5,0
384,160,98912,2,0,B|288:160,1,65
256,64,99558,1,0
256,64,99989,1,8
64,192,100419,5,0
128,160,100635,2,0,B|224:160,1,65
256,64,101281,1,0
256,64,101711,1,8
256,64,102142,6,0,B|256:224,1,130,0|8
160,224,103003,1,0
160,288,103218,2,0,B|224:288|256:224,1,65,0|8
256,64,103864,6,0,B|256:224,1,130,0|8
352,224,104725,1,0
352,288,104940,2,0,B|288:288|256:224,1,65,0|8
256,192,105586,5,6
