osu file format v5

[General]
AudioFilename: DDisco.mp3
AudioLeadIn: 0
PreviewTime: 77769
Countdown: 1
SampleSet: Normal
StackLeniency: 0.7
Mode: 0
LetterboxInBreaks: 1
EditorDistanceSpacing: 1

[Metadata]
Title:Disconnected Disco
Artist:Kid Whatever
Creator:Starrodkirby86
Version:Expert
Source:
Tags:in the groove itg stepmania inspector k

[Difficulty]
HPDrainRate:7
CircleSize:5
OverallDifficulty:7
SliderMultiplier:1.8
SliderTickRate:1

[Events]
//Background and Video events
0,0,"disconnecteddisco-bg.png"
//Break Periods
2,36876,49554
2,91989,97778
//Storyboard Layer 0 (Background)
//Storyboard Layer 1 (Failing)
//Storyboard Layer 2 (Passing)
//Storyboard Layer 3 (Foreground)
//Storyboard Sound Samples
//Background Colour Transformations
3,100,89,172,255

[TimingPoints]
2249.89202780538,430.570505920344,4,1,0,60,1,0
21188,-200,4,1,0,100,0,1
22909,-100,4,1,0,60,0,0
34961,-100,4,1,0,60,0,0
36683,-100,4,1,0,60,0,0
62508,-100,4,1,0,60,0,0
64229,-100,4,1,0,60,0,0
74559,-100,4,2,0,100,0,0
76173,-100,4,1,0,70,0,0
76953,-100,4,1,0,70,0,1
77814,-100,4,1,0,70,0,0
105549,-100,4,1,0,62,0,1

[Colours]
Combo1 : 128,128,255
Combo2 : 0,128,255
Combo3 : 5,5,240
Combo4 : 158,254,252

[HitObjects]
416,192,9139,6,0,B|384:160|352:160|320:192,2,90,0|0|8
416,192,9784,2,2,B|416:256,2,45
416,128,10215,1,2
352,96,10430,1,4
288,128,10646,1,8
96,192,10861,6,0,B|128:160|160:160|192:192,2,90,0|0|8
96,192,11507,2,2,B|96:256,2,45
96,128,11937,1,2
160,96,12153,1,4
224,128,12368,1,8
256,192,12583,6,0,B|224:256|256:320,1,90,0|8
242,279,13014,1,2
240,280,13229,2,0,B|231:326|263:358,2,45
288,224,13660,1,8
352,192,13875,1,8
416,192,14090,6,2,B|352:192,1,45,0|8
416,288,14521,2,2,B|352:288,1,45,0|8
416,96,14951,2,2,B|352:96,1,45,0|8
256,96,15382,5,0
256,160,15597,2,0,B|256:256,1,90
256,250,16028,5,6
256,250,16243,1,0
320,192,16458,1,0
256,192,16674,1,2
256,134,16889,5,6
256,134,17104,1,0
192,192,17319,1,0
64,288,17750,5,8
96,288,17858,1,0
128,288,17965,1,8
192,288,18181,1,2
256,288,18396,1,8
288,288,18503,1,0
320,288,18611,1,8
384,288,18826,1,2
448,288,19042,2,8,B|448:224|352:224,1,90
320,228,19472,6,0,B|320:132,1,90,0|8
248,136,19903,2,0,B|152:136,1,90,0|8
88,136,20333,1,2
120,200,20549,1,2
176,240,20764,1,2
248,248,20979,1,6
256,176,21194,6,2,B|288:176,6,22.5
160,96,22056,5,8
256,96,22271,1,2
352,96,22486,1,4
256,192,22917,6,0,B|256:256|192:256,1,90
160,192,23347,2,0,B|160:128|256:128,1,90
288,128,23778,1,2
384,160,23993,1,2
288,192,24208,1,2
384,224,24424,1,2
288,256,24639,2,8,B|256:288|224:256,4,45
160,224,25285,5,0
128,192,25393,1,0
160,160,25500,1,8
224,128,25715,1,8
288,96,25931,1,4
256,192,26361,6,0,B|256:128|320:128,1,90
352,192,26792,2,0,B|352:256|256:256,1,90
224,256,27222,1,2
128,224,27438,1,2
224,192,27653,1,2
128,160,27868,1,2
224,128,28084,2,8,B|256:96|288:128,4,45
352,160,28729,5,0
384,192,28837,1,0
352,224,28945,1,8
288,256,29160,1,8
224,288,29375,1,4
224,288,29591,1,4
224,288,29806,5,8
256,320,29914,1,0
288,288,30021,2,0,B|384:288,2,90,8|0|0
320,352,30667,1,0
384,352,30882,2,4,B|480:352,1,90,4|12
288,96,31528,5,8
256,64,31636,1,0
224,96,31743,2,0,B|128:96,2,90,8|0|0
192,32,32389,1,0
128,32,32605,2,4,B|32:32,1,90,4|12
96,192,33250,5,2
160,192,33466,1,8
160,192,33573,1,0
160,192,33681,1,10
224,192,33896,1,8
224,192,34004,1,0
224,192,34112,1,10
288,192,34327,2,2,B|288:256|320:224,2,45
352,192,34757,1,6
256,192,34973,12,6,36695
384,128,50473,5,2
352,96,50581,1,2
320,128,50689,2,8,L|288:160|352:160,2,90
288,96,51227,5,2
256,128,51334,2,8,L|192:128,1,45
176,128,51550,1,0
112,128,51765,1,4
128,224,51980,5,8
160,256,52088,1,8
192,224,52196,2,2,L|256:224|224:192,1,90
237,205,52626,1,2
288,256,52841,1,2
320,224,52949,1,2
352,256,53057,1,8
320,320,53272,1,0
264,320,53487,2,0,L|168:320,1,90,0|2
128,256,53918,5,2
160,288,54025,1,2
192,256,54133,2,8,L|224:224|160:224,2,90
224,288,54671,5,2
256,256,54779,2,8,L|320:256,1,45
336,256,54994,1,0
400,256,55210,1,4
384,160,55425,5,8
352,128,55532,1,8
320,160,55640,2,2,L|256:160|288:192,1,90
275,179,56071,1,2
224,128,56286,1,2
192,160,56394,1,2
160,128,56501,1,8
192,64,56717,1,0
256,64,56932,2,0,L|352:64,1,90,0|2
416,64,57362,5,8
416,96,57470,1,8
416,128,57578,1,2
352,128,57793,1,2
288,128,58008,5,8
288,160,58116,1,0
288,192,58224,1,8
288,224,58331,1,2
288,288,58546,1,8
192,288,58869,5,6
128,288,59085,5,8
128,256,59192,1,0
128,224,59300,1,2
192,224,59515,1,2
256,224,59731,1,8
256,192,59838,1,0
256,160,59946,1,8
256,128,60053,1,0
256,40,60269,1,8
352,64,60592,5,6
352,128,60807,5,2
288,128,61022,1,0
224,128,61238,1,2
160,128,61453,1,0
160,192,61668,1,2
224,192,61883,1,0
288,192,62099,1,2
352,192,62314,1,4
256,192,62529,12,14,63821
416,192,64252,5,8
352,160,64467,1,8
288,128,64682,1,2
224,128,64897,2,0,B|224:160|192:192,4,45
256,64,65543,1,8
96,192,65974,5,8
160,160,66189,1,8
224,128,66404,1,2
288,128,66620,2,0,B|288:160|320:192,4,45
256,64,67266,1,8
352,192,67696,5,4
320,128,67911,1,0
256,96,68127,1,0
192,128,68342,1,4
176,160,68450,1,0
160,192,68557,1,0
176,224,68665,1,0
192,256,68773,1,0
256,288,68988,1,4
256,288,69203,1,8
320,256,69418,5,4
352,192,69634,1,0
320,128,69849,1,4
256,96,70064,1,0
192,128,70280,1,4
160,192,70495,2,8,B|256:192,1,90
256,320,71141,5,8
256,256,71356,1,0
320,224,71571,2,2,B|352:192|320:128,1,90
256,320,72002,5,8
256,256,72217,1,0
192,224,72432,2,2,B|160:192|192:128,1,90
256,96,72863,5,2
256,160,73078,1,2
192,192,73294,2,8,B|288:288,1,90,10|8
320,192,73724,2,8,B|224:288,1,90,10|8
256,255,74155,1,6
256,192,74585,5,8
256,192,74801,1,8
256,192,75016,1,8
256,192,75231,1,8
256,192,75446,1,8
256,192,75662,1,8
256,192,75877,1,8
256,192,76092,1,8
256,192,76308,12,12,76953
128,192,77169,5,6
256,96,77384,5,6
384,192,77599,5,6
384,320,78030,6,8,L|352:288|320:320,2,90
448,288,78676,1,2
416,256,78783,1,2
448,224,78891,2,2,L|416:192|352:224,2,90
448,160,79537,1,8
448,96,79752,2,0,L|352:128,1,90,0|8
320,64,80183,2,0,L|416:32,1,90,0|8
480,32,80613,5,4
448,64,80721,1,0
416,96,80829,1,8
384,128,80936,1,0
352,160,81044,1,4
128,320,81474,6,8,L|160:288|192:320,2,90
64,288,82120,1,2
96,256,82228,1,2
64,224,82336,2,2,L|96:192|160:224,2,90
64,160,82981,1,8
64,96,83197,2,0,L|160:128,1,90,0|8
192,64,83627,2,0,L|96:32,1,90,0|8
32,32,84058,5,4
64,64,84165,1,0
96,96,84273,1,8
128,128,84381,1,0
160,160,84488,1,4
256,192,84811,5,2
288,192,84919,2,2,L|352:192|352:160,1,90,2|10
352,96,85349,2,2,L|256:96|256:128,1,90,2|10
192,96,85780,2,4,L|160:96|160:128,2,45
192,96,86211,2,8,L|192:192,1,90
128,192,86641,1,2
192,224,86856,1,0
256,192,87072,1,2
320,224,87287,1,2
384,192,87502,6,0,L|480:192,1,90,0|8
472,128,87933,2,0,L|376:128,1,90,0|8
320,128,88363,2,0,L|192:128,1,90,0|8
232,192,88794,2,0,L|328:192,1,90,0|8
320,256,89225,2,0,L|224:256,1,90,0|8
160,256,89655,2,0,L|160:160,1,90,0|8
96,224,90086,5,4
64,192,90193,1,0
96,160,90301,1,0
128,128,90409,1,0
96,96,90516,1,4
160,64,90732,1,8
192,96,90839,1,0
224,64,90947,2,8,L|320:64,1,90
224,128,91377,2,8,L|320:128,1,90
256,192,91808,1,12
448,192,98697,5,2
448,192,98805,1,2
448,192,98912,1,2
384,192,99128,2,4,L|352:160|320:192,1,90
288,224,99451,1,8
256,192,99558,1,0
224,160,99666,1,8
128,160,99989,1,12
64,192,100419,5,2
64,192,100527,1,2
64,192,100635,1,2
128,192,100850,2,4,L|160:224|192:192,1,90
224,160,101173,1,8
256,192,101281,1,0
288,224,101388,1,8
384,224,101711,1,12
256,320,102142,5,2
224,288,102249,1,0
256,256,102357,1,2
256,192,102572,1,2
256,128,102788,1,2
288,96,102895,1,2
256,64,103003,1,2
224,96,103111,1,6
256,192,103433,1,12
96,192,103864,6,2,B|96:256|160:256,1,90
352,256,104295,2,2,B|416:256|416:192,1,90
256,192,104725,2,6,B|192:192|192:256,1,90
256,192,105156,2,6,B|320:192|320:256,1,90
256,192,105586,5,14
