osu file format v4

[General]
AudioFilename: Kid Icarus- Underworld.mp3
AudioLeadIn: 0
AudioHash: 8de2c845ccbc011f8623a67550ac218f
PreviewTime: -1
SampleSet: Normal

[Metadata]
Title:Underworld
Artist:Kid Icarus
Creator:Darius Ukugagi
Version:Normal

[Difficulty]
HPDrainRate:7
CircleSize:5
OverallDifficulty:2
SliderMultiplier: 1.4
SliderTickRate: 1

[Events]
0,0,"KidIcarusUnderworld.png"
2,24948,26748
2,41348,43548
2,82948,85148
2,108162,113204

[TimingPoints]
336,400.1,4,1,0

[HitObjects]
192,64,3145,1,0
256,64,3545,1,0
320,64,3945,1,0
330,128,4745,2,6,B|330:128|266:128,2,140
384,224,6345,6,0,B|384:224|96:224,1,280
256,128,7945,1,2
256,192,8345,1,2
256,256,8745,1,6
96,128,9545,6,0,B|96:128|96:256,2,140
192,192,11145,1,2
256,192,11545,1,2
320,192,11945,1,6
448,256,12745,6,0,B|448:256|448:96,2,140
320,192,14345,2,2,B|320:192|192:192,1,140
256,128,15145,1,6
224,192,15939,5,0
256,256,16339,1,2
288,192,16739,1,2
256,128,17140,2,0,L|256:128|256:224,1,140
224,192,18340,5,0
256,128,18745,1,2
288,192,19145,1,2
256,256,19545,1,2
256,320,19945,1,2
256,128,20741,5,0
256,192,21141,1,2
256,256,21541,1,2
320,256,21941,2,6,B|320:256|256:352|160:256|192:256,1,140
256,128,23141,5,0
256,192,23545,1,2
256,256,23945,1,2
192,256,24345,2,6,B|192:256|256:352|352:256|320:256,1,140
256,64,27945,5,2
192,192,28745,1,0
256,192,29145,1,0
320,192,29545,1,0
256,256,29945,1,0
160,160,30345,5,2
224,160,30745,1,2
288,160,31145,1,2
352,160,31545,1,2
192,96,31945,2,0,C|192:96|320:96,3,140
256,96,33545,5,2
256,160,33945,1,2
256,224,34345,1,2
256,288,34745,1,2
128,192,35145,6,4,B|128:192|416:192,1,280
384,192,36745,6,4,B|384:192|96:192,1,280
256,64,38345,6,0,B|256:64|256:352,1,280
192,96,39945,6,2,B|192:96|320:96,1,140
288,160,40745,1,2
224,160,41145,1,2
128,192,44747,6,0,L|128:192|224:96|288:96|416:192|416:256|256:256|288:256,1,560
256,192,47145,1,2
384,192,47947,6,0,L|384:192|288:96|224:96|128:192|128:256|320:256,1,560
256,192,50345,1,2
128,192,51148,5,0
192,128,51548,1,0
256,128,51948,1,0
320,192,52349,1,0
288,256,52749,2,0,L|288:256|160:256,1,140
192,192,53545,1,0
256,192,53945,1,0
224,128,54349,5,0
224,128,54749,1,0
160,192,55149,2,0,L|160:192|256:192,1,140
224,256,55949,1,0
160,320,56350,2,0,L|160:320|288:320,1,140
224,256,57150,1,0
256,192,57550,5,0
256,192,57945,1,2
160,192,58345,1,2
256,96,58745,1,2
352,192,59145,2,6,B|352:192|320:288|256:320|192:256|160:192,2,280
256,256,61145,6,2,B|256:256|256:160,1,140
256,192,62345,5,6
192,192,62745,1,6
256,128,63145,1,6
320,192,63545,1,6
325,256,63945,2,0,B|325:256|197:256,5,140
256,192,66345,1,0
384,64,67145,6,2,B|384:64|96:64,1,280
128,128,68745,2,0,B|128:128|416:128,1,280
384,192,70345,5,0
320,192,70745,1,2
256,192,71145,1,2
192,192,71545,1,2
128,192,71945,1,2
128,128,72345,2,6,B|128:128|416:128,1,280
352,128,73545,5,2
352,128,73945,6,0,C|352:128|416:192|448:288|416:352|192:352|160:256|256:192|288:128|352:96,1,840
320,64,76745,1,4
192,64,77545,5,0
256,96,77945,1,2
320,128,78345,1,0
256,160,78745,1,2
192,192,79145,1,0
256,224,79545,1,2
320,256,79945,1,0
256,288,80345,1,4
192,320,80765,1,0
64,192,81145,5,2
128,192,81545,2,0,C|128:192|416:192,1,280
448,192,82745,1,4
256,192,86345,12,0,91945
64,64,92745,2,2,C|64:64|96:96|160:96|256:64|320:64|352:96,1,280
384,128,93945,2,2,C|384:128|416:192|416:352|448:384,1,280
384,384,95145,6,0,L|384:384|96:384,1,280
64,96,96345,2,0,L|64:96|64:384,1,280
96,352,97545,6,2,L|96:352|384:32,1,420
384,32,99145,1,4
384,96,99560,1,0
384,160,99960,1,0
384,224,100361,1,0
384,288,100761,2,0,L|384:288|96:288,2,280
288,224,102761,1,0
192,224,103161,1,0
256,96,103961,5,0
192,160,104362,1,0
192,224,104762,1,0
256,288,105162,1,0
320,320,105562,2,0,L|320:320|320:32,2,280
256,256,107562,1,0
256,128,107962,1,0
160,96,114764,5,0
256,96,115164,1,0
352,96,115564,1,0
352,192,115964,1,0
256,192,116365,1,0
160,192,116765,1,0
160,288,117165,1,0
256,288,117565,1,0
352,288,117965,1,0
256,192,118365,12,0,122766
320,160,123566,1,0
256,160,123966,1,0
192,160,124367,1,0
