osu file format v6

[General]
AudioFilename: Maui Wowie (short).mp3
AudioLeadIn: 0
PreviewTime: 78135
Countdown: 1
SampleSet: Soft
StackLeniency: 0.7
Mode: 0
LetterboxInBreaks: 1

[Editor]
DistanceSpacing: 0.899999976158142
BeatDivisor: 4
GridSize: 32

[Metadata]
Title:Maui Wowie
Artist:Kid Cudi
Creator:Detective Tuesday
Version:Hard
Source:A Kid Named Kudi
Tags:Hip Hop

[Difficulty]
HPDrainRate:6
CircleSize:5
OverallDifficulty:6
SliderMultiplier:1.4
SliderTickRate:1

[Events]
//Background and Video events
0,0,"Maui Wowie Big.jpg"
//Break Periods
2,46639,52726
//Storyboard Layer 0 (Background)
//Storyboard Layer 1 (Fail)
//Storyboard Layer 2 (Pass)
//Storyboard Layer 3 (Foreground)
//Storyboard Sound Samples
//Background Colour Transformations
3,100,163,162,255

[TimingPoints]
1930,489.117143555882,4,2,0,74,1,0

[HitObjects]
256,24,15625,1,2
256,191,16358,1,0
290,147,16603,1,0
323,40,17092,2,0,B|265:9|185:38,2,140,8|0|8
307,95,18315,5,0
290,147,18559,1,0
234,47,19049,2,0,B|296:20|375:43,2,140,8|0|8
259,97,20271,5,0
290,147,20516,1,0
382,91,21005,2,0,B|424:160|380:251,2,140,8|0|8
344,132,22228,5,0
342,188,22472,1,0
234,155,22962,2,0,B|230:231|294:288,2,140,8|0|8
177,156,24184,5,0
121,156,24429,1,0
70,56,24918,2,0,B|144:56|215:88,2,140,8|2|8
93,107,26141,5,0
121,156,26385,1,0
206,84,26874,2,0,B|263:110|313:176,2,140,8|2|8
201,140,28097,5,0
201,195,28342,1,0
311,174,28831,2,0,B|333:219|328:287|318:322,2,140,8|2|8
256,186,30054,5,0
201,195,30298,1,0
118,145,30787,2,0,B|132:90|167:56|210:32,1,140,8|2
201,37,31521,6,0,B|260:12|293:28,1,70,0|2
256,136,32255,1,0
256,192,32499,1,0
256,192,32622,1,0
256,192,32744,1,2
176,160,33111,5,0
176,160,33233,1,0
128,128,33478,1,0
80,160,33722,1,2
128,184,33967,1,0
80,208,34211,1,0
128,232,34456,1,0
128,232,34578,1,0
128,232,34700,1,2
128,120,35189,5,0
128,120,35312,1,0
128,120,35434,1,0
128,64,35679,1,2
240,64,36168,1,0
240,64,36290,1,0
240,64,36412,1,0
240,120,36657,1,2
320,120,37024,5,0
320,120,37146,1,0
352,168,37390,1,0
320,216,37635,1,2
288,168,37880,1,0
288,168,38002,1,0
288,168,38124,2,0,B|240:160|200:176,1,70
218,169,38491,2,0,B|168:192|136:168,1,70
256,88,39347,5,0
256,88,39592,1,2
368,88,40081,1,0
352,144,40325,1,0
312,184,40570,1,2
256,200,40814,5,0
200,184,41059,1,0
160,144,41303,1,0
144,88,41548,1,2
256,88,42037,5,0
256,144,42282,1,0
256,200,42526,1,2
256,32,43260,5,0
256,32,43382,1,0
256,32,43504,1,2
200,32,43749,1,0
200,32,43871,1,0
200,32,43994,1,0
152,64,44238,1,0
152,64,44360,1,0
136,200,44972,5,0
186,223,45216,1,0
240,234,45461,1,2
295,228,45705,1,0
349,214,45950,1,0
349,214,46072,1,0
349,214,46195,1,0
398,189,46439,1,2
256,189,53776,5,0
256,189,53898,1,0
256,189,54020,1,0
256,133,54265,1,2
146,108,54754,5,0
193,76,54999,1,0
194,76,55121,2,0,B|230:61|256:60|279:60|306:66,1,105
333,108,55732,5,0
297,64,55977,1,0
297,65,56099,2,0,B|263:57|236:63|215:61|187:82,1,105
153,112,56711,5,0
153,167,56955,1,0
105,138,57200,1,2
105,194,57444,1,0
153,221,57689,1,0
204,198,57933,1,0
204,198,58056,1,0
204,198,58178,1,2
256,96,58667,5,0
312,96,58912,1,0
368,96,59156,1,2
344,144,59401,1,0
288,144,59645,1,0
232,144,59890,1,0
200,96,60134,1,2
232,48,60379,5,0
232,48,60501,2,0,B|352:48,1,105
392,48,61113,1,2
432,88,61357,1,0
440,144,61602,1,0
424,200,61846,1,0
424,200,61969,1,0
424,200,62091,1,2
256,168,62825,5,0
112,256,63558,5,0
112,256,63681,1,0
112,256,63803,1,0
112,256,64047,1,2
224,256,64536,5,0
224,199,64781,1,0
224,143,65026,2,0,B|224:61,1,70,2|0
280,74,65515,1,0
280,130,65759,1,0
280,184,66004,1,2
280,74,66371,5,0
280,74,66493,1,0
336,88,66738,1,0
392,104,66982,1,2
392,240,67471,5,0
336,240,67716,1,0
336,240,67838,1,0
336,240,67960,1,2
256,224,68327,5,0
256,224,68449,1,0
208,200,68694,1,0
256,168,68939,1,2
208,144,69183,1,0
160,168,69428,1,0
160,168,69550,1,0
160,168,69672,1,0
160,224,69917,1,2
256,280,70406,5,0
256,224,70650,1,0
256,224,70773,1,0
256,224,70895,1,2
256,112,71384,5,0
256,112,71506,1,0
256,112,71629,1,0
312,112,71873,1,2
368,112,72118,1,0
368,112,72240,1,0
368,112,72362,1,0
368,168,72607,1,0
368,224,72851,1,2
256,224,73341,5,0
256,224,73463,1,0
256,224,73585,1,0
256,168,73830,1,2
256,112,74074,1,0
256,112,74197,1,0
256,112,74319,1,0
312,112,74563,1,0
368,112,74808,1,2
368,168,75053,5,0
368,224,75297,1,0
368,224,75419,1,0
368,280,75664,1,0
368,336,75908,1,0
368,336,76031,1,0
368,336,76153,1,0
368,336,76275,1,0
312,336,76520,1,0
312,336,76642,1,0
312,336,76764,2,0,B|272:352|224:328,1,70,2|0
243,336,77131,2,0,B|208:312|160:336,1,70
176,329,77498,5,0
176,329,77620,1,0
176,329,77743,1,2
176,272,77987,1,0
376,193,79210,5,0
327,229,79455,1,0
322,173,79699,1,8
275,208,79944,1,0
268,152,80188,1,0
312,117,80433,1,0
363,138,80677,1,8
376,193,80922,1,0
322,172,81166,1,0
327,229,81411,1,0
275,208,81656,1,8
267,152,81900,1,0
155,137,82389,5,0
177,85,82634,1,8
217,45,82878,1,0
269,25,83123,2,0,B|350:15|420:53,2,140,2|10|2
289,77,84346,5,0
314,127,84590,1,8
303,181,84835,1,0
288,235,85079,2,0,B|210:256|136:236|148:240,2,140,2|10|2
288,235,86302,1,0
136,193,87036,5,0
185,229,87280,1,0
193,173,87525,1,8
237,208,87770,1,0
244,152,88014,1,0
200,117,88259,1,0
149,138,88503,1,8
136,193,88748,1,0
91,158,88992,1,0
103,103,89237,1,0
155,83,89481,1,8
199,116,89726,1,0
256,177,90215,5,0
303,207,90460,1,8
356,192,90704,1,0
390,147,90949,2,0,B|401:57|311:23,2,140,2|10|2
355,192,92172,5,0
303,207,92416,1,8
248,209,92661,1,0
195,204,92905,2,0,B|156:199|103:165|78:99,2,140,2|10|2
171,253,94128,1,0
256,191,94617,5,0
222,147,94862,1,0
189,40,95351,2,0,B|247:9|327:38,2,140,8|0|8
204,95,96574,5,0
221,147,96818,1,0
277,47,97307,2,0,B|215:20|136:43,2,140,8|0|8
252,97,98530,5,0
221,147,98775,1,0
130,91,99264,2,0,B|88:160|132:251,2,140,8|0|8
168,132,100487,5,0
170,188,100731,1,0
278,155,101220,2,0,B|282:231|218:288,2,140,8|0|8
335,156,102443,5,0
391,156,102688,1,0
442,56,103177,2,0,B|368:56|297:88,2,140,8|2|8
419,107,104400,5,0
390,156,104644,1,0
305,84,105133,2,0,B|248:110|198:176,2,140,8|2|8
311,140,106356,5,0
311,195,106601,1,0
200,174,107090,2,0,B|178:219|183:287|193:322,2,140,8|2|8
255,186,108312,5,0
311,195,108557,1,0
394,145,109046,2,0,B|380:90|345:56|302:32,1,140,8|6
