osu file format v6

[General]
AudioFilename: Maui Wowie (short).mp3
AudioLeadIn: 0
PreviewTime: 78135
Countdown: 1
SampleSet: Soft
StackLeniency: 0.7
Mode: 0
LetterboxInBreaks: 1

[Editor]
DistanceSpacing: 0.899999976158142
BeatDivisor: 4
GridSize: 8

[Metadata]
Title:Maui Wowie
Artist:Kid Cudi
Creator:Detective Tuesday
Version:Easy
Source:A Kid Named Kudi
Tags:Hip Hop

[Difficulty]
HPDrainRate:2
CircleSize:3
OverallDifficulty:2
SliderMultiplier:1.4
SliderTickRate:1

[Events]
//Background and Video events
0,0,"Maui Wowie Big.jpg"
//Break Periods
2,46639,52216
//Storyboard Layer 0 (Background)
//Storyboard Layer 1 (Fail)
//Storyboard Layer 2 (Pass)
//Storyboard Layer 3 (Foreground)
//Storyboard Sound Samples
//Background Colour Transformations
3,100,163,162,255

[TimingPoints]
1930,489.117143555882,4,2,0,74,1,0

[HitObjects]
281,143,15625,1,2
281,143,16603,1,0
324,40,17092,2,2,B|266:9|186:38,2,140,8|0|8
281,143,18559,5,0
176,104,19049,2,2,B|136:176|184:248,2,140,8|0|8
281,143,20516,5,0
382,91,21005,2,2,B|424:160|380:251,2,140,8|0|8
342,188,22472,5,0
234,155,22962,2,2,B|230:231|294:288,2,140,8|0|8
119,156,24429,5,0
70,56,24918,2,2,B|144:56|215:88,2,140,8|2|8
119,156,26385,5,0
206,84,26874,2,2,B|263:110|313:176,2,140,8|2|8
200,194,28342,5,0
312,174,28831,2,2,B|334:219|329:287|319:322,2,140,8|2|8
200,194,30298,5,0
101,135,30787,2,2,B|132:90|167:56|210:32,1,140,8|2
369,249,32255,5,0
256,248,32744,1,2
144,248,33233,5,0
144,136,33722,1,2
256,136,34211,1,0
256,136,34456,1,0
256,136,34700,1,2
368,136,35189,5,0
368,24,35679,1,2
256,24,36168,1,0
256,24,36412,1,0
256,24,36657,1,2
256,136,37146,5,0
256,248,37635,1,2
144,248,38124,2,0,B|96:240|56:255,1,70
74,249,38491,2,0,B|24:272|-8:248,1,70
256,88,39347,5,0
256,88,39592,1,2
256,200,40081,1,0
256,312,40570,1,2
144,312,41059,1,0
144,200,41548,1,2
144,88,42037,1,0
144,88,42282,1,0
144,88,42526,1,2
256,32,43260,5,0
256,32,43504,1,2
256,144,43994,1,0
184,96,44360,1,0
128,208,44972,5,0
128,208,45216,1,0
128,208,45461,1,2
240,208,45950,1,0
352,208,46439,1,2
256,192,53776,5,0
256,192,54020,1,0
256,192,54265,1,2
368,192,54754,6,0,B|416:200|448:232|456:264,2,105
368,248,55732,6,0,B|416:240|448:208|456:176,2,105
312,248,56711,5,0
200,248,57200,1,2
200,136,57689,1,0
312,136,58178,1,2
312,248,58667,5,0
256,248,58912,1,0
200,248,59156,1,2
200,136,59645,1,0
256,136,59890,1,0
312,136,60134,1,2
256,72,60501,6,0,B|376:72,1,105
416,72,61113,1,2
416,184,61602,1,0
416,184,61846,1,0
416,184,62091,1,2
256,168,62825,5,0
112,256,63558,5,0
112,256,63803,1,0
112,256,64047,1,2
224,256,64536,5,0
224,143,65026,2,0,B|224:61,1,70,2|0
280,74,65515,1,0
280,184,66004,1,2
280,74,66493,5,0
392,104,66982,1,2
392,240,67471,1,0
336,240,67716,1,0
312,288,67960,1,2
216,224,68449,1,0
216,168,68694,1,0
168,136,68939,1,2
56,136,69428,1,0
56,192,69672,1,0
104,220,69917,1,2
216,224,70406,5,0
328,224,70895,1,2
440,224,71384,5,0
440,113,71873,1,2
328,112,72362,1,0
328,112,72607,1,0
328,112,72851,1,2
256,200,73341,5,0
144,200,73830,1,2
144,88,74319,1,0
256,88,74808,1,2
352,136,75297,1,0
352,216,75664,1,0
352,72,76275,1,0
240,72,76764,2,0,B|200:88|152:63,1,70,2|0
171,72,77131,2,0,B|136:48|88:72,1,70
112,152,77743,5,0
112,152,77987,1,0
376,193,79210,5,0
272,152,79699,1,8
306,61,80188,1,0
350,26,80433,1,0
401,47,80677,1,8
420,157,81166,1,0
314,117,81656,1,8
155,137,82389,5,0
177,85,82634,1,8
269,25,83123,2,0,B|350:15|420:53,2,140,2|10|2
289,77,84346,5,0
314,127,84590,1,8
288,235,85079,2,2,B|210:256|136:236|148:240,2,140,2|10|2
288,235,86302,1,0
149,240,87036,5,0
198,276,87280,1,0
206,220,87525,1,8
269,127,88014,1,0
162,122,88503,1,8
70,71,88992,1,0
125,62,89237,1,0
180,58,89481,1,8
256,177,90215,5,0
303,206,90460,1,8
390,147,90949,2,0,B|401:57|311:23,2,140,2|10|2
355,191,92172,5,0
303,206,92416,1,8
189,202,92905,2,2,B|150:197|97:163|72:97,2,140,2|10|2
163,251,94128,1,0
231,143,94862,5,0
188,40,95351,2,2,B|246:9|326:38,2,140,8|0|8
231,143,96818,5,0
336,104,97307,2,2,B|376:176|328:248,2,140,8|0|8
231,143,98775,5,0
130,91,99264,2,2,B|88:160|132:251,2,140,8|0|8
170,188,100731,5,0
278,155,101220,2,2,B|282:231|218:288,2,140,8|0|8
391,156,102688,5,0
442,56,103177,2,2,B|368:56|297:88,2,140,8|2|8
391,156,104644,5,0
307,84,105133,2,2,B|250:110|200:176,2,140,8|2|8
311,195,106601,5,0
201,173,107090,2,2,B|179:218|184:286|194:321,2,140,8|2|8
310,195,108557,5,0
411,135,109046,2,2,B|380:90|345:56|302:32,1,140,8|2
