osu file format v9

[General]
AudioFilename: Kid Cudi - Enter Galactic (Love Connection Part 1).mp3
AudioLeadIn: 0
PreviewTime: 16184
Countdown: 0
SampleSet: Normal
StackLeniency: 0.7
Mode: 0
LetterboxInBreaks: 1

[Editor]
DistanceSpacing: 1
BeatDivisor: 4
GridSize: 16

[Metadata]
Title:Enter Galactic
Artist:Kid Cudi
Creator:Real1
Version:Trip
Source:
Tags:Love Connection Part 1 man on the moon end of day shrooms

[Difficulty]
HPDrainRate:5
CircleSize:4
OverallDifficulty:6
ApproachRate:6
SliderMultiplier:1.5
SliderTickRate:1

[Events]
//Background and Video events
0,0,"AndrewStewart-supernova2-space-art.jpg"
//Break Periods
2,32384,47134
2,96384,111134
2,144384,159884
//Storyboard Layer 0 (Background)
//Storyboard Layer 1 (Fail)
//Storyboard Layer 2 (Pass)
//Storyboard Layer 3 (Foreground)
//Storyboard Sound Samples
//Background Colour Transformations
3,100,163,162,255

[TimingPoints]
184.683405499532,500,4,1,0,80,1,0
16934,-100,4,1,0,61,0,1
32054,-100,4,1,0,61,0,0
64934,-100,4,1,0,61,0,1
96168,-100,4,1,0,61,0,0
160907,-100,4,1,0,61,0,1
176092,-100,4,1,0,61,0,0
176279,-100,4,2,0,66,0,0
208934,-100,4,1,0,58,0,1
240144,-100,4,1,0,66,0,0

[Colours]
Combo1 : 221,63,23
Combo2 : 14,176,231
Combo3 : 189,55,186

[HitObjects]
96,192,16184,1,0
176,192,16434,2,8,B|256:192,1,75,0|8
320,192,16934,5,0
320,192,17184,1,0
400,192,17434,1,0
480,192,17684,1,8
400,64,18184,5,0
400,64,18434,1,0
400,64,18684,1,8
320,64,18934,6,0,B|208:64,1,75
176,64,19434,2,0,B|176:160,1,75,0|8
336,192,20184,6,0,B|288:224|240:224|176:192,1,150,0|8
160,272,20934,2,0,B|240:304|288:304|400:256,1,225,0|8
368,112,22184,6,0,B|288:112,2,75,0|0|8
448,112,22934,2,0,B|448:208,3,75,0|0|8|8
448,304,24184,5,4
336,192,24934,6,0,B|336:288,1,75
336,336,25434,1,0
336,336,25684,1,8
336,192,26184,5,0
336,192,26434,1,0
336,112,26684,1,8
336,112,26934,2,0,B|256:112,1,75
256,192,27434,1,0
256,192,27684,1,8
144,256,28184,6,0,B|112:208|112:160|144:96,1,150,0|8
192,64,28934,1,0
256,32,29184,1,0
320,64,29434,1,8
256,96,29684,1,8
176,192,30184,6,0,B|272:192,1,75
320,192,30684,2,0,B|320:80,1,75,8|0
320,48,31184,2,0,B|416:48,2,75,0|8|8
256,192,32184,5,4
256,128,48184,5,0
256,208,48434,1,0
256,288,48684,1,8
144,192,49184,5,0
144,112,49434,1,0
144,32,49684,2,0,B|192:16|240:16|304:32,1,150,8|0
352,192,50684,5,8
208,192,51184,1,0
128,192,51434,1,0
208,192,51684,1,8
320,96,52184,5,2
320,96,52434,1,2
320,96,52684,1,8
208,192,53184,1,2
208,192,53434,1,2
208,192,53684,5,8
288,192,53934,2,0,B|384:192,1,75
448,192,54434,1,0
432,272,54684,1,8
256,192,55184,6,0,B|160:192,2,75,2|2|8
112,192,56184,1,4
384,80,57184,6,0,B|320:144,1,75
272,176,57684,2,0,B|176:176,1,75,8|0
197,176,58184,2,0,B|96:176,1,75
48,176,58684,2,0,B|48:336,2,150,8|0|8
256,192,60184,5,4
416,48,61184,6,0,B|240:48,1,150,0|8
208,96,61934,1,0
208,176,62184,1,0
352,192,62684,5,8
352,272,62934,1,0
352,352,63184,1,0
352,272,63434,2,0,B|272:272,1,75,0|8
160,272,64184,1,4
256,80,64934,5,0
208,144,65184,1,0
160,208,65434,1,0
208,272,65684,1,8
336,192,66184,5,0
336,192,66434,1,0
336,192,66684,1,8
336,112,66934,2,0,B|240:112,3,75,0|0|0|8
112,112,68184,6,0,B|112:288,2,150,0|8|0
112,48,69434,1,8
112,48,69684,1,8
320,192,70184,6,0,B|288:128|336:96|320:32,2,150,0|8|0
320,192,71434,1,8
320,192,71684,1,8
320,304,72184,5,4
192,192,72934,5,0
192,192,73184,1,0
112,192,73434,1,0
32,192,73684,1,8
112,320,74184,5,0
112,320,74434,1,0
112,320,74684,1,8
192,320,74934,6,0,B|304:320,1,75
352,320,75434,2,0,B|352:224,1,75,0|8
176,192,76184,6,0,B|224:160|272:160|336:192,1,150,0|8
352,112,76934,2,0,B|272:80|224:80|112:128,1,225,0|8
144,272,78184,6,0,B|224:272,2,75,0|0|8
64,272,78934,2,0,B|64:176,3,75,0|0|8|8
64,80,80184,5,4
176,192,80934,6,0,B|176:96,1,75
176,32,81434,1,0
176,32,81684,1,8
176,192,82184,5,0
176,192,82434,1,0
176,272,82684,1,8
176,272,82934,2,0,B|256:272,1,75
256,192,83434,1,0
256,192,83684,1,8
368,128,84184,6,0,B|400:176|400:224|368:288,1,150,0|8
368,336,84934,2,0,B|279:337,3,75,0|0|8|8
336,192,86184,6,0,B|240:192,1,75
192,192,86684,2,0,B|192:304,1,75,8|0
192,336,87184,2,0,B|96:336,2,75,0|8|8
256,192,88184,5,4
432,48,88934,5,0
384,112,89184,1,0
432,48,89434,1,0
480,112,89684,1,8
352,192,90184,5,0
272,192,90434,1,0
192,192,90684,1,8
112,192,90934,2,0,B|112:272,3,75,0|0|0|8
256,320,92184,6,0,B|256:144,1,150,0|8
256,170,92934,1,0
256,170,93184,1,0
256,170,93434,1,8
256,170,93684,1,8
256,192,94184,12,4,96184
256,32,112184,6,0,B|256:208,1,150,0|8
144,288,113184,6,0,B|320:288,1,150,0|8
416,192,114184,2,0,B|256:192,1,150,0|8
116,193,115184,2,0,B|276:193,1,150,0|8
336,64,116184,6,0,B|256:96|176:64,1,150,0|8
128,176,117184,2,0,B|192:144|304:176,1,150,0|8
423,176,118184,2,0,B|343:144|247:176,1,150,0|8
96,192,119184,1,4
208,288,119684,6,0,B|256:320|288:272|368:288,1,150,8|0
480,192,120684,2,0,B|416:176|384:224|320:192,1,150,8|0
192,128,121684,2,0,B|240:160|272:112|352:128,1,150,8|0
256,256,122684,1,8
256,256,122934,1,0
256,256,123184,1,0
256,112,123684,5,8
400,112,124184,2,0,B|432:176|432:192|400:272,1,150,0|8
272,192,125184,2,0,B|96:192,1,150,0|8
64,48,126184,1,0
144,48,126434,1,0
224,48,126684,1,8
368,48,127184,1,4
304,192,127684,6,0,B|240:176|208:224|144:192,1,150,8|4
256,304,128684,5,8
336,304,128934,1,0
400,256,129184,1,0
400,112,129684,1,8
336,160,129934,1,0
256,176,130184,1,0
112,192,130684,5,8
176,240,130934,1,0
256,256,131184,1,0
256,256,131434,1,0
256,256,131684,1,8
304,112,132184,6,0,B|256:80|208:80|128:112,3,150,0|8|0|8
96,144,133934,5,0
96,224,134184,1,0
176,224,134434,2,0,B|272:224,1,75,0|8
352,112,135184,1,0
352,112,135434,1,0
352,112,135684,1,8
400,256,136184,6,0,B|336:272|320:320|256:304,2,150,0|8|0
384,112,137684,1,8
320,160,137934,1,0
272,224,138184,1,0
208,176,138434,2,0,B|128:176,3,75,0|8|0|0
256,272,139684,1,8
336,272,139934,5,0
384,208,140184,1,0
400,128,140434,1,0
400,48,140684,1,8
400,48,140934,2,0,B|288:48,1,75
256,192,141684,1,8
256,192,141934,12,4,144184
256,304,160934,5,0
304,240,161184,1,0
352,176,161434,1,0
304,112,161684,1,8
176,192,162184,5,0
176,192,162434,1,0
176,192,162684,1,8
176,272,162934,2,0,B|272:272,3,75,0|0|0|8
400,272,164184,6,0,B|400:96,2,150,0|8|0
400,352,165434,1,8
400,352,165684,1,8
192,192,166184,6,0,B|224:256|176:288|192:352,2,150,0|8|0
112,176,167434,1,8
32,176,167684,1,8
192,80,168184,5,4
320,192,168934,5,0
320,192,169184,1,0
400,192,169434,1,0
480,192,169684,1,8
400,320,170184,5,0
400,320,170434,1,0
400,320,170684,1,8
320,320,170934,6,0,B|208:320,1,75
176,320,171434,2,0,B|176:224,1,75,0|8
336,192,172184,6,0,B|288:160|240:160|176:192,1,150,0|8
160,256,172934,1,0
80,256,173184,1,0
80,176,173434,1,8
80,96,173684,1,8
368,272,174184,6,0,B|288:272,2,75,0|0|8
448,272,174934,2,0,B|448:176,3,75,0|0|8|8
256,192,176184,5,4
448,80,177184,6,0,B|352:80,1,75
176,192,178184,2,0,B|256:192,1,75
432,336,179184,1,2
96,192,180184,5,4
256,96,181184,6,0,B|256:176,1,75
80,336,182434,1,0
80,224,182934,1,0
80,112,183434,2,0,B|80:32,2,75
144,112,184184,2,2,B|224:112,1,75
304,192,184934,5,2
304,192,185184,1,2
304,192,185434,1,2
128,192,186184,6,0,B|128:272,1,75
224,336,186934,2,0,B|320:336,1,75,0|2
256,96,188184,5,4
384,192,188934,5,2
304,192,189184,1,2
224,192,189434,1,2
64,48,190434,5,0
64,160,190934,1,0
176,160,191434,2,0,B|272:160,2,75
176,224,192184,2,2,B|176:304,1,75
320,192,192934,5,2
320,192,193184,1,2
320,192,193434,1,2
160,112,194184,5,0
160,112,194434,1,0
288,112,194934,2,2,B|368:112,1,75,0|2
256,256,196184,5,4
112,64,197184,5,0
112,64,197434,1,0
176,240,198184,5,4
384,192,198934,5,0
320,192,199184,1,0
256,192,199434,1,0
176,96,199934,5,0
48,96,200434,1,0
112,208,200934,2,0,B|112:288,2,75,0|0|2
336,112,202434,5,2
336,112,202684,1,2
336,112,202934,1,2
112,192,203934,5,0
112,192,204184,1,4
336,96,205934,5,0
384,160,206184,1,4
256,112,207684,5,4
256,304,208934,5,0
256,304,209184,1,0
256,304,209434,1,0
256,304,209684,1,8
176,192,210184,5,0
176,192,210434,1,0
176,192,210684,1,8
176,272,210934,2,0,B|272:272,3,75,0|0|0|8
400,272,212184,6,0,B|400:96,2,150,0|8|0
400,336,213434,2,8,B|304:336,1,75,8|8
192,192,214184,6,0,B|224:256|176:288|192:352,2,150,0|8|0
128,192,215434,1,8
128,192,215684,1,8
208,112,216184,5,4
368,192,216934,6,0,B|256:192,1,75
368,192,217434,2,0,B|448:192,1,75,0|8
400,64,218184,5,0
400,64,218434,1,0
400,64,218684,1,8
320,64,218934,6,0,B|208:64,1,75
176,64,219434,2,0,B|176:160,1,75,0|8
336,192,220184,6,0,B|288:224|240:224|176:192,2,150,0|8|0
336,192,221434,1,8
336,192,221684,1,8
368,80,222184,6,0,B|288:80,2,75,0|0|8
448,80,222934,2,0,B|448:176,3,75,0|0|8|8
336,80,224184,5,4
336,192,224934,6,0,B|336:288,1,75
336,352,225434,1,0
336,352,225684,1,8
336,192,226184,5,0
336,192,226434,1,0
336,112,226684,1,8
336,112,226934,2,0,B|256:112,1,75
256,192,227434,1,0
256,192,227684,1,8
144,256,228184,6,0,B|112:208|112:160|144:96,1,150,0|8
64,80,228934,2,0,B|32:160|32:208|80:320,1,225,0|8
176,192,230184,6,0,B|272:192,1,75
320,192,230684,2,0,B|320:80,1,75,8|0
320,48,231184,2,0,B|416:48,2,75,0|8|8
256,192,232184,5,4
80,336,232934,5,0
80,256,233184,1,0
80,176,233434,1,0
80,96,233684,1,8
160,192,234184,5,0
240,192,234434,1,0
320,192,234684,1,8
400,192,234934,2,0,B|400:112,3,75,0|0|0|8
256,64,236184,6,0,B|256:240,1,150,0|8
256,214,236934,1,0
256,214,237184,1,0
256,214,237434,1,8
256,214,237684,1,8
256,192,238184,12,4,240184
48,192,240684,5,8
112,144,240934,1,0
176,192,241184,1,0
320,192,241684,1,8
384,144,241934,1,0
448,192,242184,1,4
