osu file format v9

[General]
AudioFilename: Kid Cudi - Enter Galactic (Love Connection Part 1).mp3
AudioLeadIn: 0
PreviewTime: 16184
Countdown: 0
SampleSet: Soft
StackLeniency: 0.7
Mode: 0
LetterboxInBreaks: 1

[Editor]
DistanceSpacing: 1
BeatDivisor: 4
GridSize: 16

[Metadata]
Title:Enter Galactic
Artist:Kid Cudi
Creator:Real1
Version:Threshold
Source:
Tags:Love Connection Part 1 man on the moon end of day shrooms

[Difficulty]
HPDrainRate:1
CircleSize:3
OverallDifficulty:3
ApproachRate:3
SliderMultiplier:1.3
SliderTickRate:1

[Events]
//Background and Video events
0,0,"AndrewStewart-supernova2-space-art.jpg"
//Break Periods
2,32384,46744
2,96384,110744
2,144384,159494
//Storyboard Layer 0 (Background)
//Storyboard Layer 1 (Fail)
//Storyboard Layer 2 (Pass)
//Storyboard Layer 3 (Foreground)
//Storyboard Sound Samples
//Background Colour Transformations
3,100,163,162,255

[TimingPoints]
184.683405499532,500,4,1,0,80,1,0
16934,-100,4,1,0,61,0,1
32054,-100,4,1,0,61,0,0
64934,-100,4,1,0,61,0,1
96168,-100,4,1,0,61,0,0
160907,-100,4,1,0,61,0,1
176092,-100,4,1,0,61,0,0
176279,-100,4,2,0,66,0,0

[Colours]
Combo1 : 221,63,23
Combo2 : 14,176,231
Combo3 : 189,55,186

[HitObjects]
432,192,16184,2,0,B|304:80|272:320|64:144,1,390,4|8
144,64,18184,6,0,B|288:64,1,130,0|8
400,64,19184,1,0
400,192,19684,1,8
256,288,20184,6,0,B|80:352|0:176|96:64,1,390,0|8
224,64,22184,2,0,B|336:64|432:160|448:224,1,260
352,288,23684,1,8
256,160,24184,5,4
96,64,24934,6,0,B|160:32|208:32|288:64,1,195,0|8
384,160,26184,2,0,B|416:208|416:240|384:304,1,130,0|8
288,208,27184,1,4
256,96,28184,6,0,B|80:32|0:208|96:320,1,390,0|8
224,336,30184,6,0,B|336:240,3,130,0|8|0|8
256,144,32184,5,4
432,96,48184,6,0,B|272:96,1,130,0|8
208,192,49184,6,0,B|352:192,1,130,0|8
256,288,50184,2,0,B|112:288,1,130,0|8
48,192,51184,2,0,B|192:192,1,130,0|8
304,192,52184,1,4
256,48,53684,6,0,B|352:48|432:128|432:240,1,260,8|8
176,192,55684,1,4
304,192,56184,1,4
80,320,57184,6,0,B|224:320,1,130,0|8
208,192,58184,2,0,B|48:192,1,130,0|8
80,64,59184,2,0,B|224:64,1,130,0|8
256,192,60184,1,4
256,192,61059,12,4,64184
240,160,64934,6,0,B|320:224|384:224|432:208,1,195,0|8
368,64,66184,6,0,B|224:64,1,130,0|8
112,64,67184,1,0
112,192,67684,1,8
256,288,68184,6,0,B|432:352|512:176|416:64,1,390,0|8
304,112,70184,6,0,B|196:19|20:99|84:275,1,390,0|8
192,192,72184,5,4
416,64,72934,6,0,B|352:32|304:32|224:64,1,195,0|8
128,160,74184,2,0,B|96:208|96:240|128:304,1,130,0|8
224,208,75184,1,4
256,96,76184,6,0,B|432:32|512:208|416:320,1,390,0|8
304,256,78184,5,0
176,256,78684,1,8
96,144,79184,1,0
208,64,79684,1,8
336,64,80184,5,4
240,224,80934,6,0,B|320:160|384:160|432:176,1,195,0|8
368,320,82184,6,0,B|224:320,1,130,0|8
112,320,83184,1,0
112,192,83684,1,8
256,96,84184,6,0,B|432:32|512:208|416:320,1,390,0|8
304,256,86184,6,0,B|144:256,3,130,0|8|0|8
208,128,88184,5,4
416,320,88934,6,0,B|352:352|304:352|224:320,1,195,0|8
128,224,90184,2,0,B|96:176|96:144|128:80,1,130,0|8
224,176,91184,1,4
256,288,92184,6,0,B|432:352|512:176|416:64,1,390,0|8
368,192,94184,6,0,B|224:192,3,130,0|8|0|8
144,96,96184,5,4
256,64,112184,6,0,B|256:208,1,130,0|8
352,64,113184,2,0,B|352:208,1,130,0|8
352,320,114184,2,0,B|208:320,1,130,0|8
96,320,115184,1,4
96,64,116184,6,0,B|240:64,1,130,0|8
352,64,117184,2,0,B|352:224,1,130,0|8
272,288,118184,2,0,B|112:288,1,130,0|8
48,192,119184,1,4
288,80,120184,6,0,B|288:224,1,130,0|8
336,256,120934,1,0
400,224,121184,2,0,B|432:192|443:162|432:96,1,130,0|8
320,160,122184,6,0,B|240:240|128:240|64:176,1,260
176,112,123684,1,8
304,80,124184,6,0,B|368:64|464:80,1,130,0|8
432,144,124934,2,0,B|400:224,1,65
336,320,125684,6,0,B|176:320,1,130,8|0
176,192,126684,2,0,B|32:192,1,130,8|0
128,96,127684,1,8
192,96,127934,1,4
256,96,128184,5,0
256,224,128684,1,8
368,160,129184,2,0,B|368:304,1,130,0|8
256,352,130184,1,0
128,352,130684,6,0,B|128:192,1,130,8|0
128,96,131684,1,8
256,96,132184,6,0,B|256:240,2,130,0|8|0
384,96,133684,2,0,B|384:240,1,130,8|0
256,256,134684,2,0,B|112:256,1,130,8|0
64,256,135434,2,0,B|64:160,1,65,0|8
160,96,136184,6,0,B|256:160|320:48|432:96,1,260
336,192,137684,1,8
272,192,137934,2,0,B|192:192,1,65
80,192,138684,2,0,B|80:352,1,130,8|0
192,256,139684,5,8
320,256,140184,2,0,B|320:112,1,130,0|8
192,128,141184,1,0
320,128,141684,1,8
256,192,141934,12,4,144184
240,160,160934,6,0,B|320:224|384:224|432:208,1,195,0|8
368,64,162184,6,0,B|224:64,1,130,0|8
112,64,163184,1,0
112,192,163684,1,8
256,288,164184,6,0,B|432:352|512:176|416:64,1,390,0|8
320,144,166184,5,0
192,144,166684,1,8
256,32,167184,1,0
256,160,167684,1,8
320,272,168184,1,4
416,64,168934,6,0,B|352:32|304:32|224:64,1,195,0|8
128,160,170184,2,0,B|96:208|96:240|128:304,1,130,0|8
224,208,171184,1,4
256,96,172184,6,0,B|432:32|512:208|416:320,1,390,0|8
368,192,174184,6,0,B|208:192,3,130,0|8|0|8
384,64,176184,5,4
