osu file format v9

[General]
AudioFilename: Kid Cudi - Enter Galactic (Love Connection Part 1).mp3
AudioLeadIn: 0
PreviewTime: 16184
Countdown: 0
SampleSet: Normal
StackLeniency: 0.7
Mode: 0
LetterboxInBreaks: 1

[Editor]
DistanceSpacing: 1
BeatDivisor: 4
GridSize: 16

[Metadata]
Title:Enter Galactic
Artist:Kid Cudi
Creator:Real1
Version:Ego Death
Source:
Tags:Love Connection Part 1 man on the moon end of day shrooms

[Difficulty]
HPDrainRate:7
CircleSize:5
OverallDifficulty:7
ApproachRate:7
SliderMultiplier:1.8
SliderTickRate:1

[Events]
//Background and Video events
0,0,"AndrewStewart-supernova2-space-art.jpg"
//Break Periods
2,32384,47284
2,96384,111284
2,143884,160034
//Storyboard Layer 0 (Background)
//Storyboard Layer 1 (Fail)
//Storyboard Layer 2 (Pass)
//Storyboard Layer 3 (Foreground)
//Storyboard Sound Samples
//Background Colour Transformations
3,100,163,162,255

[TimingPoints]
184.683405499532,500,4,1,0,80,1,0
16934,-100,4,1,0,61,0,1
32054,-100,4,1,0,61,0,0
64934,-100,4,1,0,61,0,1
96168,-100,4,1,0,61,0,0
160907,-100,4,1,0,61,0,1
176092,-100,4,1,0,61,0,0
176279,-100,4,2,0,66,0,0
208934,-100,4,1,0,58,0,1
240144,-100,4,1,0,66,0,0

[Colours]
Combo1 : 221,63,23
Combo2 : 14,176,231
Combo3 : 189,55,186

[HitObjects]
256,80,16184,1,4
256,176,16434,1,0
256,176,16559,1,0
256,176,16684,1,8
256,272,16934,5,0
256,272,17184,1,0
256,272,17434,1,0
352,272,17684,1,8
352,96,18184,5,0
352,96,18309,1,0
352,96,18434,1,0
352,192,18684,1,8
272,144,18934,1,0
272,144,19059,1,0
272,144,19184,1,0
176,144,19434,1,0
224,224,19684,1,8
464,48,20184,6,0,B|416:96|448:176|416:224,1,180,0|8
336,192,20934,1,0
336,192,21059,1,0
336,192,21184,1,0
336,288,21434,1,8
336,192,21684,1,8
32,336,22184,6,0,B|32:256|112:240|112:160,1,180,0|8
112,96,22934,1,0
160,80,23059,1,0
208,96,23184,1,0
160,176,23434,1,8
160,272,23684,1,8
320,192,24184,5,4
432,48,24684,1,8
432,144,24934,5,0
432,144,25059,1,0
432,144,25184,1,0
432,240,25434,1,0
368,304,25684,1,8
80,96,26184,5,0
256,96,26434,1,0
256,96,26684,1,8
304,176,26934,5,0
304,176,27059,1,0
304,176,27184,1,0
304,272,27434,1,0
384,224,27684,1,8
144,80,28184,6,0,B|96:128|144:192|96:256,1,180,0|8
100,250,28934,1,0
100,250,29059,1,0
100,250,29184,1,0
192,240,29434,1,8
256,176,29684,1,8
400,64,30184,6,0,B|400:176,1,90
400,64,30684,2,0,B|304:64,1,90,8|0
320,160,31184,1,0
320,160,31309,1,0
320,160,31434,1,8
224,160,31684,1,8
48,192,32184,5,4
256,80,48184,5,0
256,176,48434,1,0
256,272,48684,1,8
368,128,49184,5,0
368,128,49434,1,0
368,224,49684,1,8
368,320,49934,1,0
368,320,50184,2,0,B|288:368|176:320,1,180,0|8
144,256,50934,2,0,B|144:144,3,90,0|0|0|8
320,192,52184,5,4
208,48,52684,1,8
96,192,53184,1,4
208,336,53684,5,8
304,336,53934,1,0
352,256,54184,2,0,B|352:160,2,90,0|0|8
336,64,55684,6,0,B|256:48|224:112|128:64,1,180,8|4
96,240,56684,1,8
272,192,57184,1,0
272,288,57434,1,0
272,192,57684,1,8
272,96,57934,2,0,B|368:96,1,90
362,96,58434,1,0
368,192,58684,1,8
368,288,58934,1,0
464,288,59184,2,0,B|496:224|448:176|464:80,1,180,0|8
256,192,60184,5,4
112,80,60684,5,8
112,256,61184,2,0,B|112:160,1,90
112,256,61684,2,0,B|112:352,1,90,8|0
112,256,62184,1,0
112,256,62434,2,0,B|240:256,3,90,0|8|0|0
208,160,63434,1,0
304,160,63684,1,8
400,160,63934,1,0
400,160,64184,1,4
256,96,64934,5,0
256,192,65184,1,0
256,288,65434,1,0
256,192,65684,1,8
368,48,66184,5,0
368,48,66309,1,0
368,48,66434,1,0
368,144,66684,1,8
368,240,66934,5,0
368,240,67059,1,0
368,240,67184,1,0
320,320,67434,1,0
224,320,67684,1,8
96,192,68184,6,0,B|128:112|192:144|240:80,1,180,0|8
320,48,68934,1,0
320,48,69059,1,0
320,48,69184,1,0
320,144,69434,1,8
320,240,69684,1,8
144,192,70184,5,0
144,192,70434,1,0
144,96,70684,1,8
240,96,70934,1,0
240,96,71059,1,0
240,96,71184,1,0
240,192,71434,1,8
240,288,71684,1,8
400,96,72184,5,4
400,192,72434,1,0
400,192,72559,1,0
400,192,72684,1,8
256,272,72934,5,0
256,272,73184,1,0
256,272,73434,1,0
160,272,73684,1,8
160,96,74184,5,0
160,96,74309,1,0
160,96,74434,1,0
160,192,74684,1,8
240,144,74934,1,0
240,144,75059,1,0
240,144,75184,1,0
336,144,75434,1,0
288,224,75684,1,8
48,48,76184,6,0,B|96:96|64:176|96:224,1,180,0|8
176,192,76934,1,0
176,192,77059,1,0
176,192,77184,1,0
176,288,77434,1,8
176,192,77684,1,8
480,336,78184,6,0,B|480:256|400:240|400:160,1,180,0|8
400,96,78934,1,0
352,80,79059,1,0
304,96,79184,1,0
352,176,79434,1,8
352,176,79684,1,8
192,192,80184,5,4
432,64,80934,5,0
352,112,81184,1,0
416,176,81434,1,0
352,112,81684,1,8
176,112,82184,6,0,B|176:176,2,45
80,112,82684,1,8
80,208,82934,5,0
80,256,83059,1,0
80,304,83184,1,0
160,256,83434,1,0
256,256,83684,1,8
384,128,84184,6,0,B|320:96|272:160|176:128,1,180,0|8
160,64,84934,1,0
160,64,85059,1,0
160,64,85184,1,0
256,48,85434,1,8
352,64,85684,1,8
400,240,86184,6,0,B|336:224|288:288|192:272,1,180,0|8
144,256,86934,1,0
144,256,87059,1,0
144,256,87184,1,0
176,176,87434,1,8
272,176,87684,1,8
336,336,88184,5,4
160,336,88684,1,8
80,240,88934,5,0
80,240,89059,1,0
80,240,89184,1,0
80,144,89434,1,0
144,80,89684,1,8
432,288,90184,5,0
256,288,90434,1,0
352,128,90684,1,8
208,208,90934,5,0
208,208,91059,1,0
208,208,91184,1,0
208,112,91434,1,0
128,160,91684,1,8
368,304,92184,6,0,B|416:256|368:192|416:128,1,180,0|8
412,134,92934,1,0
412,134,93059,1,0
412,134,93184,1,0
320,144,93434,1,8
256,208,93684,1,8
112,320,94184,5,0
112,320,94309,1,0
112,320,94434,1,0
112,224,94684,2,0,B|160:208|208:224,1,90,8|0
112,320,95184,1,0
112,320,95434,1,8
112,224,95684,1,8
464,192,96184,5,4
96,96,112184,5,0
192,96,112434,1,0
288,96,112684,1,8
448,192,113184,5,0
448,192,113434,1,0
448,192,113684,1,8
272,192,114184,5,0
272,288,114434,1,0
272,192,114684,1,8
96,192,115184,5,0
160,128,115434,1,0
224,64,115684,1,8
224,64,116184,5,0
160,128,116434,1,0
96,192,116684,1,8
272,192,117184,5,0
368,192,117434,1,0
464,192,117684,1,8
272,192,118184,5,0
176,192,118434,1,0
80,192,118684,1,8
176,48,119184,5,0
176,48,119434,1,0
176,48,119684,1,8
352,48,120184,5,0
352,144,120434,1,0
352,240,120684,1,8
176,240,121184,6,0,B|176:128,1,90
176,64,121684,1,8
352,80,122184,6,0,B|384:144|320:176|352:192,1,90
336,256,122684,1,8
336,256,122934,1,0
336,256,123184,1,0
176,192,123684,5,8
320,96,124184,5,0
384,160,124434,1,0
320,96,124684,1,8
208,240,125184,1,0
208,240,125434,1,0
208,240,125684,5,8
208,144,125934,1,0
112,144,126184,1,0
112,320,126684,2,0,B|176:352|224:320|304:320,1,180,8|0
256,144,127684,1,8
256,240,127934,1,4
384,128,128684,5,8
320,192,128934,1,0
256,240,129184,1,0
160,240,129434,1,0
64,240,129684,1,8
112,160,129934,1,0
112,64,130184,1,0
208,64,130434,5,0
208,64,130559,1,0
208,64,130684,1,8
304,64,130934,1,0
368,128,131184,1,0
336,208,131434,1,0
256,240,131684,1,8
256,144,131934,5,0
256,144,132059,1,0
256,144,132184,1,0
160,144,132434,1,0
64,144,132684,1,8
112,224,132934,1,0
112,320,133184,1,0
176,272,133434,5,0
176,272,133559,1,0
176,272,133684,1,8
272,272,133934,5,0
368,272,134184,1,0
320,192,134434,1,0
320,96,134684,1,8
224,96,134934,1,0
224,96,135059,1,0
224,96,135184,1,0
128,96,135434,1,0
176,176,135684,1,8
272,176,135934,5,0
272,176,136059,1,0
272,176,136184,1,0
224,240,136434,1,0
272,304,136684,1,8
368,304,136934,1,0
464,304,137184,1,0
416,224,137434,5,0
416,224,137559,1,0
416,224,137684,1,8
416,128,137934,1,0
416,128,138184,1,0
320,128,138434,1,0
224,128,138684,1,8
128,128,138934,1,0
128,128,139184,1,0
176,208,139434,5,0
176,208,139559,1,0
176,208,139684,1,8
176,304,139934,1,0
272,304,140184,1,0
176,304,140434,1,0
80,304,140684,1,8
176,304,140934,1,0
272,304,141184,1,0
368,304,141434,5,0
368,304,141559,1,0
368,304,141684,1,8
320,224,141934,6,0,B|288:272|96:272|96:32|352:32,1,450
256,160,143684,1,4
256,112,160934,5,0
256,112,161184,1,0
256,112,161434,1,0
352,112,161684,1,8
352,288,162184,5,0
352,288,162309,1,0
352,288,162434,1,0
352,192,162684,1,8
272,240,162934,1,0
272,240,163059,1,0
272,240,163184,1,0
176,240,163434,1,0
224,160,163684,1,8
464,336,164184,6,0,B|416:288|448:208|416:160,1,180,0|8
336,192,164934,1,0
336,192,165059,1,0
336,192,165184,1,0
336,96,165434,1,8
336,192,165684,1,8
32,48,166184,6,0,B|32:128|112:144|112:224,1,180,0|8
112,288,166934,1,0
160,304,167059,1,0
208,288,167184,1,0
160,208,167434,1,8
160,112,167684,1,8
288,240,168184,5,0
288,240,168309,1,0
288,240,168434,1,0
432,336,168684,1,8
432,240,168934,5,0
432,240,169184,1,0
432,144,169434,1,0
368,80,169684,1,8
80,288,170184,5,0
256,288,170434,1,0
256,288,170684,1,8
304,208,170934,5,0
304,208,171059,1,0
304,208,171184,1,0
304,112,171434,1,0
384,160,171684,1,8
144,304,172184,6,0,B|96:256|144:192|96:128,1,180,0|8
100,134,172934,1,0
100,134,173059,1,0
100,134,173184,1,0
192,144,173434,1,8
256,208,173684,1,8
400,320,174184,6,0,B|400:208,1,90
400,320,174684,2,0,B|304:320,1,90,8|0
400,320,175184,1,0
400,320,175309,1,0
400,320,175434,1,8
400,224,175684,1,8
48,192,176184,5,4
384,64,177184,5,0
384,160,177434,1,0
112,192,178184,5,0
208,192,178434,1,0
432,48,179184,5,2
256,192,180184,5,4
48,320,181184,5,0
48,144,181434,1,0
416,48,182434,5,0
64,48,182934,1,0
256,352,183434,1,0
160,192,183934,5,2
256,192,184184,1,2
352,192,184434,1,2
256,96,184934,5,2
256,192,185184,1,2
256,288,185434,1,2
256,192,186184,5,0
256,192,186434,1,0
384,64,186934,6,0,B|384:176,1,90,0|2
256,192,188184,5,4
400,288,188934,5,2
400,192,189184,1,2
400,288,189434,1,2
416,336,190434,5,0
64,336,190934,1,0
256,32,191434,1,0
256,128,191684,1,0
160,192,191934,5,2
256,192,192184,1,2
352,192,192434,1,2
256,288,192934,5,2
256,192,193184,1,2
256,96,193434,1,2
256,192,194184,5,2
256,192,194434,1,2
256,336,194934,2,0,B|384:336,1,90,0|2
256,192,196184,5,4
64,64,197184,5,2
64,64,197434,1,2
256,192,198184,5,4
400,64,198934,5,0
400,160,199184,1,2
400,256,199434,1,2
80,48,199934,6,0,B|80:160,1,90
80,138,200434,2,0,B|80:240,1,90
80,228,200934,2,2,B|80:320,2,90
432,304,202434,5,2
352,256,202684,1,2
272,208,202934,1,2
80,64,203934,5,0
80,192,204184,1,4
256,64,205934,5,0
256,192,206184,1,4
256,192,207684,5,4
256,288,208934,5,0
256,192,209184,1,0
256,192,209434,1,0
256,192,209684,1,8
144,336,210184,5,0
144,336,210309,1,0
144,336,210434,1,0
144,240,210684,1,8
144,144,210934,5,0
144,144,211059,1,0
144,144,211184,1,0
192,64,211434,1,0
288,64,211684,1,8
416,192,212184,6,0,B|384:272|320:240|272:304,1,180,0|8
192,336,212934,1,0
192,336,213059,1,0
192,336,213184,1,0
192,240,213434,1,8
192,144,213684,1,8
368,192,214184,5,0
368,192,214434,1,0
368,288,214684,1,8
272,288,214934,1,0
272,288,215059,1,0
272,288,215184,1,0
272,192,215434,1,8
272,96,215684,1,8
112,288,216184,5,4
112,192,216434,1,0
112,192,216559,1,0
112,192,216684,1,8
256,112,216934,5,0
256,112,217184,1,0
256,112,217434,1,0
352,112,217684,1,8
352,288,218184,5,0
352,288,218309,1,0
352,288,218434,1,0
352,192,218684,1,8
272,240,218934,1,0
272,240,219059,1,0
272,240,219184,1,0
176,240,219434,1,0
224,160,219684,1,8
464,336,220184,6,0,B|416:288|448:208|416:160,1,180,0|8
336,192,220934,1,0
336,192,221059,1,0
336,192,221184,1,0
336,96,221434,1,8
336,96,221684,1,8
240,96,221934,1,8
32,48,222184,6,0,B|32:128|112:144|112:224,1,180,0|8
112,288,222934,1,0
112,288,223059,1,0
112,288,223184,1,0
176,224,223434,1,8
272,224,223684,1,8
272,128,223934,1,8
400,176,224184,5,4
80,320,224934,5,0
160,272,225184,1,0
96,208,225434,1,0
160,272,225684,1,8
336,272,226184,6,0,B|336:208,2,45
432,272,226684,1,8
432,176,226934,5,0
432,128,227059,1,0
432,80,227184,1,0
352,128,227434,1,0
256,128,227684,1,8
128,256,228184,6,0,B|192:288|240:224|336:256,1,180,0|8
352,320,228934,1,0
352,320,229059,1,0
352,320,229184,1,0
256,336,229434,1,8
160,320,229684,1,8
112,240,229934,1,8
112,144,230184,6,0,B|176:160|224:96|320:112,1,180,0|8
368,128,230934,1,0
368,128,231059,1,0
368,128,231184,1,0
336,208,231434,1,8
240,208,231684,1,8
240,208,231934,1,8
176,48,232184,5,4
352,48,232684,1,8
432,144,232934,5,0
432,144,233059,1,0
432,144,233184,1,0
432,240,233434,1,0
368,304,233684,1,8
304,240,233934,1,8
128,192,234184,5,0
224,80,234434,1,0
224,80,234684,1,8
304,176,234934,5,0
304,176,235059,1,0
304,176,235184,1,0
304,272,235434,1,0
384,224,235684,1,8
288,224,235934,1,8
144,80,236184,6,0,B|96:128|144:192|96:256,1,180,0|8
100,250,236934,1,0
100,250,237059,1,0
100,250,237184,1,0
192,240,237434,1,8
256,176,237684,1,8
352,176,237934,1,8
400,64,238184,5,0
400,64,238309,1,0
400,64,238434,1,0
400,64,238684,2,0,B|304:64,1,90,8|0
400,64,239184,1,0
400,64,239309,1,0
400,64,239434,1,8
400,160,239684,1,8
320,192,239934,1,8
80,192,240184,5,4
224,128,240684,5,8
224,304,241184,1,4
384,192,241684,5,0
384,192,241809,1,0
384,192,241934,1,0
384,192,242059,1,0
384,192,242184,1,4
