osu file format v12

[General]
AudioFilename: Kicks_N_Licks_-_Own_The_Night_Feat._Nicole_Millar_...mp3
AudioLeadIn: 0
PreviewTime: 55892
Countdown: 0
SampleSet: Soft
StackLeniency: 0.7
Mode: 0
LetterboxInBreaks: 0
WidescreenStoryboard: 0

[Editor]
Bookmarks: 22404,39148,55892,72637,89381,97753
DistanceSpacing: 0.9
BeatDivisor: 4
GridSize: 4

[Metadata]
Title:Own The Night (MitiS DnB Remix)
TitleUnicode:Own The Night (MitiS DnB Remix)
Artist:Kicks N Licks Feat. Nicole Millar
ArtistUnicode:Kicks N Licks Feat. Nicole Millar
Creator:Ami
Version:Normal
Source:
Tags:cheesiest Asphyxia drumnbass Irreversible
BeatmapID:368309
BeatmapSetID:149045

[Difficulty]
HPDrainRate:4
CircleSize:3
OverallDifficulty:4
ApproachRate:5
SliderMultiplier:1.05
SliderTickRate:1

[Events]
//Background and Video events
0,0,"BG.png",0,0
//Break Periods
//Storyboard Layer 0 (Background)
//Storyboard Layer 1 (Fail)
//Storyboard Layer 2 (Pass)
//Storyboard Layer 3 (Foreground)
//Storyboard Sound Samples
//Background Colour Transformations
3,100,163,162,255

[TimingPoints]
77,348.837209302326,4,2,0,70,1,0
22402,-100,4,2,0,70,0,0
55193,-100,4,2,0,100,0,0
55890,-100,4,2,1,100,0,1
76821,-100,4,2,0,70,0,0
78216,-100,4,2,1,100,0,1
97751,-100,4,2,0,70,0,0
101239,-100,4,2,0,65,0,0
101937,-100,4,2,0,55,0,0
102635,-100,4,2,0,45,0,0
103332,-100,4,2,0,35,0,0
104030,-100,4,2,0,25,0,0
105251,-100,4,2,0,5,0,0

[Colours]
Combo1 : 95,145,205
Combo2 : 198,209,236
Combo3 : 190,115,215

[HitObjects]
240,208,22402,2,0,P|260:136|244:44,2,157.5,2|0|2,0:0|0:0|0:0,0:0:0:0:
148,248,23797,2,0,P|191:295|320:256,1,210,2|0,0:0|0:0,0:0:0:0:
384,192,24844,1,2,0:0:0:0:
440,268,25193,6,0,B|492:212|492:212|500:124,2,157.5,2|0|2,0:0|0:0|0:0,0:0:0:0:
356,228,26588,2,0,B|328:196|260:188|260:188|228:136|176:124,1,210,2|2,0:0|0:0,0:0:0:0:
92,92,27635,1,2,0:0:0:0:
40,168,27983,6,0,P|4:264|12:332,2,157.5,2|2|2,0:0|0:0|0:0,0:0:0:0:
88,88,29379,2,0,L|144:184,1,105
204,248,30077,2,0,P|243:250|300:216,1,105,0|2,0:0|0:0,0:0:0:0:
228,152,30774,6,0,P|248:100|352:60,2,157.5,2|0|2,0:0|0:0|0:0,0:0:0:0:
328,160,32170,2,0,L|432:224,2,105,2|2|2,0:0|0:0|0:0,0:0:0:0:
256,220,33216,1,0,0:0:0:0:
180,164,33565,6,0,B|144:216|176:272|176:272|72:304,2,210,2|2|2,0:0|0:0|0:0,0:0:0:0:
244,96,35309,1,2,0:0:0:0:
292,176,35658,2,0,P|324:180|392:140,1,105,0|2,0:0|0:0,0:0:0:0:
452,80,36356,6,0,B|496:176|496:176|492:292,1,210,2|0,0:0|0:0,0:0:0:0:
408,324,37402,1,2,0:0:0:0:
348,248,37751,2,0,P|304:215|168:276,1,210,0|2,0:0|0:0,0:0:0:0:
108,336,38797,1,2,0:0:0:0:
60,252,39146,6,0,P|40:200|112:72,1,210,0|2,0:0|0:0,0:0:0:0:
200,92,40193,1,2,0:0:0:0:
220,184,40542,2,0,P|260:208|328:204,2,105,2|0|2,0:0|0:0|0:0,0:0:0:0:
288,112,41588,1,0,0:0:0:0:
336,32,41937,6,0,B|420:20|420:20|492:40,2,157.5,2|0|2,0:0|0:0|0:0,0:0:0:0:
288,112,43332,2,0,B|212:124|212:124|128:104,2,157.5,2|0|2,0:0|0:0|0:0,0:0:0:0:
324,204,44728,6,0,L|280:312,1,105,0|0,0:0|0:0,0:0:0:0:
192,288,45425,2,0,L|240:176,1,105,2|0,0:0|0:0,0:0:0:0:
260,100,46123,2,0,P|212:28|136:32,2,157.5,2|0|0,0:0|0:0|0:0,0:0:0:0:
224,188,47518,2,0,P|188:240|192:300,1,105
276,264,48216,2,0,P|328:276|384:248,1,105
320,180,48914,2,0,P|316:136|392:52,2,157.5,2|2|2,0:0|0:0|0:0,0:0:0:0:
228,156,50309,6,0,L|120:136,1,105
80,220,51007,2,0,L|192:240,1,105,2|0,0:0|0:0,0:0:0:0:
276,256,51704,2,0,P|332:232|360:136,2,157.5,2|2|0,0:0|0:0|0:0,0:0:0:0:
256,192,53100,12,0,54495,0:0:0:0:
320,84,55193,5,0,1:0:0:0:
148,156,55890,6,0,P|167:194|232:232,1,105,6|0,0:0|1:0,0:0:0:0:
300,180,56588,2,0,P|331:205|368:280,1,105,2|0,0:0|1:0,0:0:0:0:
388,352,57286,2,0,P|396:256|468:160,1,210,2|0,0:0|0:0,0:0:0:0:
492,76,58332,1,0,1:0:0:0:
392,76,58681,6,4,L|284:40,1,105,2|0,0:0|1:0,0:0:0:0:
252,128,59379,2,0,L|360:164,1,105,2|0,0:0|1:1,0:0:0:0:
332,252,60077,2,0,L|128:184,1,210,2|0,0:0|0:0,0:0:0:0:
40,184,61123,1,0,1:0:0:0:
52,88,61472,6,0,P|84:40|136:28,1,105,2|0,0:0|1:0,0:0:0:0:
216,64,62170,2,0,P|184:108|132:116,1,105,2|0,0:0|1:0,0:0:0:0:
168,208,62867,2,0,P|224:252|352:188,1,210,2|0,0:0|0:0,0:0:0:0:
256,152,63914,1,0,1:0:0:0:
172,108,64263,6,0,P|176:60|220:16,1,105,2|0,0:0|1:0,0:0:0:0:
292,68,64960,2,0,P|332:69|396:36,1,105,2|0,0:0|1:0,0:0:0:0:
444,132,65658,2,0,B|448:236|448:236|408:340,2,210,2|0|6,0:0|0:0|0:0,0:0:0:0:
352,144,67402,5,0,1:0:0:0:
284,212,67751,2,0,L|164:204,1,105,2|0,0:0|1:0,0:0:0:0:
88,176,68449,2,0,P|92:100|208:52,1,210,2|0,0:0|0:0,0:0:0:0:
179,143,69495,1,0,1:0:0:0:
244,212,69844,6,0,P|296:220|356:200,1,105,2|0,0:0|1:0,0:0:0:0:
392,124,70542,2,0,P|352:112|284:132,1,105,2|0,0:0|1:0,0:0:0:0:
244,212,71239,2,0,P|204:280|64:292,1,210,2|0,0:0|0:0,0:0:0:0:
64,208,72286,1,0,1:0:0:0:
88,116,72635,6,0,B|120:80|120:80|180:64,1,105,2|0,0:0|1:0,0:0:0:0:
204,156,73332,2,0,B|240:192|240:192|292:208,1,105,2|0,0:0|1:0,0:0:0:0:
300,112,74030,2,0,P|364:62|476:136,1,210,2|0,0:0|0:0,0:0:0:0:
384,152,75077,1,0,1:0:0:0:
340,236,75425,6,0,L|228:264,1,105,2|0,0:0|1:0,0:0:0:0:
144,272,76123,2,0,P|108:236|92:180,1,105,2|0,0:0|1:0,0:0:0:0:
192,184,76821,6,0,P|248:128|252:48,1,157.5,2|2,0:0|0:0,0:0:0:0:
284,16,77518,2,0,L|384:56,1,105,4|0,1:0|0:0,0:0:0:0:
428,136,78216,6,0,B|424:236|424:236|472:352,1,210,6|2,0:0|0:0,0:0:0:0:
372,344,79263,1,0,1:0:0:0:
308,272,79611,2,0,P|262:234|124:272,1,210,2|2,0:0|0:0,0:0:0:0:
48,316,80658,1,0,1:0:0:0:
32,224,81007,6,0,B|24:200|24:200|40:168|40:168|24:136|24:136|40:104|40:104|24:76|24:76|44:32,1,210,2|2,0:0|0:0,0:0:0:0:
136,44,82053,1,0,1:0:0:0:
180,128,82402,2,0,P|232:144|336:44,1,210,2|2,0:0|0:0,0:0:0:0:
432,60,83449,1,0,1:0:0:0:
412,152,83797,6,0,P|356:220|232:260,1,210,2|2,0:0|0:0,0:0:0:0:
152,232,84844,1,0,1:0:0:0:
152,136,85193,2,0,P|148:92|108:44,2,105,2|0|2,0:0|1:0|0:0,0:0:0:0:
56,132,86239,1,0,1:0:0:0:
76,224,86588,6,0,P|164:252|256:172,1,210,2|2,0:0|0:0,0:0:0:0:
272,92,87635,1,0,1:0:0:0:
344,156,87983,2,0,P|412:132|436:96,2,105,2|0|0,0:0|1:0|1:0,0:0:0:0:
340,60,89030,1,0,1:0:0:0:
340,60,89379,6,0,B|240:40|240:40|132:40,1,210,6|2,0:0|0:0,0:0:0:0:
68,108,90425,1,0,1:0:0:0:
68,108,90774,2,0,B|72:166|72:166|60:244|60:244|72:328,1,210,2|2,0:0|0:0,0:0:0:0:
144,376,91821,1,0,1:0:0:0:
220,316,92170,6,0,B|216:258|216:258|228:180|228:180|216:96,1,210,2|2,0:0|0:0,0:0:0:0:
272,28,93216,1,0,1:0:0:0:
316,112,93565,2,0,P|400:120|464:16,1,210,2|2,0:0|0:0,0:0:0:0:
368,28,94611,1,0,1:0:0:0:
272,28,94960,6,0,L|152:20,2,105,2|0|2,0:0|1:0|0:0,0:0:0:0:
316,112,96007,1,0,1:0:0:0:
232,156,96356,2,0,B|176:164|176:164|132:136|132:136|72:120|20:148,1,210,2|2,0:0|0:0,0:0:0:0:
84,220,97402,1,0,1:0:0:0:
116,308,97751,6,0,P|176:316|272:268,1,157.5,2|2,0:0|0:0,0:0:0:0:
100,120,99146,2,0,L|264:68,2,157.5
256,192,100542,12,0,105251,0:0:0:0:
