osu file format v12

[General]
AudioFilename: The Fine Every Day (TV Size).mp3
AudioLeadIn: 500
PreviewTime: 48142
Countdown: 0
SampleSet: Soft
StackLeniency: 0.7
Mode: 0
LetterboxInBreaks: 0

[Editor]
DistanceSpacing: 2
BeatDivisor: 4
GridSize: 4

[Metadata]
Title:The fine every day (TV Size)
TitleUnicode:The fine every day (TV Size)
Artist:Kicco
ArtistUnicode:Kicco
Creator:Darksonic
Version:Insane
Source:Tayutama -Kiss on my Deity-
Tags:opening verdisphena andrea osuplayer111 reyshel visual novel eroge silver link
BeatmapID:233606
BeatmapSetID:81518

[Difficulty]
HPDrainRate:7
CircleSize:4
OverallDifficulty:7
ApproachRate:9
SliderMultiplier:1.6
SliderTickRate:2

[Events]
//Background and Video events
0,0,"BG.jpg",0,0
Video,220,"Tayutama OP.avi"
//Break Periods
//Storyboard Layer 0 (Background)
//Storyboard Layer 1 (Fail)
//Storyboard Layer 2 (Pass)
//Storyboard Layer 3 (Foreground)
//Storyboard Sound Samples
//Background Colour Transformations
3,100,163,162,255

[TimingPoints]
1363,338.983050847458,4,2,1,55,1,0
14583,-100,4,2,2,55,0,0
14922,-133.333333333333,4,2,1,50,0,0
21871,-133.333333333333,4,2,2,50,0,0
22040,-133.333333333333,4,2,1,50,0,0
24413,-119.047619047619,4,2,0,55,0,0
24922,-103.092783505155,4,2,0,60,0,0
25430,-90.9090909090909,4,2,0,65,0,0
25769,-100,4,2,1,55,0,0
35430,-100,4,2,3,55,0,0
35600,-100,4,2,1,55,0,0
44074,-100,4,2,3,55,0,0
44244,-100,4,2,1,55,0,0
48481,-66.6666666666667,4,2,0,55,0,0
48820,-100,4,2,1,60,0,1
52210,-90.9090909090909,4,2,2,60,0,1
52379,-90.9090909090909,4,2,1,60,0,1
58312,-100,4,2,1,55,0,0
59668,-100,4,2,1,60,0,1
64244,-100,4,2,3,60,0,1
64413,-100,4,2,1,60,0,1
70515,-100,4,2,1,55,0,0
80007,-100,4,2,1,58,0,0
80346,-100,4,2,1,61,0,0
80685,-100,4,2,1,64,0,0
81363,-100,4,2,1,55,0,0
88142,-100,4,2,1,42,0,0
89498,-100,4,2,1,30,0,0
90854,-100,4,2,1,17,0,0
92210,-100,4,2,0,5,0,0

[Colours]
Combo1 : 234,186,254
Combo2 : 255,165,121
Combo3 : 0,255,255
Combo4 : 255,255,128

[HitObjects]
136,88,1362,2,0,P|60:124|47:192,1,160,4|0,0:0|0:0,0:0:0:0:
76,328,1871,2,0,P|152:292|164:223,1,160,4|0,0:0|0:0,0:0:0:0:
292,164,2379,2,0,P|256:149|220:164,1,80
347,223,2718,6,0,P|360:292|436:328,1,160,4|0,0:0|0:0,0:0:0:0:
464,192,3227,2,0,P|452:124|376:88,1,160,4|8,0:0|3:0,0:0:0:0:
297,76,3735,2,0,L|225:40,1,80,8|8,3:0|3:0,0:0:0:0:
164,92,4074,6,0,L|308:164,1,160,4|0,0:0|0:0,0:0:0:0:
372,284,4583,2,0,L|228:212,1,160,4|8,0:0|3:0,0:0:0:0:
92,208,5091,1,8,3:0:0:0:
164,92,5261,1,8,3:0:0:0:
228,212,5430,6,0,P|288:160|298:83,1,160,4|0,0:0|0:0,0:0:0:0:
228,212,5939,2,0,P|168:264|157:340,1,160,4|8,0:0|3:0,0:0:0:0:
236,348,6447,1,0,0:0:0:0:
228,212,6617,1,0,0:0:0:0:
228,212,6701,1,0,0:0:0:0:
228,212,6786,6,0,B|297:196|333:252|333:252|371:252,1,160,4|0,0:0|0:0,0:0:0:0:
360,172,7295,2,0,P|328:152|287:140,1,80,4|0,0:0|0:0,0:0:0:0:
144,92,7634,2,0,P|176:112|216:123,2,80,8|8|8,3:0|3:0|3:0,0:0:0:0:
228,212,8142,6,0,P|144:192|82:153,1,160,4|0,0:0|0:0,0:0:0:0:
32,88,8651,1,0,0:0:0:0:
44,224,8820,1,0,0:0:0:0:
64,360,8990,1,8,3:0:0:0:
172,276,9159,1,8,3:0:0:0:
44,224,9329,1,0,0:0:0:0:
144,92,9498,6,0,P|208:44|279:64,1,160,4|0,0:0|0:0,0:0:0:0:
160,172,10007,2,0,P|239:183|275:248,1,160,4|0,0:0|0:0,0:0:0:0:
116,240,10515,2,0,P|136:311|88:375,1,160,4|2,0:0|0:0,0:0:0:0:
56,300,11024,5,0,0:0:0:0:
84,168,11193,1,2,0:0:0:0:
196,248,11362,1,0,0:0:0:0:
64,156,11532,5,8,3:0:0:0:
212,260,11701,1,8,3:0:0:0:
408,72,12040,1,0,1:0:0:0:
408,72,12125,1,0,1:0:0:0:
408,72,12210,6,0,P|388:108|387:146,1,80,4|0,0:0|0:0,0:0:0:0:
432,276,12549,2,0,P|452:240|452:201,1,80,10|2,0:0|0:0,0:0:0:0:
408,72,12888,2,0,P|372:52|333:51,1,80,2|2,0:0|0:0,0:0:0:0:
252,48,13227,1,8,0:0:0:0:
112,124,13396,6,2,P|188:124|260:164,1,160,2|2,0:0|0:0,0:0:0:0:
344,273,13905,1,10,0:0:0:0:
220,333,14074,1,2,0:0:0:0:
136,225,14244,1,2,0:0:0:0:
260,164,14413,2,2,P|292:96|250:29,1,160,2|0,0:0|0:0,0:0:0:0:
212,100,14922,6,0,P|184:160|196:209,1,120.000004577637,12|0,0:0|0:0,0:0:0:0:
268,224,15430,1,0,0:0:0:0:
324,348,15600,2,0,P|352:288|339:238,1,120.000004577637
268,224,16108,1,8,0:0:0:0:
204,328,16278,1,8,0:0:0:0:
324,348,16447,1,8,0:0:0:0:
152,84,16956,5,0,0:0:0:0:
116,148,17125,1,0,0:0:0:0:
172,196,17295,1,0,0:0:0:0:
136,260,17464,1,0,0:0:0:0:
192,308,17634,6,0,L|309:281,1,120.000004577637,8|0,0:0|0:0,0:0:0:0:
368,176,18142,1,0,0:0:0:0:
368,176,18312,2,0,L|250:202,1,120.000004577637
160,124,18820,1,8,0:0:0:0:
256,52,18990,1,8,0:0:0:0:
160,124,19159,1,8,0:0:0:0:
216,256,19498,5,0,0:0:0:0:
256,316,19668,1,0,0:0:0:0:
296,256,19837,1,0,0:0:0:0:
256,196,20007,2,0,L|256:136,1,60.0000022888184
156,204,20346,6,0,P|140:268|160:315,1,120.000004577637,8|0,0:0|0:0,0:0:0:0:
156,204,20854,2,0,P|92:188|44:208,1,120.000004577637
60,280,21362,1,0,0:0:0:0:
156,204,21532,1,8,0:0:0:0:
248,280,21701,6,0,P|301:256|329:204,1,120.000004577637,8|0,0:0|0:0,0:0:0:0:
352,84,22210,2,0,P|298:107|270:159,1,120.000004577637
329,204,22718,2,0,P|357:232|375:238,2,60.0000022888184,4|0|4,0:0|0:0|0:0,0:0:0:0:
116,316,23396,5,0,3:0:0:0:
72,204,23566,1,0,0:0:0:0:
184,160,23735,1,0,0:0:0:0:
228,272,23905,1,0,3:0:0:0:
328,128,24244,1,0,0:0:0:0:
328,128,24413,6,2,P|380:168|416:232,1,134.399995898438,4|0,0:0|0:0,0:0:0:0:
265,177,24922,6,2,P|325:225|353:297,1,155.200003670654,4|0,0:0|0:0,0:0:0:0:
188,236,25430,6,2,P|264:272|276:356,1,176.000005371094,4|6,0:0|0:0,0:0:0:0:
140,348,25939,5,0,0:0:0:0:
108,276,26108,2,0,P|100:232|110:199,1,80,8|0,0:0|0:0,0:0:0:0:
184,84,26447,2,0,P|192:128|181:160,1,80
112,120,26786,1,8,0:0:0:0:
244,200,26956,2,0,P|264:134|248:46,1,160
114,43,27464,2,0,P|104:76|112:120,1,80,8|0,0:0|0:0,0:0:0:0:
76,252,27803,5,2,0:0:0:0:
215,222,27973,1,2,0:0:0:0:
120,328,28142,1,10,0:0:0:0:
134,186,28312,1,2,0:0:0:0:
206,309,28481,6,0,P|288:320|346:275,1,160,0|8,0:0|0:0,0:0:0:0:
380,200,28990,1,0,0:0:0:0:
344,68,29159,2,0,P|299:126|310:208,1,160,0|8,0:0|0:0,0:0:0:0:
440,244,29668,2,0,P|485:186|474:104,1,160,0|2,0:0|0:0,0:0:0:0:
344,68,30176,2,0,L|266:48,1,80,8|0,0:0|0:0,0:0:0:0:
284,128,30515,5,2,0:0:0:0:
212,244,30685,1,0,0:0:0:0:
88,189,30854,2,0,P|144:253|212:244,1,160,8|2,0:0|0:0,0:0:0:0:
348,244,31362,5,0,0:0:0:0:
284,128,31532,1,8,0:0:0:0:
212,244,31701,2,0,P|276:300|266:367,1,160
200,324,32210,2,0,P|160:324|125:305,1,80,8|0,0:0|0:0,0:0:0:0:
104,148,32549,6,0,P|184:148|252:185,1,160,2|8,0:0|0:0,0:0:0:0:
380,132,33057,2,0,P|340:132|306:113,1,80,0|2,0:0|0:0,0:0:0:0:
360,56,33396,1,0,0:0:0:0:
452,156,33566,1,8,0:0:0:0:
332,216,33735,1,0,0:0:0:0:
424,316,33905,5,6,0:0:0:0:
264,300,34074,1,2,0:0:0:0:
344,308,34244,1,10,0:0:0:0:
184,292,34413,2,0,B|164:252|164:252|184:192|135:146,1,160,2|0,0:0|0:0,0:0:0:0:
92,216,34922,2,0,P|56:240|48:276,1,80,8|0,0:0|0:0,0:0:0:0:
184,292,35261,6,0,P|232:364|304:380,1,160,6|2,0:0|0:0,0:0:0:0:
312,244,35769,1,6,0:0:0:0:
184,292,35939,1,2,0:0:0:0:
228,164,36108,1,2,0:0:0:0:
356,116,36278,1,8,0:0:0:0:
356,116,36362,1,8,0:0:0:0:
356,116,36447,1,8,0:0:0:0:
448,288,36617,6,0,P|376:296|312:244,1,160,6|8,0:0|0:0,0:0:0:0:
312,244,37125,1,0,0:0:0:0:
268,380,37295,2,0,P|260:308|312:244,1,160,2|8,0:0|0:0,0:0:0:0:
312,244,37803,1,0,0:0:0:0:
176,200,37973,2,0,P|248:192|312:244,1,160,2|8,0:0|0:0,0:0:0:0:
312,244,38481,1,0,0:0:0:0:
356,108,38651,2,0,P|364:180|312:244,1,160,2|8,0:0|0:0,0:0:0:0:
312,244,39159,1,0,0:0:0:0:
236,104,39329,6,0,P|160:104|100:158,1,160,2|8,0:0|0:0,0:0:0:0:
16,264,39837,1,0,0:0:0:0:
152,280,40007,2,0,P|228:248|202:221,1,160,2|8,0:0|0:0,0:0:0:0:
124,204,40515,1,0,0:0:0:0:
284,200,40685,6,0,P|304:256|289:313,1,120,2|0,0:0|0:0,0:0:0:0:
264,344,41024,1,8,0:0:0:0:
203,222,41193,1,0,0:0:0:0:
264,100,41362,2,0,L|340:72,1,80,2|0,0:0|0:0,0:0:0:0:
424,176,41701,5,8,0:0:0:0:
408,204,41786,1,8,0:0:0:0:
388,228,41871,1,8,0:0:0:0:
360,244,41956,1,8,0:0:0:0:
324,248,42040,6,0,L|248:276,1,80,2|0,0:0|0:0,0:0:0:0:
116,244,42379,1,10,0:0:0:0:
188,128,42549,2,0,L|264:100,1,80,0|2,0:0|0:0,0:0:0:0:
132,68,42888,2,0,P|112:100|110:141,2,80,0|10|0,0:0|0:0|0:0,0:0:0:0:
264,100,43396,6,0,P|284:132|285:173,1,80,2|0,0:0|0:0,0:0:0:0:
264,252,43735,1,10,0:0:0:0:
264,100,43905,2,0,P|328:60|410:56,1,160
460,184,44413,1,10,0:0:0:0:
491,316,44583,1,0,0:0:0:0:
361,282,44752,6,0,P|331:309|313:344,1,80,4|0,0:0|0:0,0:0:0:0:
284,212,45091,2,0,P|265:247|260:286,1,80,4|0,0:0|0:0,0:0:0:0:
184,176,45430,2,0,P|178:215|187:253,1,80,4|0,0:0|0:0,0:0:0:0:
72,180,45769,2,0,P|80:219|102:251,1,80,4|0,0:0|0:0,0:0:0:0:
208,336,46108,5,4,0:0:0:0:
332,236,46278,1,0,0:0:0:0:
184,176,46447,1,0,0:0:0:0:
208,336,46617,1,0,0:0:0:0:
240,248,46956,1,0,0:0:0:0:
240,248,47295,5,0,0:0:0:0:
376,164,47464,2,0,P|404:192|415:229,1,80,4|4,0:0|0:0,0:0:0:0:
268,164,47803,2,0,P|240:136|228:98,1,80,4|4,0:0|0:0,0:0:0:0:
440,100,48481,6,0,P|481:141|499:197,1,120.000004577637,8|0,0:0|0:0,0:0:0:0:
452,264,48820,5,4,0:0:0:0:
320,200,48990,1,0,0:0:0:0:
224,308,49159,2,0,L|146:287,1,80,8|0,0:0|0:0,0:0:0:0:
51,179,49498,2,0,L|128:199,1,80,8|0,0:0|0:0,0:0:0:0:
264,152,49837,2,0,L|186:131,1,80,8|0,0:0|0:0,0:0:0:0:
108,108,50176,5,10,0:0:0:0:
236,60,50346,1,0,0:0:0:0:
344,144,50515,2,0,P|336:192|315:213,1,80,8|0,0:0|0:0,0:0:0:0:
163,233,50854,2,0,P|191:213|235:213,1,80,10|0,0:0|0:0,0:0:0:0:
310,345,51193,2,0,P|285:315|277:275,1,80,10|0,0:0|0:0,0:0:0:0:
196,140,51532,5,6,0:0:0:0:
68,188,51701,1,0,0:0:0:0:
96,56,51871,1,10,0:0:0:0:
196,140,52040,2,0,P|256:192|333:202,1,160
421,186,52549,1,8,0:0:0:0:
348,56,52718,6,0,P|308:38|266:45,1,88.000002685547,0|10,0:0|0:0,0:0:0:0:
124,104,53057,2,0,P|163:121|205:113,1,88.000002685547,0|8,0:0|0:0,0:0:0:0:
296,120,53396,1,0,0:0:0:0:
124,104,53566,2,0,P|88:183|103:267,1,176.000005371094,10|10,0:0|0:0,0:0:0:0:
256,312,54074,1,0,0:0:0:0:
408,267,54244,6,0,P|423:183|388:104,1,176.000005371094,6|8,0:0|0:0,0:0:0:0:
300,88,54752,1,0,0:0:0:0:
164,104,54922,1,0,0:0:0:0:
284,164,55091,1,0,0:0:0:0:
161,225,55261,1,8,0:0:0:0:
296,240,55430,1,0,0:0:0:0:
174,337,55600,6,0,P|216:316|256:312,1,88.000002685547
364,196,55939,1,8,0:0:0:0:
364,196,56108,2,0,P|384:238|389:277,1,88.000002685547,0|0,0:0|0:0,0:0:0:0:
436,128,56447,2,0,P|415:85|410:46,2,88.000002685547,0|8|0,0:0|0:0|0:0,0:0:0:0:
389,278,56956,6,0,P|349:282|307:303,1,88.000002685547,2|0,0:0|0:0,0:0:0:0:
220,180,57295,1,8,0:0:0:0:
224,329,57464,2,0,P|263:324|307:303,1,88.000002685547,2|0,0:0|0:0,0:0:0:0:
220,180,57803,2,0,P|215:140|194:98,2,88.000002685547,0|10|0,0:0|0:0|0:0,0:0:0:0:
296,36,58312,5,4,0:0:0:0:
310,64,58396,1,0,0:0:0:0:
321,94,58481,1,0,0:0:0:0:
322,126,58566,1,0,0:0:0:0:
322,158,58651,1,0,0:0:0:0:
300,236,58820,1,0,0:0:0:0:
216,348,58990,5,4,0:0:0:0:
202,320,59074,1,0,0:0:0:0:
191,290,59159,1,0,0:0:0:0:
190,258,59244,1,0,0:0:0:0:
190,226,59329,1,0,0:0:0:0:
212,148,59498,1,0,0:0:0:0:
60,96,59668,6,0,P|104:104|135:118,1,80,4|0,0:0|0:0,0:0:0:0:
212,148,60007,1,8,0:0:0:0:
332,88,60176,2,0,P|324:132|309:163,1,80,0|8,0:0|0:0,0:0:0:0:
444,152,60515,2,0,P|415:186|386:206,1,80,0|8,0:0|0:0,0:0:0:0:
316,244,60854,5,2,0:0:0:0:
212,148,61024,1,10,0:0:0:0:
76,128,61193,1,0,0:0:0:0:
124,256,61362,2,0,P|96:284|56:292,2,80,8|2|8,0:0|0:0|0:0,0:0:0:0:
212,148,61871,2,8,P|240:120|278:111,1,80,8|10,0:0|0:0,0:0:0:0:
278,111,62125,1,8,0:0:0:0:
278,111,62210,1,8,0:0:0:0:
280,192,62379,6,0,P|312:224|343:238,1,80,4|0,0:0|0:0,0:0:0:0:
356,160,62718,1,8,0:0:0:0:
232,260,62888,2,0,P|200:228|168:213,1,80,0|8,0:0|0:0,0:0:0:0:
168,348,63227,2,0,P|124:336|90:339,1,80,0|8,0:0|0:0,0:0:0:0:
60,264,63566,1,2,0:0:0:0:
168,348,63735,6,0,P|211:336|245:339,1,80,10|0,0:0|0:0,0:0:0:0:
136,260,64074,2,0,P|98:194|18:198,2,160,8|8|10,0:0|0:0|0:0,0:0:0:0:
256,192,64922,1,0,0:0:0:0:
376,260,65091,6,0,P|414:194|493:198,1,160,4|8,0:0|0:0,0:0:0:0:
456,268,65600,2,0,L|377:129,1,160,2|0,0:0|0:0,0:0:0:0:
260,60,66108,2,0,L|299:129,1,80,8|0,0:0|0:0,0:0:0:0:
304,292,66447,6,0,L|225:153,1,160,2|8,0:0|0:0,0:0:0:0:
152,120,66956,1,0,0:0:0:0:
64,224,67125,1,2,0:0:0:0:
196,264,67295,2,0,L|235:333,2,80,0|8|0,0:0|0:0|0:0,0:0:0:0:
152,120,67803,6,0,B|228:144|228:144|308:144,1,160,2|8,0:0|0:0,0:0:0:0:
332,68,68312,2,0,L|252:68,1,80,2|0,0:0|0:0,0:0:0:0:
384,144,68651,2,0,L|464:144,2,80,0|10|0,0:0|0:0|0:0,0:0:0:0:
404,224,69159,5,2,0:0:0:0:
381,246,69244,1,0,0:0:0:0:
358,269,69329,1,0,0:0:0:0:
336,291,69413,1,0,0:0:0:0:
313,314,69498,1,0,0:0:0:0:
256,188,69668,1,0,0:0:0:0:
199,314,69837,5,2,0:0:0:0:
176,291,69922,1,0,0:0:0:0:
154,269,70007,1,0,0:0:0:0:
131,246,70091,1,0,0:0:0:0:
108,224,70176,1,0,0:0:0:0:
84,204,70261,1,0,0:0:0:0:
61,181,70346,1,0,0:0:0:0:
36,160,70430,1,0,0:0:0:0:
13,137,70515,6,2,P|72:72|140:65,1,160,6|8,0:0|0:0,0:0:0:0:
276,80,71024,2,2,P|217:145|148:151,1,160,2|0,0:0|0:0,0:0:0:0:
276,196,71532,2,0,P|312:168|330:139,1,80,8|0,0:0|0:0,0:0:0:0:
456,192,71871,6,2,P|384:248|348:306,1,160,2|8,0:0|0:0,0:0:0:0:
275,343,72379,1,2,0:0:0:0:
144,252,72549,2,0,P|172:288|201:306,1,80,0|0,0:0|0:0,0:0:0:0:
224,228,72888,1,8,0:0:0:0:
104,160,73057,6,0,P|75:178|47:214,1,80,0|2,0:0|0:0,0:0:0:0:
116,332,73396,1,0,0:0:0:0:
47,214,73566,1,8,0:0:0:0:
176,172,73735,2,2,P|240:112|309:102,1,160,2|0,0:0|0:0,0:0:0:0:
300,184,74244,2,0,P|334:188|366:218,1,80,8|0,0:0|0:0,0:0:0:0:
436,336,74583,6,2,P|366:326|302:266,1,160,2|8,0:0|0:0,0:0:0:0:
256,200,75091,1,2,0:0:0:0:
192,80,75261,1,8,0:0:0:0:
256,200,75430,1,0,0:0:0:0:
320,80,75600,1,8,0:0:0:0:
256,200,75769,1,8,0:0:0:0:
256,200,75854,1,8,0:0:0:0:
256,200,75939,6,2,P|180:208|131:270,1,160,6|8,0:0|0:0,0:0:0:0:
60,145,76447,2,2,P|68:221|131:270,1,160,2|0,0:0|0:0,0:0:0:0:
268,276,76956,1,8,0:0:0:0:
180,176,77125,1,0,0:0:0:0:
316,152,77295,6,2,P|380:108|379:31,1,160,2|8,0:0|0:0,0:0:0:0:
460,32,77803,1,2,0:0:0:0:
312,72,77973,2,0,P|271:73|249:105,1,80
188,224,78312,1,8,0:0:0:0:
324,224,78481,1,0,0:0:0:0:
452,172,78651,6,0,L|452:252,1,80,2|0,0:0|0:0,0:0:0:0:
357,151,78990,2,0,L|324:224,1,80,10|0,0:0|0:0,0:0:0:0:
264,100,79329,2,0,L|202:151,1,80,2|0,0:0|0:0,0:0:0:0:
220,16,79668,2,0,L|142:36,1,80,10|0,0:0|0:0,0:0:0:0:
128,172,80007,5,2,0:0:0:0:
128,172,80176,1,0,0:0:0:0:
256,220,80346,1,10,0:0:0:0:
256,220,80515,1,0,0:0:0:0:
384,172,80685,1,2,0:0:0:0:
384,172,80854,1,0,0:0:0:0:
256,220,81024,1,2,0:0:0:0:
256,188,81108,1,0,0:0:0:0:
256,156,81193,1,0,0:0:0:0:
256,124,81278,1,0,0:0:0:0:
256,92,81363,6,2,P|324:56|398:81,1,160,4|10,0:0|0:0,0:0:0:0:
460,132,81871,1,0,0:0:0:0:
472,272,82040,2,2,P|440:244|443:209,1,80,10|2,0:0|0:0,0:0:0:0:
460,132,82379,1,8,0:0:0:0:
356,224,82549,6,2,P|324:252|288:263,1,80,2|8,0:0|0:0,0:0:0:0:
188,172,82888,1,2,0:0:0:0:
56,212,83057,1,10,0:0:0:0:
164,296,83227,1,2,0:0:0:0:
114,169,83396,2,2,P|112:128|126:92,1,80,10|2,0:0|0:0,0:0:0:0:
248,32,83735,2,0,P|250:73|236:109,2,80,8|2|6,0:0|0:0|0:0,0:0:0:0:
188,172,84244,5,0,0:0:0:0:
284,268,84413,2,2,P|325:270|361:256,1,80,10|2,0:0|0:0,0:0:0:0:
444,364,84752,2,2,P|446:323|432:287,1,80,10|2,0:0|0:0,0:0:0:0:
420,208,85091,1,8,0:0:0:0:
300,144,85261,6,2,P|264:132|230:107,1,80,2|8,0:0|0:0,0:0:0:0:
164,64,85600,1,0,0:0:0:0:
96,184,85769,1,10,0:0:0:0:
220,244,85939,2,0,P|184:256|150:280,1,80,2|8,0:0|0:0,0:0:0:0:
292,244,86278,1,10,0:0:0:0:
324,236,86363,1,8,0:0:0:0:
352,220,86447,1,10,0:0:0:0:
376,198,86532,1,8,0:0:0:0:
388,168,86617,1,8,0:0:0:0:
256,132,86786,5,4,0:0:0:0:
256,192,86871,12,0,92210,0:0:0:0:
