osu file format v9

[General]
AudioFilename: shunkan spline(short.ver).mp3
AudioLeadIn: 1500
PreviewTime: 65285
Countdown: 0
SampleSet: Normal
StackLeniency: 0.7
Mode: 0
LetterboxInBreaks: 1

[Editor]
DistanceSpacing: 1.5
BeatDivisor: 4
GridSize: 4

[Metadata]
Title:Shunkan Spline (Short Ver.)
Artist:Kicco
Creator:cRyo[iceeicee]
Version:Normal
Source:Tayutama: Kiss on my Deity
Tags:Lump of Sugar wmfchris

[Difficulty]
HPDrainRate:3
CircleSize:3
OverallDifficulty:3
ApproachRate:5
SliderMultiplier:0.7
SliderTickRate:1

[Events]
//Background and Video events
0,0,"bg2.jpg"
//Break Periods
2,23306,24697
//Storyboard Layer 0 (Background)
//Storyboard Layer 1 (Fail)
//Storyboard Layer 2 (Pass)
//Storyboard Layer 3 (Foreground)
//Storyboard Sound Samples
//Background Colour Transformations
3,100,0,0,0

[TimingPoints]
781,348.837209302326,4,1,1,45,1,0
781,-133.333333333333,4,2,1,45,0,0
10635,-100,4,1,1,45,0,0
11856,-100,4,1,2,45,0,0
14690,-100,4,1,2,35,0,0
14778,-100,4,1,2,45,0,0
17481,-100,4,1,2,35,0,0
17568,-100,4,1,2,45,0,0
20272,-100,4,1,2,35,0,0
20412,-100,4,1,2,45,0,0
25722,-100,4,1,2,35,0,0
26202,-133.333333333333,4,2,2,35,0,0
26333,-133.333333333333,4,2,2,45,0,0
27118,-133.333333333333,4,2,1,45,0,0
28644,-133.333333333333,4,2,1,45,0,0
28731,-133.333333333333,4,2,1,45,0,0
31435,-133.333333333333,4,2,0,45,0,0
32786,-133.333333333333,4,2,1,45,0,0
32961,-133.333333333333,4,2,2,45,0,0
34225,-133.333333333333,4,2,1,45,0,0
36711,-100,4,2,1,45,0,0
46740,-100,4,2,1,35,0,0
47176,-100,4,1,0,45,0,0
48135,-100,4,2,1,45,0,0
52321,-100,4,1,1,45,0,0
53717,-100,4,2,1,45,0,0
59342,-100,4,1,1,35,0,0
59429,-100,4,2,1,45,0,0
63484,-100,4,1,1,45,0,0
64879,-100,4,1,1,65,0,0
65577,-100,4,2,1,45,0,0
66362,-100,4,1,0,45,0,1
75693,-100,4,1,1,45,0,1
77437,-100,4,1,0,45,0,1
82932,-100,4,1,1,45,0,1
89996,-100,4,1,2,45,0,1
90693,-100,4,2,1,45,0,1
91435,-100,4,1,1,35,0,1
92612,-100,4,1,1,45,0,1
94182,-100,4,1,1,35,0,1
94356,-100,4,1,1,45,0,1
95664,-100,4,1,1,45,0,0
98281,-100,4,1,1,35,0,0
98629,-100,4,1,1,45,0,0
103862,-100,4,1,1,35,0,0
104211,-100,4,1,1,45,0,0
106914,-100,4,2,1,5,0,0

[Colours]
Combo1 : 255,100,100
Combo2 : 128,255,255
Combo3 : 255,128,192
Combo4 : 40,148,255

[HitObjects]
56,108,781,2,0,B|128:76|220:108,1,157.499995306134,4|0
256,184,2176,2,0,B|304:200,1,52.4999984353781,2|0
388,244,2874,1,2
472,200,3222,1,0
456,108,3571,6,0,B|384:76|292:108,1,157.499995306134,4|0
208,104,4967,2,0,B|164:76,3,52.4999984353781,2|0|2|0
76,112,6362,6,0,B|76:276,1,157.499995306134,4|0
168,252,7757,2,0,B|228:252,1,52.4999984353781,2|0
216,156,8455,2,0,B|164:156,1,52.4999984353781,2|0
152,64,9153,6,0,B|256:28|360:64,1,209.999993741512,4|2
256,196,11246,1,0
100,256,11943,6,0,B|140:320|228:332,1,140,4|0
308,284,12990,1,8
344,184,13339,2,0,B|344:100,1,70,0|8
256,60,14036,2,0,B|256:12,2,35,0|0|8
160,112,14734,6,0,B|120:176|160:244,1,140,4|0
260,276,15781,1,8
360,308,16129,2,0,B|392:288|416:248,1,70,0|8
424,156,16827,2,0,B|444:112,2,35,0|0|8
324,192,17525,6,0,B|180:192,1,140,4|0
112,116,18571,1,8
204,64,18920,1,0
308,64,19269,1,8
400,116,19618,2,0,B|448:116,2,35,0|0|8
328,192,20315,6,0,B|256:212|188:192,1,140,4|0
108,260,21362,1,8
100,156,21711,2,0,B|57:141|34:109,1,70,0|8
140,80,22408,2,0,B|176:76|204:52,1,70,0|8
308,52,23106,1,4
40,132,25897,5,4
112,80,26246,2,0,B|164:96|216:80,1,104.999996870756,4|0
296,120,27292,2,0,B|320:176,1,52.4999984353781,2|0
400,200,27990,2,0,B|380:260,1,52.4999984353781,0|0
332,324,28687,6,0,B|256:352|176:324,1,157.499995306134,4|0
128,248,30083,1,2
292,176,30780,1,2
396,328,31478,6,0,B|344:344|292:328,1,104.999996870756,4|0
216,280,32525,1,0
132,244,32874,2,0,B|80:280,1,52.4999984353781,4|0
48,192,33571,2,0,B|48:136,1,52.4999984353781
120,84,34269,5,2
256,164,34967,1,2
256,320,35664,1,2
180,184,36362,5,8
180,184,36536,1,8
332,184,37060,6,0,B|371:164|392:128,1,70,4|8
292,96,37757,2,0,B|256:88|220:96,1,70,2|8
120,72,38455,5,2
140,176,38804,1,8
208,256,39153,1,2
300,304,39501,1,8
384,240,39850,6,0,B|400:208|400:160,1,70,2|8
316,108,40548,2,0,B|300:76|300:28,1,70,2|8
196,60,41246,5,2
144,148,41594,1,8
204,232,41943,1,2
308,232,42292,1,8
300,128,42641,6,0,B|366:106,1,70,2|8
460,152,43339,2,0,B|464:188|448:224,1,70,2|8
384,304,44036,5,2
308,232,44385,1,8
204,232,44734,1,2
128,304,45083,1,8
32,264,45432,6,0,B|56:192|32:124,1,140,2|2
72,28,46478,1,2
160,88,46827,1,8
160,88,47001,1,8
256,128,47350,1,0
352,88,47699,1,0
432,224,48222,6,0,B|392:224|352:248,1,70,4|8
288,312,48920,2,0,B|260:328|220:328,1,70,2|8
128,280,49618,5,2
188,196,49967,1,8
92,160,50315,1,2
152,76,50664,1,8
256,92,51013,6,0,B|284:76|324:76,1,70,2|8
304,180,51711,2,0,B|276:196|236:196,1,70,2|8
132,196,52408,5,4
256,28,53106,1,4
380,196,53804,6,0,B|400:273|327:336|253:306,1,210,2|8
244,200,55199,2,0,B|170:169|97:232|117:310,1,210,2|8
216,348,56594,6,8,B|296:348,1,70
256,248,57292,2,8,B|256:176,1,70
356,148,57990,2,8,B|408:212,1,70
428,304,58687,2,8,B|472:304,2,35,8|8|8
324,328,59385,6,0,B|256:344|184:328,1,140,4|0
136,236,60432,1,8
184,144,60780,2,0,B|254:128|322:144,1,140,2|0
376,236,61827,1,8
292,300,62176,6,8,B|220:300,1,70,8|8
120,280,62874,1,8
68,188,63222,1,8
148,124,63571,6,0,B|171:25|339:25|359:125,1,280,4|4
256,308,65664,1,4
188,108,66362,6,2,B|256:68|320:104,1,140,6|0
380,192,67408,1,8
320,276,67757,6,2,B|255:312|187:272,1,140,2|0
132,192,68804,1,8
188,104,69153,2,0,B|256:144|320:108,2,140,2|2|2
60,268,71246,5,2
160,300,71594,1,8
256,344,71943,2,0,B|256:192,1,140,2|0
356,168,72990,1,8
324,68,73339,6,0,B|259:31|191:71,1,140,2|0
156,168,74385,1,8
188,268,74734,2,0,B|256:308|320:272,1,140,2|0
424,288,75781,5,8
468,192,76129,1,8
440,92,76478,1,8
340,64,76827,2,8,B|372:32,2,35
256,128,77525,6,2,B|179:149|127:97,1,140,6|0
60,176,78571,1,8
128,256,78920,6,0,B|204:277|256:224,1,140,2|0
352,176,79967,1,8
324,76,80315,6,0,B|259:39|191:78,3,140,2|2|2|0
136,247,83106,6,8,B|205:263,1,70
308,263,83804,2,8,B|377:248,1,70
376,143,84501,2,8,B|307:127,1,70
205,127,85199,2,8,B|137:144,1,70
190,238,85897,6,0,B|256:275|324:236,1,140,4|0
324,59,87292,2,0,B|256:19|192:56,1,140,0|0
116,128,88339,1,0
121,232,88687,6,2,B|256:308|388:232,1,280,6|0
256,72,90781,5,2
256,280,91478,1,4
172,88,92176,5,8
52,192,92699,2,2,B|101:216|153:192,1,105,2|8
228,120,93571,2,0,B|304:100,1,70,0|8
348,192,94269,5,4
256,240,94618,1,8
164,192,94967,1,0
324,328,95664,6,0,B|255:368|191:328,1,140,4|0
104,268,96711,1,8
132,168,97060,2,0,B|212:168,1,70,0|8
308,168,97757,2,0,B|332:212,2,35,0|0|8
324,64,98455,6,0,B|255:23|191:63,1,140,4|0
104,120,99501,1,8
156,208,99850,2,0,B|156:292,1,70,0|8
256,316,100548,2,0,B|300:316,2,35,0|0|8
256,212,101246,6,0,B|255:127,1,70,4|8
348,92,101943,1,0
256,40,102292,1,8
164,92,102641,2,0,B|163:176,1,70,0|8
152,268,103339,2,0,B|104:268,2,35,0|0|8
256,288,104036,6,0,B|256:204,1,70,4|8
204,128,104734,1,0
308,128,105083,1,8
376,208,105432,6,8,B|300:236,1,70,8|8
204,232,106129,2,8,B|137:209,1,70,8|8
68,128,106827,1,4
256,192,107001,12,0,110664
