osu file format v9

[General]
AudioFilename: shunkan spline(short.ver).mp3
AudioLeadIn: 1500
PreviewTime: 65285
Countdown: 0
SampleSet: Soft
StackLeniency: 0.7
Mode: 0
LetterboxInBreaks: 1

[Editor]
DistanceSpacing: 1
BeatDivisor: 4
GridSize: 4

[Metadata]
Title:Shunkan Spline (Short Ver.)
Artist:Kicco
Creator:cRyo[iceeicee]
Version:Easy
Source:Tayutama: Kiss on my Deity
Tags:Lump of Sugar wmfchris

[Difficulty]
HPDrainRate:1
CircleSize:3
OverallDifficulty:1
ApproachRate:3
SliderMultiplier:0.5
SliderTickRate:1

[Events]
//Background and Video events
0,0,"bg2.jpg"
//Break Periods
2,23306,24806
//Storyboard Layer 0 (Background)
//Storyboard Layer 1 (Fail)
//Storyboard Layer 2 (Pass)
//Storyboard Layer 3 (Foreground)
//Storyboard Sound Samples
//Background Colour Transformations
3,100,0,0,0

[TimingPoints]
781,348.837209302326,4,2,1,45,1,0
11769,-100,4,1,1,45,0,0
14647,-100,4,1,1,35,0,0
14821,-100,4,1,1,45,0,0
20228,-100,4,1,1,35,0,0
20403,-100,4,1,1,45,0,0
26073,-100,4,2,2,35,0,0
27118,-100,4,2,1,45,0,0
27903,-100,4,2,1,35,0,0
28077,-100,4,2,1,45,0,0
31304,-100,4,2,0,45,0,0
31653,-100,4,2,1,45,0,0
34182,-100,4,2,1,35,0,0
36187,-100,4,2,1,45,0,0
52321,-100,4,1,0,45,0,0
54253,-100,4,2,1,45,0,0
59211,-100,4,1,0,35,0,0
59560,-100,4,2,1,45,0,0
64879,-100,4,1,0,45,0,0
66362,-100,4,1,1,45,0,1
80228,-100,4,2,1,45,0,1
82904,-100,4,1,1,45,0,1
95664,-100,4,1,1,45,0,0
106914,-100,4,2,0,5,0,0

[Colours]
Combo1 : 255,100,100
Combo2 : 128,255,255
Combo3 : 255,128,192
Combo4 : 40,148,255

[HitObjects]
152,108,780,2,0,B|252:68|348:108,1,200,4|2
400,192,2874,1,2
352,280,3571,6,0,B|257:319|157:279,1,200,4|2
108,192,5664,1,2
60,104,6362,6,0,B|144:120|180:60|256:60,1,200,4|2
332,116,8455,1,2
256,180,9153,6,0,B|172:196|136:136|60:136,1,200,4|2
132,64,11246,1,2
228,92,11943,6,0,B|276:72|328:80,1,100,4|0
412,132,13339,1,0
376,224,14036,1,0
304,292,14734,6,0,B|256:312|204:304,1,100,4|0
116,260,16129,1,0
84,164,16827,1,0
152,88,17525,6,0,B|200:68|252:76,1,100,4|0
340,120,18920,1,0
344,220,19618,1,0
256,268,20315,6,0,B|204:280|152:268,1,100,4|0
92,192,21711,2,0,B|64:160|68:116,2,75
116,236,23106,1,4
180,84,26246,6,0,B|236:76|268:108|336:84,1,150,4|2
412,148,27990,1,8
352,228,28687,2,0,B|257:267|157:227,2,200,4|4|4
412,148,32176,5,2
352,68,32874,2,0,B|280:96|228:52|148:72,1,200,4|8
160,172,34967,5,2
256,204,35664,1,2
204,288,36362,1,8
308,288,37060,6,0,B|355:303|407:287,1,100,4|0
440,192,38455,1,2
380,112,39153,1,0
316,192,39850,1,2
256,112,40548,1,0
188,192,41246,6,0,B|136:208|88:192,2,100,2|0|2
256,112,43339,1,0
316,192,44036,2,0,B|239:268|133:251,1,200,2|2
52,192,46129,1,2
96,104,46827,1,8
100,296,48222,6,0,B|147:311|198:296,1,100,4|0
204,196,49618,1,2
308,196,50315,1,0
313,296,51013,2,0,B|366:288|402:254,1,100,2|0
344,172,52408,6,0,B|276:108|228:156|168:76,1,200,4|4
84,124,54501,1,2
92,224,55199,2,0,B|68:276|20:304,2,100,8|2|8
160,148,57292,5,8
256,120,57990,1,8
352,148,58687,1,8
405,232,59385,2,0,B|429:284|476:308,2,100,4|2|0
306,209,61478,5,2
206,209,62176,1,8
256,120,62874,1,8
256,192,63571,12,4,64967
48,96,66362,6,2,B|120:60|192:96,1,150,6|0
184,144,67757,2,2,B|256:180|328:143,1,150,2|0
368,172,69153,5,2
324,260,69850,1,2
424,260,70548,1,2
368,172,71246,1,0
308,92,71943,6,2,B|256:72|212:96,1,100,2|0
124,144,73339,2,0,B|148:188|128:240,1,100,2|0
212,296,74734,2,0,B|256:320|308:300,1,100,2|0
356,212,76129,1,8
256,192,76827,1,8
304,104,77525,6,2,B|349:71|397:83,1,100,6|0
420,180,78920,2,0,B|374:212|326:200,1,100,2|0
256,128,80315,5,2
180,192,81013,1,2
260,256,81711,2,0,B|312:276|356:256,1,100,4|0
436,192,83106,5,8
352,140,83804,1,8
256,116,84501,1,8
156,108,85199,1,8
256,192,85897,12,0,87990
256,192,88687,6,0,B|172:176|140:224|56:192,1,200,4|0
92,288,90781,1,0
180,336,91478,1,4
356,340,92699,6,0,B|276:331|246:241|160:232,1,225,4|0
72,192,94967,1,0
160,140,95664,6,0,B|254:100|356:140,1,200,4|0
436,192,97757,1,0
352,248,98455,6,0,B|257:287|157:247,1,200,4|0
72,192,100548,1,0
160,140,101246,6,0,B|224:100|284:164|356:128,1,200,4|0
432,192,103339,1,0
352,256,104036,6,0,B|288:296|228:232|156:268,1,200,4|8
64,236,106129,1,8
108,144,106827,1,4
256,192,107001,12,0,110664
