osu file format v9

[General]
AudioFilename: Kokoro Hare.mp3
AudioLeadIn: 982
PreviewTime: 62884
Countdown: 0
SampleSet: Soft
StackLeniency: 0.7
Mode: 0
LetterboxInBreaks: 1

[Editor]
DistanceSpacing: 1.4
BeatDivisor: 4
GridSize: 8

[Metadata]
Title:Kokoro......Hare (Short Ver.)
Artist:Kicco
Creator:littlecar3370
Version:littlecar
Source:Lamp of Sugar
Tags:Deepsea TW-KUMA01 NanaDesu Galgame

[Difficulty]
HPDrainRate:7
CircleSize:5
OverallDifficulty:7
ApproachRate:8
SliderMultiplier:1.6
SliderTickRate:0.5

[Events]
//Background and Video events
0,0,"BG.jpg"
Video,0,"Diamick Days op.avi"
//Break Periods
//Storyboard Layer 0 (Background)
//Storyboard Layer 1 (Fail)
//Storyboard Layer 2 (Pass)
//Storyboard Layer 3 (Foreground)
//Storyboard Sound Samples
//Background Colour Transformations
3,100,163,162,255

[TimingPoints]
1107,444.444444444444,4,2,0,70,1,0
13218,-200,4,2,0,70,0,0
15218,-100,4,2,0,70,0,0
63329,-80,4,1,0,60,0,1
79329,-100,4,2,0,70,0,0
93440,-100,4,2,0,25,0,0
95218,-100,4,2,0,5,0,0

[Colours]
Combo1 : 235,87,50
Combo2 : 251,219,36
Combo3 : 126,250,225
Combo4 : 125,125,125

[HitObjects]
108,132,1107,1,4
256,54,1551,1,2
256,54,1773,2,0,B|347:54|411:106,1,160
339,172,2440,1,2
431,196,2662,2,0,B|415:293|309:312,1,160
233,308,3329,2,0,B|132:263,1,80,2|0
159,275,3773,1,2
43,122,4218,5,2
126,168,4440,1,0
42,214,4662,2,0,B|8:318|120:345,1,160,0|2
156,260,5329,1,0
254,95,5773,1,0
343,263,6218,6,0,B|442:311|481:178,1,160
483,114,6884,1,2
420,40,7106,1,0
327,68,7329,1,0
398,131,7551,1,2
305,157,7773,1,2
378,218,7995,1,0
378,218,8218,6,0,B|334:292|235:276,1,160,4|2
47,255,8884,2,0,B|91:181|185:197,1,160
280,206,9551,1,2
374,224,9773,2,0,B|486:245|498:136,1,160
451,67,10440,1,2
378,130,10662,1,0
378,130,10884,2,0,B|303:61,1,80,2|0
167,58,11329,2,0,B|229:110,1,80,2|0
138,142,11773,5,4
370,312,12440,1,4
343,122,12884,1,0
321,215,13106,1,0
267,295,13329,2,0,B|196:364|120:342,2,160,4|0|0
267,295,15329,1,6
267,103,15773,1,6
196,39,15995,5,0
127,166,16218,1,0
267,197,16440,1,2
347,78,16662,1,2
365,62,16773,1,0
385,48,16884,1,0
408,43,16995,1,0
431,39,17106,6,0,B|503:117|488:188,1,160,4|2
408,235,17773,1,0
404,139,17995,2,0,B|345:137|286:191|226:191,1,160,0|2
251,91,18662,1,0
198,11,18884,2,0,B|113:41|159:158,1,160,0|2
173,238,19551,1,0
244,301,19773,2,0,B|326:351|401:253,2,160,0|2|0
71,258,21106,5,2
71,258,21329,2,0,B|13:204|30:97,1,160
46,16,21995,1,2
118,79,22218,2,0,B|212:79,1,80
345,146,22662,2,0,B|265:146,1,80,0|2
265,146,23106,1,0
188,204,23329,5,0
188,204,23440,1,2
273,247,23662,1,0
273,247,23773,1,2
191,298,23995,1,2
277,341,24218,6,0,B|364:347|439:292,1,160,4|2
480,218,24884,1,0
359,68,25329,1,0
421,140,25551,1,2
385,228,25773,2,0,B|337:307|227:284,1,160
153,265,26440,1,2
84,197,26662,1,0
32,116,26884,2,0,B|94:43|176:52,2,160,0|2|4
221,148,28218,5,2
311,117,28440,1,4
327,308,28884,5,0
394,207,29106,1,2
311,117,29329,1,4
199,273,29773,5,0
110,237,29995,1,2
101,141,30218,1,0
181,88,30440,1,0
181,88,30662,2,0,B|285:67,1,80,0|2
282,165,31106,1,0
97,54,31329,5,0
256,192,31773,12,0,32662
275,156,33106,5,4
212,84,33329,1,0
317,70,33551,2,0,B|396:95|397:128,1,80,2|0
458,170,33995,1,0
469,265,34218,1,0
381,225,34440,2,0,B|324:253|272:232,1,80,2|0
254,322,34884,6,0,B|176:318|148:271,1,120
134,255,35329,1,2
40,274,35551,1,2
22,179,35773,1,0
18,155,35884,1,2
113,159,36106,1,0
115,135,36218,1,2
210,132,36440,1,0
388,61,36662,6,0,B|378:160|295:175,1,160,0|2
295,174,37329,1,0
210,132,37551,2,0,B|137:165,1,80
192,244,37995,2,0,B|119:277,1,80,2|0
283,280,38440,5,0
283,280,38662,1,0
378,269,38884,1,2
378,269,39106,1,0
430,188,39329,1,0
444,169,39440,1,0
450,145,39551,1,2
457,49,39773,1,2
457,49,40218,5,4
505,131,40440,1,0
429,189,40662,1,0
375,109,40884,1,0
338,139,41106,5,0
253,92,41329,1,0
226,184,41551,1,2
310,229,41773,1,0
234,287,41995,6,0,B|300:336,1,80
131,301,42440,2,0,B|65:252,1,80,2|0
40,161,42884,1,0
55,142,42995,1,0
48,119,43106,1,2
59,97,43218,1,0
59,73,43329,1,2
148,38,43551,1,0
290,54,43773,6,0,B|387:81|420:147,1,160,0|2
422,46,44440,2,0,B|345:76|329:176,1,160
257,230,45106,1,2
307,313,45329,1,0
388,261,45551,5,0
424,172,45773,1,0
380,86,45995,1,2
292,46,46218,1,0
229,113,46440,1,0
158,48,46662,1,0
88,114,46884,1,2
110,204,47106,1,0
206,209,47329,6,0,B|373:205,1,160,4|2
222,333,48218,2,0,B|55:337,1,160,0|2
66,145,49106,1,0
104,233,49329,1,0
193,198,49551,1,2
327,61,49995,1,0
419,87,50218,1,0
426,182,50440,1,2
256,268,50884,6,0,B|316:344|412:296,2,160,0|2|0
180,208,51995,1,0
268,168,52218,1,2
192,112,52440,2,0,B|132:36|36:84,1,160
49,77,53106,1,2
116,260,53551,1,0
116,260,53773,2,0,B|160:336|256:284,1,160,2|2
276,272,54329,1,0
296,256,54440,6,0,B|392:232,1,80,4|0
316,160,54884,2,0,B|292:64,1,80,2|0
208,48,55329,1,0
112,68,55551,1,2
112,68,55773,1,2
48,248,55995,6,0,B|148:240|164:128,1,160
236,92,56662,2,0,B|288:164,1,80,2|0
282,156,57106,1,0
332,292,57440,1,2
432,188,57773,1,0
448,92,57995,6,0,B|464:8,1,80,4|0
376,60,58440,2,0,B|368:152,1,80,2|0
301,207,58884,2,0,B|257:284|193:212,2,120,0|2|6
232,140,59773,5,0
208,48,59995,1,0
232,140,60218,1,2
124,116,60440,1,0
232,140,60662,1,2
144,232,60884,1,0
232,140,61106,1,2
264,280,61329,1,0
256,192,61551,12,0,62884
140,156,63329,5,0
140,156,63773,1,8
204,80,63995,2,0,B|284:12|400:44,1,199.999997019768
472,104,64662,1,8
472,104,64884,2,0,B|456:232|316:254,1,199.999997019768
326,253,65440,1,0
301,259,65551,1,8
204,285,65773,1,0
111,167,65995,2,0,B|145:260,1,99.9999985098839
248,94,66440,2,0,B|214:188,1,99.9999985098839,8|0
163,101,66884,5,0
163,101,67329,1,8
99,178,67551,2,0,B|133:299|10:358,1,199.999997019768
127,323,68218,1,8
222,295,68440,2,0,B|188:174|311:115,1,199.999997019768
360,197,69106,1,8
446,146,69329,1,0
374,75,69551,1,8
366,98,69662,1,0
270,67,69884,1,0
278,90,69995,1,8
178,104,70218,1,8
83,136,70440,6,0,B|5:214,2,99.9999985098839,0|0|8
161,197,71106,1,0
337,102,71551,1,0
418,159,71773,1,8
327,201,71995,2,0,B|340:318|459:348,1,199.999997019768
471,350,72551,1,0
495,353,72662,1,8
469,256,72884,1,0
376,294,73106,1,0
357,311,73218,1,0
332,305,73329,1,8
236,274,73551,1,8
159,89,73995,6,0,B|78:108|125:226|10:233,1,199.999997019768,4|8
220,159,74662,2,0,B|239:240|357:193|364:308,1,199.999997019768,4|0
441,226,75329,1,8
460,128,75551,2,0,B|422:82|363:64|304:99|275:147|294:211|352:256,2,299.999995529652,4|8|0
441,226,77106,1,8
391,313,77329,1,0
294,339,77551,5,4
218,45,77995,1,4
134,100,78218,5,0
223,144,78440,1,0
161,222,78662,1,0
244,277,78884,1,0
313,97,79329,6,0,B|413:99|451:208,1,160,4|2
460,273,79995,1,0
368,242,80218,2,0,B|366:342|257:380,1,160,0|2
189,371,80884,1,0
130,294,81106,2,0,B|80:217,1,80
181,209,81551,2,0,B|240:136,1,80,2|0
291,71,81995,5,0
221,313,82440,1,2
315,298,82884,6,0,B|423:278|442:186,1,160,0|2
459,112,83551,1,0
398,37,83773,1,0
308,71,83995,1,0
367,147,84218,1,2
367,147,84440,2,0,B|284:214|209:113,1,160
200,41,85106,1,2
104,53,85329,1,0
130,145,85551,5,0
382,239,85995,1,2
256,96,86440,6,0,B|256:268,1,160,4|2
256,352,87106,1,0
328,288,87329,2,0,B|396:220,1,80
184,288,87773,2,0,B|116:220,1,80,2|0
112,136,88218,5,0
200,64,88440,1,0
312,64,88662,1,2
400,136,88884,1,0
312,208,89106,1,0
328,232,89218,1,2
200,208,89440,1,0
184,232,89552,1,2
256,312,89773,5,2
368,312,89995,1,4
256,192,90440,5,0
144,192,90662,1,4
256,72,91106,5,2
368,72,91329,1,0
480,72,91551,1,4
256,192,91773,12,0,92884
256,192,93106,5,0
256,192,93551,12,0,95106
256,192,95551,12,0,100551
