osu file format v9

[General]
AudioFilename: Kokoro Hare.mp3
AudioLeadIn: 982
PreviewTime: 62884
Countdown: 0
SampleSet: Soft
StackLeniency: 0.8
Mode: 0
LetterboxInBreaks: 1

[Editor]
DistanceSpacing: 1.2
BeatDivisor: 1
GridSize: 8

[Metadata]
Title:Kokoro......Hare (Short Ver.)
Artist:Kicco
Creator:littlecar3370
Version:\:D/
Source:Lamp of Sugar
Tags:Deepsea TW-KUMA01 NanaDesu Galgame

[Difficulty]
HPDrainRate:7
CircleSize:5
OverallDifficulty:8
ApproachRate:8
SliderMultiplier:1.6
SliderTickRate:2

[Events]
//Background and Video events
0,0,"BG.jpg"
Video,0,"Diamick Days op.avi"
//Break Periods
//Storyboard Layer 0 (Background)
//Storyboard Layer 1 (Fail)
//Storyboard Layer 2 (Pass)
//Storyboard Layer 3 (Foreground)
//Storyboard Sound Samples
//Background Colour Transformations
3,100,163,162,255

[TimingPoints]
1120,444.444444444444,4,2,0,100,1,0
27662,-200,4,2,0,100,0,0
32995,-100,4,2,0,100,0,0
47218,-100,4,2,0,100,0,0
59440,-200,4,2,0,100,0,0
63662,-100,4,2,0,100,0,0

[Colours]
Combo1 : 111,96,198
Combo2 : 136,130,247
Combo3 : 80,140,231

[HitObjects]
64,136,675,1,0
100,188,897,1,0
140,136,1119,2,0,B|220:180|312:132,1,160,4|0
356,148,1786,2,0,B|316:240|376:324,1,160
300,312,2453,1,2
300,312,2675,2,0,B|248:220,1,80
196,236,3119,1,0
176,296,3342,1,2
116,272,3564,1,0
136,212,3786,1,0
136,212,4231,5,2
112,152,4453,1,0
112,152,4675,2,0,B|204:140|268:72,1,160,0|2
312,116,5342,1,0
312,116,5786,2,0,B|292:216|328:300,1,160
256,292,6453,1,0
256,292,6675,1,0
256,292,6897,2,0,B|224:188,1,80,2|0
180,176,7342,2,0,B|156:272,1,80
104,220,7786,5,2
104,220,7897,1,0
104,220,8008,1,0
60,172,8231,2,0,B|104:92|96:4,1,160,0|2
160,32,8897,1,0
160,32,9342,1,0
208,76,9564,1,2
252,124,9786,2,0,B|220:208|260:304,1,160
316,280,10453,1,2
364,236,10675,1,0
400,184,10897,1,0
300,100,11342,5,2
240,124,11564,1,0
240,124,11786,2,0,B|280:216|236:288,1,160,0|2
176,276,12453,2,0,B|136:184|180:112,1,160
240,124,13120,1,2
256,192,13342,12,0,15342
240,108,16008,5,0
240,148,16231,1,0
240,188,16453,1,0
240,228,16675,1,2
132,296,17120,6,0,B|152:192|52:148,1,160,4|2
104,104,17786,1,0
104,104,18231,2,0,B|144:24,1,80,0|2
184,80,18675,1,0
184,80,18786,1,0
184,80,18897,1,0
240,112,19119,1,0
292,148,19342,1,2
332,196,19564,1,0
364,252,19786,1,0
240,284,20231,5,2
240,220,20453,1,0
240,284,20675,2,0,B|160:324|64:276,1,160,0|2
104,224,21342,1,0
108,204,21453,1,0
112,184,21564,2,0,B|136:88,1,80
136,88,21897,1,0
140,68,22008,1,2
196,104,22231,2,0,B|188:204|232:280,1,160
284,276,22897,1,2
328,320,23119,1,0
376,280,23342,1,0
332,232,23564,1,0
284,276,23786,2,0,B|240:192|296:88,1,160,2|2
168,60,24675,5,2
156,92,24786,1,0
132,152,25008,1,0
120,184,25119,2,0,B|88:276,1,80
148,296,25564,1,2
148,296,25786,2,0,B|228:240|324:312,1,160
356,272,26453,1,2
372,212,26675,1,0
384,148,26897,2,0,B|308:88|228:84,1,160,0|2
260,332,27786,5,4
260,284,28453,1,0
260,220,29342,2,0,B|260:20,1,200
260,20,30564,1,0
260,20,30675,1,0
260,20,30786,1,0
260,20,30897,1,0
260,20,31008,1,0
260,20,31119,1,0
260,20,31231,1,0
260,20,31342,1,0
260,52,31786,2,0,B|260:220,1,160
80,336,33119,5,0
32,292,33342,1,0
80,252,33564,1,2
124,300,33786,2,0,B|188:248|204:148,1,160
260,128,34453,1,2
260,128,34675,2,0,B|260:232|320:304,1,160
356,316,35342,1,2
400,268,35564,1,0
400,268,35675,1,0
400,268,35786,1,0
424,208,36008,1,0
420,144,36231,1,2
424,124,36342,1,0
424,104,36453,1,0
424,84,36564,1,0
416,64,36675,1,0
356,44,36897,5,0
296,20,37119,1,2
276,80,37342,1,0
336,104,37564,1,0
336,168,37786,1,0
336,232,38008,1,2
336,296,38231,2,0,B|264:336|168:296,1,160
116,300,38897,2,0,B|160:208|148:128,1,160,2|0
148,112,39453,1,0
152,80,39564,1,0
168,52,39675,1,0
196,36,39786,2,0,B|276:76|376:28,1,160,2|0
416,304,40453,5,0
404,240,40675,1,2
388,176,40897,2,0,B|304:212|216:168,1,160
188,132,41564,2,0,B|148:216,1,80,2|0
88,208,42008,1,0
104,144,42231,1,0
116,80,42453,1,2
136,20,42675,1,0
376,20,43342,5,2
396,80,43564,1,0
420,140,43786,2,0,B|384:224|428:316,1,160,0|2
356,312,44453,2,0,B|320:216,1,80
276,200,44897,2,0,B|240:288,1,80,0|2
188,300,45342,2,0,B|132:224|144:128,1,160
152,88,46008,1,2
152,88,46119,1,0
152,88,46231,1,0
212,68,46453,2,0,B|232:152,1,80
284,184,46897,2,0,B|320:88,1,80,2|0
456,284,47342,5,0
372,328,47564,1,0
288,284,47786,1,2
200,324,48008,1,0
116,276,48231,1,0
32,324,48453,1,0
32,324,48897,2,0,B|-4:216|48:136,1,160
104,104,49564,1,2
408,104,50008,5,0
408,104,50119,1,0
408,104,50231,2,0,B|440:200|392:292,1,160
332,324,50897,1,0
240,292,51119,1,0
268,200,51342,1,2
360,224,51564,1,0
332,324,51786,1,0
240,292,52008,1,0
268,200,52231,1,2
360,224,52453,2,0,B|392:140|356:36,1,160
268,76,53119,1,2
268,76,53231,1,0
268,76,53342,1,0
64,292,53564,5,0
64,292,53786,2,0,B|116:208|48:112,1,160
60,44,54453,1,0
144,88,54675,1,0
228,40,54897,1,2
312,84,55119,1,0
396,36,55342,2,0,B|436:120|404:196,1,160,0|2
332,256,56008,5,0
296,168,56231,1,0
296,168,56342,1,0
296,168,56453,1,0
208,208,56675,1,2
244,296,56897,1,0
244,296,57119,2,0,B|164:328|76:296,1,160,0|2
160,236,57786,1,0
160,236,58008,2,0,B|240:204|328:236,1,160,0|2
412,232,58675,1,0
412,232,58897,2,0,B|344:172|332:88,1,160,0|2
256,20,59564,2,0,B|256:384,1,360
256,192,61675,12,0,63342
256,40,63786,5,2
256,136,64008,1,0
120,272,64453,1,0
120,272,64675,1,2
120,272,64897,2,0,B|208:312|304:256,1,160
368,304,65564,1,2
400,216,65786,1,0
304,192,66008,1,0
248,8,66453,5,2
248,8,66675,1,0
248,8,66897,2,0,B|224:96|144:144,1,160,0|2
200,224,67564,1,0
200,224,67675,1,0
200,224,67786,1,0
256,304,68008,1,0
256,304,68453,2,0,B|280:216|360:168,1,160
352,272,69119,2,0,B|432:240|456:144,1,160,2|0
256,184,70008,6,0,B|256:96,1,80,2|0
176,152,70453,2,0,B|128:248|184:336,1,160,0|2
256,272,71119,1,0
256,272,71231,1,0
256,272,71342,1,0
344,304,71564,1,0
384,216,71786,1,2
296,184,72008,2,0,B|256:96|304:16,1,160
200,48,72675,1,2
128,112,72897,1,0
88,200,73119,1,0
256,296,73564,5,2
256,296,73786,1,0
256,296,74008,2,0,B|256:120,1,160,0|2
256,40,74675,1,0
256,232,75119,1,0
256,232,75342,1,2
256,192,75564,12,0,77564
256,176,78231,5,0
256,176,78453,1,2
256,176,78675,1,0
256,176,78897,1,2
