osu file format v9

[General]
AudioFilename: Kokoro Hare.mp3
AudioLeadIn: 2000
PreviewTime: 62869
Countdown: 0
SampleSet: Soft
StackLeniency: 0.7
Mode: 0
LetterboxInBreaks: 0

[Editor]
DistanceSpacing: 1
BeatDivisor: 4
GridSize: 4

[Metadata]
Title:Kokoro Hare (Short Ver.)
Artist:Kicco
Creator:kusano
Version:Insane
Source:Diamic Days
Tags:lump of sugar eroge opening banvi Hinacle

[Difficulty]
HPDrainRate:7
CircleSize:4
OverallDifficulty:7
ApproachRate:8
SliderMultiplier:2
SliderTickRate:1

[Events]
//Background and Video events
Video,0,"Diamick Days op.avi"
0,0,"kotora.jpg"
//Break Periods
//Storyboard Layer 0 (Background)
//Storyboard Layer 1 (Fail)
//Storyboard Layer 2 (Pass)
//Storyboard Layer 3 (Foreground)
//Storyboard Sound Samples
//Background Colour Transformations
3,100,163,162,255

[TimingPoints]
-685,444.444444444444,4,2,1,70,1,0
15536,-200,4,2,1,60,0,0
16314,-100,4,2,1,70,0,0
31536,-200,4,2,1,60,0,0
32314,-100,4,2,1,70,0,0
63314,-100,4,2,1,70,0,1
77536,-100,4,2,1,70,0,0
77869,-200,4,2,1,70,0,0
78536,-100,4,2,1,70,0,0
91648,-100,4,2,1,5,0,0
93536,-100,4,2,1,35,0,0

[Colours]
Combo1 : 255,187,119
Combo2 : 187,221,255
Combo3 : 255,185,255
Combo4 : 196,255,136

[HitObjects]
104,96,648,1,2
200,116,870,1,0
288,68,1092,2,0,B|360:132|372:256,1,200,4|0
396,340,1759,1,2
64,272,2203,6,0,B|40:224|68:176,1,100,2|0
160,276,2648,2,0,B|256:340|356:272,1,200,2|0
448,272,3314,2,0,B|472:224|444:176,1,100,2|0
256,76,3759,1,2
256,28,4203,5,0
256,128,4426,1,0
344,80,4648,2,0,B|404:168|376:284,1,200,4|0
291,319,5314,2,0,B|231:231|259:115,1,200,2|2
344,80,5981,1,0
160,244,6203,6,0,B|52:212|36:96,1,200,2|0
92,20,6870,2,0,B|200:52|216:168,1,200,2|2
160,244,7537,1,0
268,76,7759,5,2
316,164,7981,1,0
104,156,8203,1,4
104,156,8648,1,0
192,200,8870,2,0,B|244:180|296:200,1,100,2|0
464,296,9315,6,0,B|412:276|360:296,1,100,2|0
288,356,9759,2,0,B|172:368|112:256,1,200,2|0
192,200,10426,2,0,B|244:220|288:188,1,100,2|0
104,80,10870,1,2
104,80,11315,6,0,B|68:128|52:184,2,100,0|0|4
204,80,11981,1,0
280,144,12203,2,0,B|316:192|332:248,2,100,0|4|0
104,80,12870,1,0
180,144,13092,1,0
180,144,13315,1,4
256,192,13426,12,2,15315
256,52,15759,6,0,B|256:168,1,100,0|0
256,252,16426,1,0
256,252,16537,1,0
256,252,16648,2,0,B|256:360,2,100,0|0|4
216,160,17315,6,0,B|196:108|140:84,1,100,0|2
256,252,17759,2,0,B|276:304|340:328,1,100
160,236,18203,2,0,B|104:256|88:320,1,100,0|2
308,176,18648,1,0
300,76,18870,5,0
324,68,18981,1,0
348,72,19092,1,0
372,84,19203,1,0
392,100,19314,1,2
404,120,19426,1,0
408,144,19537,1,0
400,168,19648,1,0
384,188,19759,2,0,B|344:232|340:324,1,100
356,376,20203,1,2
440,320,20426,1,0
264,340,20648,6,0,B|156:336|111:237|124:200,1,200,4|2
220,196,21314,1,0
52,128,21537,1,0
228,96,21759,1,0
96,220,21981,1,2
132,44,22203,1,0
144,144,22426,5,0
144,144,22537,1,0
144,144,22648,1,0
300,164,22870,2,0,B|352:148|400:176,1,100,2|0
388,304,23314,1,0
388,304,23426,1,0
388,304,23537,1,0
216,280,23759,2,0,B|200:224|236:180,1,100,2|0
388,304,24203,6,0,B|320:384|200:356,1,200,4|2
268,220,24870,1,0
152,316,25092,1,0
192,172,25314,1,0
40,184,25537,1,2
104,48,25759,1,0
104,48,25870,1,0
104,48,25981,6,0,B|220:48,1,100
156,136,26426,2,0,B|268:136,1,100,2|0
356,136,26870,1,2
252,284,27092,1,0
272,104,27314,1,2
340,268,27537,1,0
428,212,27759,6,0,B|316:236|308:372,1,200,4|0
156,256,28426,1,4
180,248,28537,1,0
196,228,28648,1,0
204,204,28759,1,0
196,180,28870,2,0,B|124:100,1,100
308,108,29314,6,0,B|380:188,1,100,4|0
392,204,29648,1,0
400,228,29759,1,0
400,252,29870,1,0
396,276,29981,1,0
388,300,30092,1,0
376,320,30203,1,0
356,336,30314,1,0
332,348,30426,6,0,B|264:360,3,50
256,356,30870,2,0,B|196:316,4,50,0|0|0|0|4
256,356,31759,6,0,B|256:224,1,100,0|0
256,156,32426,1,0
256,156,32537,1,0
256,156,32648,2,0,B|272:116|240:96|256:56,1,100,2|0
420,240,33092,6,0,B|400:296|340:312,1,100,4|0
256,276,33537,1,2
160,308,33759,1,0
64,280,33981,2,0,B|40:232|60:184,1,100
188,104,34426,2,0,B|212:152|192:200,1,100,2|0
52,140,34870,5,0
204,236,35092,1,0
24,236,35314,1,2
176,140,35537,1,0
272,164,35759,1,0
308,72,35981,5,0
212,48,36203,1,2
192,48,36314,1,0
172,48,36426,1,0
152,48,36537,1,0
132,48,36648,6,0,B|32:48,2,100,4|0|2
196,160,37314,2,0,B|84:160,1,100,0|0
316,252,37759,1,0
216,252,37981,2,0,B|168:280|160:352,2,100,2|0|0
316,252,38648,1,0
416,252,38870,2,0,B|464:224|472:152,2,100,2|0|0
316,100,39537,5,0
316,252,39759,1,2
300,272,39870,1,0
280,288,39981,1,0
256,300,40092,1,0
232,304,40203,6,0,B|184:324|112:300,1,100,4|0
32,196,40648,2,0,B|80:176|152:200,1,100,2|0
216,248,41092,2,0,B|260:284|336:276,2,100,0|0|2
152,172,41759,1,0
152,72,41981,1,0
360,72,42203,5,0
152,172,42426,1,2
248,140,42648,2,0,B|284:184|292:268,1,100
152,172,43092,1,0
68,120,43314,1,2
228,228,43537,1,0
64,212,43759,6,0,B|40:260|44:320,1,100,4|0
228,228,44203,2,0,B|252:180|248:120,1,100,2|0
168,72,44648,1,0
332,148,44870,1,0
152,156,45092,1,2
308,68,45314,1,0
244,236,45537,5,0
244,212,45648,1,0
252,188,45759,1,0
264,168,45870,1,0
280,152,45981,1,2
300,140,46092,1,0
324,132,46203,1,0
348,132,46314,1,0
372,132,46426,2,0,B|476:132,2,100,0|0|2
340,228,47092,1,0
428,276,47314,6,0,B|368:372|224:336,1,200,4|2
168,292,47981,2,0,B|156:236|104:216,1,100
8,252,48426,1,0
128,120,48648,1,2
32,152,48870,1,0
108,216,49092,6,0,B|160:232|216:216,1,100
308,108,49537,2,0,B|256:92|200:108,1,100,2|0
308,220,49981,1,0
168,272,50203,1,0
308,220,50426,1,2
264,308,50648,1,0
404,252,50870,6,0,B|428:204|420:140,1,100,4|0
332,36,51314,2,0,B|308:84|316:148,1,100,2|0
304,232,51759,2,0,B|264:196|188:188,2,100,0|0|2
328,328,52426,6,0,B|224:368|136:304,1,200
304,232,53092,1,2
138,305,53314,1,0
200,224,53537,1,0
36,292,53759,2,0,B|12:240|24:168,1,100,2|2
56,100,54203,2,0,B|96:68|172:68,1,100,0|4
248,84,54648,5,0
164,208,54870,2,0,B|132:164|152:108,1,100,2|0
248,84,55314,1,0
332,208,55537,2,0,B|364:164|344:108,1,100,0|2
252,312,55981,6,0,B|332:396|448:340,1,200,4|0
332,208,56648,1,2
252,312,56870,1,0
180,208,57092,2,0,B|128:236|116:304,1,100
332,208,57537,2,0,B|384:236|396:304,1,100,2|0
252,104,57981,6,0,B|252:4,1,100,4|0
112,56,58426,1,2
112,56,58537,1,0
112,56,58648,1,0
60,140,58870,2,0,B|40:200|40:256,1,100,4|0
84,328,59314,1,2
84,328,59426,1,0
84,328,59537,1,4
172,204,59759,5,0
188,184,59870,1,0
208,168,59981,1,0
232,160,60092,1,0
256,156,60203,1,2
280,156,60314,1,0
304,164,60426,1,0
324,176,60537,1,0
344,192,60648,2,0,B|392:248,8,50,0|0|0|0|2|0|0|0|4
256,192,62870,5,0
256,192,63092,1,0
256,40,63314,6,4,B|196:40|156:96,1,100,4|0
168,260,63759,2,0,B|168:156,1,100,8|2
88,32,64203,2,0,B|88:136,1,100,0|2
88,232,64648,1,8
172,132,64870,2,0,B|240:128|304:196|308:264,1,200,2|2
240,328,65537,1,8
168,260,65759,1,2
328,132,65981,1,2
328,132,66426,5,8
180,152,66648,1,0
268,272,66870,1,4
252,124,67092,1,0
216,216,67314,2,0,B|260:184|320:212,1,100,8|2
320,324,67759,2,0,B|276:356|216:328,1,100,0|2
52,288,68203,1,8
52,288,68426,6,0,B|148:228|136:100,1,200,2|0
36,120,69092,1,8
196,36,69314,1,0
196,216,69537,1,2
108,168,69759,1,0
112,68,69981,1,8
200,116,70203,1,0
196,216,70426,6,0,B|220:268|288:292,1,100,4|0
360,252,70870,1,8
292,180,71092,2,0,B|328:132|416:164,1,100,2|0
428,320,71537,2,0,B|392:368|304:336,1,100,2|8
268,272,71981,5,2
268,272,72092,1,0
268,272,72203,1,0
180,320,72426,1,2
48,200,72648,1,8
80,296,72870,1,2
256,140,73092,1,2
256,140,73537,5,8
256,140,73759,1,0
180,204,73981,2,0,B|124:216|80:168,1,100,4|0
156,104,74426,1,0
332,204,74648,1,4
332,204,74759,1,0
332,204,74870,1,0
356,104,75092,1,0
356,104,75314,1,0
356,104,75537,1,4
256,192,75648,12,2,77537
256,360,77981,6,0,B|256:248,1,100,0|0
256,160,78648,1,0
256,160,78759,1,0
256,160,78870,2,0,B|256:40,2,100,0|0|4
184,228,79537,6,0,B|152:280|84:276,1,100,0|2
280,248,79981,2,0,B|332:280|328:348,1,100
256,160,80426,2,0,B|288:108|356:112,1,100,0|2
160,136,80870,5,0
338,112,81092,1,0
168,48,81314,1,0
284,184,81537,1,2
284,4,81759,1,0
248,96,81981,5,0
248,96,82092,1,0
248,96,82203,1,0
384,192,82426,1,2
396,212,82537,1,0
404,236,82648,1,0
404,260,82759,1,0
396,284,82870,6,0,B|356:328|288:324,1,100,0|0
168,260,83314,2,0,B|208:216|276:220,1,100,2|0
348,260,83759,1,0
168,260,83981,1,0
256,104,84203,1,2
256,304,84426,1,0
256,204,84648,5,0
256,204,84759,1,0
256,204,84870,1,0
168,156,85092,2,0,B|116:128|48:136,1,100,2|0
256,204,85537,5,0
256,204,85648,1,0
256,204,85759,1,0
336,156,85981,2,0,B|388:128|456:136,1,100,2|0
336,280,86426,6,0,B|304:348|204:348|172:272,1,200,4|2
88,232,87092,2,0,B|64:184|92:120,1,100
180,180,87537,2,0,B|204:132|176:68,1,100,0|2
256,16,87981,1,0
84,68,88203,5,0
260,108,88426,1,0
196,276,88648,1,2
180,180,88870,1,0
276,208,89092,2,0,B|328:224|372:264,1,100,2|0
408,344,89537,2,0,B|460:328|484:280,1,100,2|0
451,165,89981,6,0,B|416:268|307:290,1,200,4|0
160,262,90648,2,0,B|196:160|304:137,1,200,4|0
452,164,91314,1,0
452,164,91537,1,4
256,192,91648,12,2,93537
