osu file format v9

[General]
AudioFilename: Kokoro Hare.mp3
AudioLeadIn: 2000
PreviewTime: 62869
Countdown: 0
SampleSet: Soft
StackLeniency: 0.7
Mode: 0
LetterboxInBreaks: 0

[Editor]
DistanceSpacing: 1
BeatDivisor: 4
GridSize: 4

[Metadata]
Title:Kokoro Hare (Short Ver.)
Artist:Kicco
Creator:kusano
Version:Easy
Source:Diamic Days
Tags:lump of sugar eroge opening banvi Hinacle

[Difficulty]
HPDrainRate:2
CircleSize:3
OverallDifficulty:2
ApproachRate:3
SliderMultiplier:1
SliderTickRate:1

[Events]
//Background and Video events
Video,0,"Diamick Days op.avi"
0,0,"kotora.jpg"
//Break Periods
//Storyboard Layer 0 (Background)
//Storyboard Layer 1 (Fail)
//Storyboard Layer 2 (Pass)
//Storyboard Layer 3 (Foreground)
//Storyboard Sound Samples
//Background Colour Transformations
3,100,163,162,255

[TimingPoints]
-685,444.444444444444,4,2,1,70,1,0
63314,-100,4,2,1,70,0,1
77536,-100,4,2,1,70,0,0
93536,-100,4,2,1,35,0,0

[Colours]
Combo1 : 255,187,119
Combo2 : 187,221,255
Combo3 : 255,185,255
Combo4 : 196,255,136

[HitObjects]
160,80,1092,2,0,B|256:28|356:84,1,200,4|2
448,256,2870,2,0,B|352:308|252:252,1,200,2|2
56,252,4648,6,0,B|4:144|92:52,1,200,4|2
268,136,6426,2,0,B|384:136,2,100,0|2|2
76,192,8203,6,0,B|100:308|228:328,1,200,4|2
408,320,9981,2,0,B|408:204,2,100,0|2|2
332,136,11759,6,4,B|176:136,1,150
256,192,13315,12,4,15759
256,56,16648,6,0,B|256:176,1,100,0|4
256,256,17537,2,0,B|280:308|400:312|432:252,1,200,2|2
432,156,18870,2,0,B|432:48,3,100,0|2|0|2
332,40,20648,6,0,B|224:4|140:72,1,200
92,156,21981,1,2
92,256,22426,2,0,B|128:292|196:280,1,100,0|2
284,284,23314,2,0,B|384:284,1,100,0|2
436,196,24203,6,0,B|336:160|232:200,1,200,4|0
152,244,25537,1,2
68,192,25981,2,0,B|68:84,2,100,0|2|2
68,292,27314,1,2
168,292,27759,6,4,B|240:336|316:292,1,150
256,192,29314,12,4,31314
376,92,32648,6,0,B|420:132|424:180,1,100,0|4
420,276,33537,2,0,B|392:320|332:332,1,100,2|0
248,288,34426,1,2
156,324,34870,2,0,B|92:328|60:264,1,100,0|2
72,180,35759,1,0
172,180,36203,1,2
272,180,36648,6,0,B|392:204|432:96,1,200
348,40,37981,1,2
248,40,38426,2,0,B|132:12|80:120,1,200
72,216,39759,1,2
96,312,40203,6,0,B|212:312,1,100,4|2
296,312,41092,1,0
244,224,41537,2,0,B|236:164|292:128,1,100,2|0
376,112,42426,2,0,B|384:172|328:212,2,100,2|0|2
288,60,43759,6,0,B|196:12|88:60,1,200,0|0
56,148,45092,1,2
84,244,45537,2,0,B|176:292|284:244,1,200,0|0
472,260,47314,6,0,B|472:152,1,100,4|2
372,152,48203,2,0,B|372:48,1,100,0|2
276,28,49092,2,0,B|224:12|156:32,3,100,0|2|0|2
80,56,50870,6,0,B|64:108|84:176,1,100,0|2
180,164,51759,2,0,B|196:216|176:284,1,100,0|2
132,352,52648,2,0,B|236:352,3,100,0|2|0|2
332,352,54426,5,4
328,252,54870,1,2
280,164,55314,2,0,B|328:136|380:168,1,100,0|2
328,252,56203,2,0,B|280:280|228:248,1,100,0|2
132,252,57092,1,0
164,56,57981,6,0,B|193:0|313:4|337:56,1,200,4|2
448,156,59537,2,0,B|484:228|444:300,1,150,4|2
352,332,60648,1,0
256,304,61092,2,0,B|256:192,1,100,2|4
256,56,62870,6,0,B|204:36|152:60,1,100,0|4
72,112,63759,1,8
72,212,64203,2,0,B|96:260|148:276,1,100,0|8
244,280,65092,2,0,B|336:228|448:284,1,200,2|2
436,80,66870,6,0,B|460:132|432:184,1,100,0|8
400,268,67759,2,0,B|369:316|319:319,1,100,0|8
220,320,68648,2,0,B|96:316|84:188,1,200,2|2
240,72,70426,6,0,B|340:32|448:88,1,200,4|2
424,280,72203,2,0,B|324:320|216:264,1,200,2|2
108,112,73981,6,0,B|64:184|112:272,1,150,4|4
256,192,75537,12,4,77981
432,244,78870,6,0,B|452:196|428:148,1,100,0|4
368,68,79759,1,2
268,60,80203,2,0,B|168:24|68:64,1,200
48,260,81981,2,0,B|148:296|248:256,1,200
344,260,83314,5,2
448,88,84203,2,0,B|472:140|448:200,1,100,2|0
352,188,85092,2,0,B|240:188,1,100,2|0
152,192,85981,2,0,B|100:172|80:104,1,100,2|4
152,44,86870,5,2
252,44,87314,2,0,B|364:40|440:140,1,200
388,320,89092,2,4,B|276:324|200:224,1,200,2|4
256,96,90648,1,4
256,192,91537,12,2,93537
