osu file format v5

[General]
AudioFilename: MJ33866-.mp3
AudioLeadIn: 1996
PreviewTime: -1
Countdown: 1
SampleSet: Normal
StackLeniency: 0.7
Mode: 0
LetterboxInBreaks: 1
EditorBookmarks: 18372,19431,34957,39113,40602,79074,80475,81897,101657,102716,103068,104127

[Metadata]
Title:Star Wolf Rave Mix
Artist:KgZ
Creator:Mifune24
Version:Slippy
Source:
Tags:

[Difficulty]
HPDrainRate:4
CircleSize:4
OverallDifficulty:5
SliderMultiplier:1
SliderTickRate:1

[Events]
//Background and Video events
0,0,"starfox2.jpg"
//Break Periods
//Storyboard Layer 0 (Background)
//Storyboard Layer 1 (Failing)
//Storyboard Layer 2 (Passing)
//Storyboard Layer 3 (Foreground)
//Storyboard Sound Samples
//Background Colour Transformations
3,100,0,0,0

[TimingPoints]
730,352.858151023289,4,1,0,70,1

[Colours]
Combo1 : 255,128,64
Combo2 : 0,0,0
Combo3 : 5,5,240
Combo4 : 128,128,128

[HitObjects]
160,96,2847,6,0,B|256:32|352:96,1,200
352,256,4258,2,0,B|256:320|160:256,1,200
160,96,5670,6,0,B|256:32|352:96,1,200
352,256,7081,2,0,B|256:320|160:256,1,200
192,96,8492,5,0
256,96,8845,1,0
320,96,9198,1,0
320,256,9904,1,0
256,256,10257,1,0
192,256,10610,1,0
192,128,11315,5,2
192,192,11668,1,2
192,256,12021,1,2
352,256,12727,1,2
352,192,13080,1,2
352,128,13432,1,2
203,96,14138,6,4,B|117:95|76:216|124:256,1,200
271,242,15550,2,4,B|344:244|378:148|343:87,1,200
256,192,16961,12,0,19431
184,153,19784,6,0,B|184:96|290:67|328:126|331:161,1,200
258,298,21195,1,0
258,298,21725,1,0
456,230,22607,6,0,B|509:147|439:86,1,150
256,64,24018,1,0
256,128,24371,1,0
256,192,24724,1,0
256,256,25077,1,0
96,257,25782,6,0,B|34:159|107:60,1,200
178,86,26841,1,0
176,205,27370,2,0,B|258:257|335:196,1,150
332,130,28252,1,0
435,69,28782,2,0,B|482:152|425:234,1,150
398,281,29664,6,0,B|313:323|151:311|89:269,1,300
72,205,31075,5,0
143,61,31781,1,0
303,61,32487,1,0
433,153,33192,1,0
428,312,33898,2,0,B|236:344|108:312,2,300
281,247,36721,5,0
448,192,37427,1,0
384,64,38132,1,0
224,32,38838,1,0
64,32,39544,2,0,B|-17:216|66:344,2,300
434,196,42367,5,0
343,328,43072,1,0
182,329,43778,2,0,B|72:330,4,100
165,169,45895,1,0
254,36,46601,1,2
289,107,46954,1,2
213,107,47307,1,2
32,160,48012,5,0
32,160,48365,1,0
32,160,48718,1,0
155,57,49424,2,0,B|223:6|303:24|341:61,1,200
477,141,50835,1,0
477,141,51188,1,0
477,141,51541,1,0
394,295,52247,6,0,B|255:348|94:302,1,300
64,224,53658,5,4
160,96,54364,1,4
320,96,55070,1,4
416,224,55775,1,4
256,320,56481,5,2
256,320,56834,1,2
256,320,57187,1,2
256,320,57540,1,2
256,320,57893,2,0,B|198:329|159:250|201:168|291:168|346:254|315:307,1,300
384,320,59304,5,0
384,160,60010,1,0
256,96,60715,1,0
128,160,61421,1,0
41,235,62127,6,4,B|34:317|142:363|197:351,1,200
256,354,63185,1,4
336,355,63538,2,4,B|449:353|479:230,1,200
384,96,64950,5,0
256,32,65655,1,0
128,96,66361,1,0
190,243,67067,1,0
252,293,67420,1,0
316,245,67773,2,4,B|520:245,2,200
256,64,70948,5,0
416,128,71654,1,0
416,288,72360,1,0
256,352,73065,1,0
96,288,73771,1,0
96,128,74477,1,0
256,128,75183,5,4
224,192,75535,1,4
288,192,75888,1,4
256,256,76241,1,4
181,285,76594,6,2,B|250:357|338:318|359:279,1,200
360,203,77653,1,2
360,123,78005,2,2,B|291:51|203:90|182:129,1,200
256,192,79064,12,0,81887
256,64,82416,6,2,B|128:160,1,150
96,224,83298,1,0
96,224,83828,2,2,B|224:320,1,150
288,288,84710,1,0
288,288,85239,2,2,B|416:192,1,150
469,147,86121,1,0
469,147,86650,2,2,B|347:35,1,150
288,96,87533,5,0
128,96,88238,1,0
130,256,88944,2,4,B|237:257,4,100
416,96,91767,5,0
384,160,92120,1,0
352,224,92473,2,2,B|288:320,2,100
256,95,93884,1,4
228,252,94590,5,0
176,190,94943,1,0
127,126,95295,2,2,B|59:38,2,100
255,221,96707,1,4
332,361,97413,5,0
349,283,97765,1,0
370,206,98118,2,2,B|409:96,2,100
258,320,99530,1,4
96,352,100235,5,0
24,317,100588,1,0
93,276,100941,1,2
23,236,101294,1,2
94,201,101647,6,4,B|191:223|190:123|102:100|66:75|83:22|156:16|193:43,1,300
244,91,103058,2,4,B|278:191|278:191|319:139|319:139|343:182|343:182|390:100,1,300
256,192,104470,12,4,105881
