osu file format v5

[General]
AudioFilename: MJ33866-.mp3
AudioLeadIn: 1996
PreviewTime: -1
Countdown: 1
SampleSet: Normal
StackLeniency: 0.7
Mode: 0
LetterboxInBreaks: 1
EditorBookmarks: 18372,19431,39113,79074,80475,81897,101657,102716,103068,104127

[Metadata]
Title:Star Wolf Rave Mix
Artist:KgZ
Creator:Mifune24
Version:Peppy
Source:
Tags:

[Difficulty]
HPDrainRate:5
CircleSize:4
OverallDifficulty:5
SliderMultiplier:1.4
SliderTickRate:1

[Events]
//Background and Video events
0,0,"starfox2.jpg"
//Break Periods
//Storyboard Layer 0 (Background)
//Storyboard Layer 1 (Failing)
//Storyboard Layer 2 (Passing)
//Storyboard Layer 3 (Foreground)
//Storyboard Sound Samples
//Background Colour Transformations
3,100,0,0,0

[TimingPoints]
730,352.858151023289,4,1,0,70,1

[Colours]
Combo1 : 255,128,64
Combo2 : 0,0,0
Combo3 : 5,5,240
Combo4 : 128,128,128

[HitObjects]
160,64,2847,5,0
256,64,3200,1,0
352,64,3552,1,0
448,64,3905,1,0
448,160,4258,2,0,B|448:320,3,140
352,320,5670,5,0
224,320,6022,1,0
224,192,6375,1,0
352,192,6728,1,0
352,64,7081,2,0,B|192:64,1,140
96,64,7787,2,2,B|96:224,1,140
96,320,8492,5,4
160,224,8845,1,0
256,224,9198,1,0
352,224,9551,1,0
320,320,9904,2,0,B|480:320,1,140
480,224,10610,2,2,B|384:96,1,140
288,32,11315,5,4
288,32,11668,1,0
192,96,12021,1,0
192,96,12374,1,0
288,160,12727,1,0
192,224,13080,1,0
96,160,13432,1,2
32,256,13785,1,2
96,352,14138,6,4,B|512:224,1,420
448,128,15550,1,4
448,128,15902,2,0,B|32:32,1,420
64,128,17314,5,2
128,224,17667,1,2
224,288,18020,1,2
326,331,18372,2,0,B|409:372|500:347|524:237|478:167|384:151|317:222|313:277,1,420
204,270,19784,6,0,B|198:348|133:371|78:355|77:258,1,210
76,113,20842,1,0
169,51,21195,2,0,B|250:100|378:48,1,210
450,198,22254,1,0
342,165,22607,2,0,B|242:118|137:164,1,210
151,330,23665,1,0
263,330,24018,5,0
264,217,24371,1,0
363,269,24724,1,0
361,156,25077,1,0
270,89,25430,6,0,B|121:88,1,140
46,162,26135,1,0
103,258,26488,2,0,B|248:257,1,140
300,160,27194,1,0
411,163,27547,2,0,B|411:324,1,140
310,351,28252,1,0
207,305,28605,2,0,B|54:224,1,140
83,127,29311,1,0
163,49,29664,2,4,B|293:130,3,140
212,210,31075,5,0
120,274,31428,1,0
120,161,31781,2,0,B|34:161|36:64,2,140
198,81,32840,1,0
198,81,33016,1,0
198,81,33192,2,0,B|295:79|304:159,2,140
117,159,34251,1,0
216,211,34604,2,4,B|331:266|482:212|500:201,3,280
436,304,37074,5,0
328,334,37427,2,0,B|240:335|209:270,2,140
325,221,38485,1,0
325,221,38662,1,0
325,221,38838,2,0,B|416:225|441:158,2,140
322,108,39897,1,0
254,18,40250,1,0
245,129,40602,1,0
184,34,40955,2,2,B|39:34,1,140
41,146,41661,2,2,B|174:218,1,140
47,278,42720,5,0
252,365,43425,1,0
462,288,44131,1,0
458,63,44837,1,0
237,27,45542,1,0
26,105,46248,1,0
70,285,46954,1,0
252,344,47660,1,0
252,344,48012,6,0,B|252:190,2,140
258,63,49424,5,0
258,175,49777,1,0
145,175,50130,1,0
145,175,50306,1,0
145,175,50482,1,0
149,286,50835,6,0,B|5:286,2,140
371,260,52247,5,0
367,148,52600,1,0
479,145,52953,1,0
479,145,53129,1,0
479,145,53305,1,0
418,50,53658,5,4
193,49,54364,1,4
37,210,55070,1,4
193,369,55775,1,4
409,311,56481,5,2
409,198,56834,1,2
346,105,57187,1,2
240,66,57540,1,2
130,89,57893,2,0,B|37:108|13:181|31:259|98:295|173:272|218:220|213:174|182:120,1,420
195,17,59304,5,0
300,55,59657,1,0
405,94,60010,1,0
299,130,60363,1,0
192,165,60715,1,0
297,201,61068,1,0
401,241,61421,1,0
294,275,61774,1,0
211,351,62127,6,4,B|126:355|75:317,1,140
31,216,62833,2,4,B|99:255|185:250,1,140
245,172,63538,2,4,B|164:172|107:137,1,140
64,36,64244,2,4,B|123:78|213:76,1,140
352,70,64950,5,0
439,29,65303,1,0
436,140,65655,2,0,B|437:218|339:233,2,140
352,71,66714,1,0
352,71,66890,1,0
352,71,67067,2,0,B|278:39|213:74,1,140
124,153,67773,5,4
255,334,68478,1,4
389,155,69184,1,4
13,148,70948,6,0,B|14:93|86:84|95:169,1,140
101,274,71654,2,0,B|102:329|174:338|183:253,1,140
175,147,72360,2,0,B|176:92|248:83|257:168,1,140
261,273,73065,2,0,B|262:328|334:337|343:252,1,140
330,145,73771,2,0,B|331:90|403:81|412:166,1,140
419,271,74477,2,0,B|420:326|492:335|501:250,1,140
497,144,75183,5,4
460,38,75535,1,4
391,126,75888,1,4
350,26,76241,1,4
256,64,76594,6,2,B|32:256,1,280
32,352,77653,1,2
128,288,78005,2,2,B|352:96,1,280
427,34,79064,2,4,B|510:106|505:247|436:345|305:370|155:355,2,560
335,99,82240,5,0
335,99,82416,2,2,B|374:172|340:243|283:296,1,210
198,351,83298,1,0
120,270,83651,1,0
120,270,83828,2,2,B|65:180|125:74|148:64,1,210
234,16,84710,1,0
325,80,85063,1,0
325,80,85239,2,2,B|381:187|320:290,1,210
232,344,86121,1,0
139,281,86474,1,0
139,281,86650,2,2,B|88:159|160:72,1,210
257,41,87533,5,0
346,107,87885,1,0
256,174,88238,1,0
166,107,88591,1,0
167,219,88944,2,4,B|168:363,3,140
269,310,90355,5,0
340,223,90708,1,0
318,112,91061,1,0
224,79,91414,1,0
224,79,91590,1,0
224,79,91767,2,0,B|227:224,4,140
124,27,93531,5,0
32,92,93884,1,0
122,157,94237,1,0
122,157,94413,1,0
122,157,94590,2,0,B|123:319,4,140
145,47,96354,5,0
228,121,96707,1,0
315,51,97060,1,0
315,51,97236,1,0
315,51,97413,2,0,B|483:50,4,140
258,147,99177,5,0
194,239,99530,1,0
124,151,99883,1,0
124,151,100059,1,0
124,151,100235,1,0
43,73,100588,1,0
40,185,100941,1,2
38,297,101294,1,2
148,314,101647,6,4,B|224:348|294:291|278:206|181:182|134:145|137:84|217:48|295:105,1,420
318,200,103058,2,4,B|340:297|340:297|417:206|417:206|455:299|455:299|505:199,1,420
256,192,104470,12,4,105881
