osu file format v5

[General]
AudioFilename: ReRicked.mp3
AudioLeadIn: 0
PreviewTime: -1
Countdown: 1
SampleSet: Soft
StackLeniency: 0.7
Mode: 0

[Metadata]
Title:ReRicked
Artist:KgZ
Creator:Silvuh
Version:Normal

[Difficulty]
HPDrainRate:3
CircleSize:4
OverallDifficulty:3
SliderMultiplier:1.4
SliderTickRate:1

[Events]
//Background and Video events
0,0,"rerickedbg.png"
//Break Periods
//Storyboard Layer 0 (Background)
//Storyboard Layer 1 (Failing)
//Storyboard Layer 2 (Passing)
//Storyboard Layer 3 (Foreground)
//Storyboard Sound Samples
//Background Colour Transformations
3,100,163,162,255

[TimingPoints]
2050,461.505161538462,4,2,0,100

[Colours]
Combo1 : 255,215,0
Combo2 : 254,254,0
Combo3 : 255,215,0
Combo4 : 246,146,2

[HitObjects]
112,152,2049,1,0
192,152,2396,1,0
264,112,2742,1,0
480,320,3896,5,2
392,320,4242,1,2
336,256,4588,1,2
104,96,5742,5,0
184,120,6088,1,0
256,80,6434,1,0
432,296,7588,5,0
360,80,8511,5,2
360,192,8972,1,2
248,192,9434,6,6,B|148:184|209:305|209:304,1,140
256,296,10126,2,2,B|330:284|306:169,1,140
152,112,11280,6,0,B|230:58|300:130|300:128,1,140
336,136,11972,2,0,B|423:147|453:71,1,140
432,240,13126,6,0,B|356:274|268:220,1,140
248,208,13818,2,0,B|189:156|198:74,1,140
168,248,14972,5,6
80,40,15895,5,2
280,128,16818,6,6,B|180:120|241:241|241:240,1,140
288,232,17510,2,2,B|362:220|338:105,1,140
176,128,18664,6,0,B|254:74|324:146|324:144,1,140
352,160,19356,2,0,B|439:171|469:95,1,140
416,264,20510,6,0,B|340:298|252:244,1,140
232,232,21202,2,0,B|173:180|182:98,1,140
152,272,22356,5,6
224,56,23279,5,2
224,168,23740,1,2
336,176,24202,5,6
416,176,24548,1,0
480,128,24894,1,2
240,280,26048,5,2
152,280,26394,1,0
88,336,26740,1,2
320,176,27894,5,2
400,176,28240,1,0
472,128,28586,1,2
192,104,29740,5,2
192,184,30086,1,0
136,248,30432,1,2
400,336,31586,5,2
312,336,31932,1,0
248,280,32278,1,2
112,96,33201,6,0,B|155:58|156:60,1,35
168,64,33432,5,2
248,64,33778,1,0
304,128,34124,1,2
488,336,35278,5,2
488,248,35624,1,0
440,176,35970,1,2
176,88,37124,5,2
176,168,37470,1,0
176,248,37816,1,2
176,248,38047,1,6
456,64,39431,6,2,B|387:111,2,70
464,120,40124,1,0
456,176,40354,1,0
416,216,40585,1,0
360,224,40816,1,6
360,112,41277,1,2
304,112,41508,2,2,B|304:62,1,35
96,216,42662,5,2
160,160,43008,1,0
224,216,43354,1,2
288,160,43700,1,0
480,160,44508,6,2,B|480:96|480:97,2,35
480,216,44969,1,0
424,216,45200,2,6,B|384:216,1,35
56,160,46700,5,2
136,160,47046,1,2
216,160,47392,1,2
296,160,47739,1,0
296,48,48200,1,2
352,48,48431,2,6,B|435:152|277:280|150:237,1,350
56,208,50046,5,2
120,152,50392,1,0
184,208,50738,1,2
248,152,51084,1,0
432,224,51892,5,2
376,160,52238,2,6,B|467:90,1,105
192,176,53738,6,6,B|192:119|192:119|224:89|290:133|291:132,1,140
328,128,54430,2,2,B|328:185|328:185|296:215|230:171|229:172,1,140
88,128,55584,5,6
168,128,55930,1,6
248,128,56276,1,6
360,128,56738,1,0
360,184,56969,1,0
472,184,57430,6,6,B|529:184|529:184|559:216|515:282|516:283,1,140
472,256,58122,2,2,B|415:256|415:256|385:224|429:158|428:157,1,140
280,280,59276,5,6
192,280,59622,1,6
104,280,59968,1,6
104,168,60430,1,0
104,112,60661,1,0
216,112,61122,6,6,B|216:55|216:55|248:25|314:69|315:68,1,140
328,104,61814,2,0,B|328:161|328:161|296:191|230:147|229:148,1,140
408,104,62968,5,6
408,184,63314,1,6
408,264,63660,1,6
296,264,64122,1,0
240,264,64353,1,0
128,264,64814,6,6,B|128:321|128:321|160:351|226:307|227:308,1,140
184,264,65506,2,2,B|184:207|184:207|152:177|86:221|85:220,1,140
96,40,66660,5,6
176,40,67006,1,6
256,40,67352,1,6
256,152,67814,1,6
256,208,68045,1,6
