osu file format v5

[General]
AudioFilename: ReRicked.mp3
AudioLeadIn: 0
PreviewTime: -1
Countdown: 1
SampleSet: Soft
StackLeniency: 0.7
Mode: 0

[Metadata]
Title:ReRicked
Artist:KgZ
Creator:Silvuh
Version:Hard

[Difficulty]
HPDrainRate:3
CircleSize:5
OverallDifficulty:4
SliderMultiplier:1.4
SliderTickRate:1

[Events]
//Background and Video events
0,0,"rerickedbg.png"
//Break Periods
//Storyboard Layer 0 (Background)
//Storyboard Layer 1 (Failing)
//Storyboard Layer 2 (Passing)
//Storyboard Layer 3 (Foreground)
//Storyboard Sound Samples
//Background Colour Transformations
3,100,163,162,255

[TimingPoints]
2050,461.505061538462,4,2,0,100

[Colours]
Combo1 : 255,215,0
Combo2 : 254,254,0
Combo3 : 255,215,2
Combo4 : 246,146,2

[HitObjects]
40,304,2049,1,0
120,304,2396,1,0
120,216,2742,1,0
232,216,3203,1,0
288,216,3434,1,0
400,216,3896,5,2
400,128,4242,1,2
400,40,4588,1,2
288,40,5049,1,2
232,40,5280,6,0,B|168:72,1,70
112,72,5742,5,0
112,152,6088,1,0
192,152,6434,1,0
192,264,6895,1,0
192,264,7126,1,0
256,352,7588,1,0
256,128,8511,5,4
256,240,8972,1,4
352,296,9434,5,0
264,296,9780,1,0
184,264,10126,1,0
72,264,10587,1,0
76,267,10818,1,0
72,152,11280,5,0
152,152,11626,1,0
232,184,11972,1,0
328,128,12433,1,2
328,128,12664,2,0,B|296:192,1,70
296,248,13126,5,0
376,248,13472,1,0
432,192,13818,1,0
480,96,14279,1,0
480,96,14510,1,0
480,208,14972,1,0
304,72,15895,5,2
304,184,16356,1,0
192,184,16818,5,6
104,184,17164,1,0
104,96,17510,1,2
192,32,17971,1,0
192,32,18202,1,0
304,32,18664,5,2
304,112,19010,1,0
384,112,19356,1,2
384,224,19817,1,0
384,224,20048,2,0,B|288:256,1,70
264,248,20510,5,2
176,248,20856,1,0
176,160,21202,1,2
64,160,21663,1,0
64,160,21894,1,0
64,272,22356,1,6
232,128,23279,5,2
232,241,23740,1,6
317,316,24202,5,6
358,241,24548,1,0
437,270,24894,1,2
464,160,25356,1,0
464,160,25586,1,0
350,160,26048,5,2
264,160,26394,1,0
199,216,26740,1,2
209,329,27202,1,0
209,329,27432,1,4
96,320,27894,5,2
96,232,28240,1,0
144,160,28586,1,2
224,88,29048,1,0
224,88,29278,1,0
336,88,29740,5,2
416,88,30086,1,0
416,168,30432,1,2
368,264,30894,1,0
368,264,31124,1,4
256,264,31586,5,6
168,256,31932,1,0
168,168,32278,1,2
168,56,32740,1,0
168,56,32970,1,0
224,56,33201,6,6,B|224:37|224:37|243:37,1,35
264,40,33432,5,2
320,104,33778,1,0
400,80,34124,1,2
400,192,34586,1,4
400,192,34816,1,4
288,184,35278,5,2
200,184,35624,1,0
200,96,35970,1,2
88,96,36432,1,0
88,96,36662,1,0
88,208,37124,5,2
88,288,37470,1,0
168,288,37816,1,2
224,288,38047,1,0
280,288,38278,6,0,B|318:238,5,35
304,232,38970,1,6
304,120,39431,5,0
304,120,39662,1,2
304,120,39893,1,0
248,120,40124,1,2
248,120,40354,1,2
192,120,40585,1,0
136,120,40816,2,0,B|135:67,3,35
136,56,41277,1,0
192,56,41508,2,2,B|224:24,1,35
304,264,42662,6,0,B|272:296,1,35
224,288,43008,2,0,B|256:256,1,35
192,264,43354,2,0,B|160:296,1,35
112,288,43700,2,0,B|144:256,1,35
128,96,44508,6,0,B|160:64,2,35
128,152,44969,1,0
128,208,45200,2,0,B|96:240,1,35
80,248,45431,5,2
80,360,45892,1,0
192,360,46354,5,6
192,272,46700,5,2
192,272,47046,1,2
192,272,47392,1,2
192,272,47739,1,2
192,272,47969,1,0
192,216,48200,5,0
248,216,48431,2,0,L|291:179|329:193|337:223|369:207|389:229|393:253|423:243|439:277|433:310|398:336,1,350
296,320,50046,2,0,B|264:352,1,35
224,312,50392,2,0,B|256:280,1,35
208,248,50738,2,0,B|176:280,1,35
136,240,51084,2,0,B|168:208,1,35
56,80,51892,5,0
136,80,52238,2,0,B|168:68|168:68|151:61|151:61|168:58|168:58|156:52|156:52|167:40|167:40|153:30,1,105
216,24,52815,5,2
208,80,53046,5,0
264,88,53277,2,0,B|257:120|257:120|302:120|302:120|271:171,1,105
288,168,53738,5,6
344,168,53969,2,0,B|376:168|376:168|376:104,1,70
432,136,54430,5,4
432,80,54661,2,0,B|464:80|464:80|464:195,1,140
464,296,55584,5,6
376,296,55930,1,6
376,208,56276,1,6
264,208,56738,1,0
264,208,56969,1,0
152,208,57430,5,6
152,152,57661,2,0,B|184:152|184:152|184:88,1,70
128,112,58122,5,4
72,112,58353,2,0,B|72:76|72:76|182:74,1,140
288,72,59276,5,6
368,72,59622,1,6
368,152,59968,1,6
368,264,60430,1,0
368,264,60661,1,0
264,224,61122,5,6
264,280,61353,2,0,B|296:280|296:280|296:216,1,70
296,184,61814,5,4
264,136,62045,2,0,B|263:170|263:170|377:170,1,140
480,168,62968,5,6
480,80,63314,1,6
392,80,63660,1,6
280,80,64122,1,0
280,80,64353,1,0
280,192,64814,5,6
336,192,65045,2,0,B|368:192|368:192|368:128,1,70
424,152,65506,5,4
424,208,65737,2,0,B|384:208|384:208|383:317,1,140
272,312,66660,5,6
184,312,67006,1,6
224,240,67352,1,6
256,128,67814,1,6
256,128,68045,1,6
